osu file format v13

[General]
AudioFilename: -Across the line-.mp3
AudioLeadIn: 0
PreviewTime: 57257
Countdown: 0
SampleSet: Soft
StackLeniency: 0.7
Mode: 0
LetterboxInBreaks: 0
WidescreenStoryboard: 0

[Editor]
DistanceSpacing: 1.1
BeatDivisor: 2
GridSize: 4
TimelineZoom: 1

[Metadata]
Title:-Across the line- (short size)
TitleUnicode:-Across the line- (short size)
Artist:Uchida Maaya
ArtistUnicode:内田真礼
Creator:No Dap
Version:Easy
Source:Takanashi Rikka ・Kai~ Gekijouban Chuunibyou demo Koi ga Shitai!~
Tags:movie opening tv size 小鳥遊六花・改 ~劇場版 中二病でも恋がしたい!~
BeatmapID:554625
BeatmapSetID:239922

[Difficulty]
HPDrainRate:2
CircleSize:2.5
OverallDifficulty:2
ApproachRate:2.5
SliderMultiplier:0.8
SliderTickRate:2

[Events]
//Background and Video events
0,0,"bgbgbgbg.jpg",0,0
//Break Periods
//Storyboard Layer 0 (Background)
//Storyboard Layer 1 (Fail)
//Storyboard Layer 2 (Pass)
//Storyboard Layer 3 (Foreground)
//Storyboard Sound Samples

[TimingPoints]
6667,372.670807453416,4,2,1,40,1,0
9648,-100,4,2,1,60,0,0
15983,-100,4,2,2,60,0,0
16170,-100,4,2,1,60,0,0
17474,-100,4,2,2,60,0,0
17660,-100,4,2,1,60,0,0
18965,-100,4,2,2,60,0,0
19151,-100,4,2,1,60,0,0
20455,-100,4,2,2,60,0,0
20642,-100,4,2,1,60,0,0
26418,-100,4,2,2,60,0,0
26604,-100,4,2,1,60,0,0
29399,-100,4,2,2,60,0,0
29586,-100,4,2,1,60,0,0
30517,-100,4,2,1,50,0,0
30890,-100,4,2,2,50,0,0
30983,-100,4,2,1,50,0,0
32381,-100,4,2,2,50,0,0
32474,-100,4,2,1,50,0,0
33499,-100,4,2,1,55,0,0
39462,-100,4,2,1,60,0,0
44306,-100,4,2,2,60,0,0
44493,-100,4,2,1,60,0,0
45424,-100,4,2,1,65,0,0
51387,-100,4,2,1,70,0,0
56977,-100,4,2,3,70,0,0
57350,-100,4,2,1,70,0,1
59213,-100,4,2,2,70,0,1
59399,-100,4,2,1,70,0,1
60704,-100,4,2,2,70,0,1
60890,-100,4,2,1,70,0,1
62194,-100,4,2,2,70,0,1
62381,-100,4,2,1,70,0,1
65176,-100,4,2,2,70,0,1
65362,-100,4,2,1,70,0,1
66294,-100,4,2,1,75,0,1
68903,-100,4,2,3,75,0,1
69275,-100,4,2,1,70,0,1
69648,-100,4,2,2,70,0,1
69834,-100,4,2,1,70,0,1
71139,-100,4,2,2,70,0,1
71325,-100,4,2,1,70,0,1
72629,-100,4,2,2,70,0,1
72816,-100,4,2,1,70,0,1
75611,-100,4,2,2,70,0,1
75797,-100,4,2,1,70,0,1
77101,-100,4,2,2,70,0,1
77288,-100,4,2,1,70,0,1
78592,-100,4,2,2,70,0,1
78778,-100,4,2,1,70,0,1
82319,-100,4,2,2,70,0,1
82505,-100,4,2,1,70,0,1
83064,-100,4,2,2,70,0,1
83250,-100,4,2,1,70,0,1
83809,-100,4,2,2,70,0,1
83996,-100,4,2,1,70,0,1
86791,-100,4,2,3,70,0,1
87163,-100,4,2,1,60,0,0
89772,-100,4,2,3,60,0,0
89865,-100,4,2,1,60,0,0
90517,-100,4,2,2,60,0,0
90611,-100,4,2,1,60,0,0
95735,-100,4,2,3,60,0,0
95828,-100,4,2,1,60,0,0

[Colours]
Combo1 : 36,255,36
Combo2 : 123,189,255
Combo3 : 255,255,96
Combo4 : 173,92,92

[HitObjects]
256,192,6666,12,8,8157,0:0:0:0:
108,144,9648,5,4,0:0:0:0:
164,212,10021,2,0,L|356:196,1,160,8|8,0:0|0:0,0:0:0:0:
384,264,11139,1,2,0:0:0:0:
424,184,11511,2,0,P|384:120|272:108,1,160,8|8,0:0|0:0,0:0:0:0:
256,28,12629,5,2,0:0:0:0:
205,98,13002,2,0,P|130:118|88:184,1,160,8|8,0:0|0:0,0:0:0:0:
140,256,14120,1,2,0:0:0:0:
224,232,14493,2,0,P|302:215|384:216,1,160,8|8,0:0|0:0,0:0:0:0:
464,180,15611,6,0,P|424:136|362:127,2,120,2|2|8,0:0|0:0|0:0,0:0:0:0:
464,267,17101,2,0,P|424:311|362:319,2,120,2|2|8,0:0|0:0|0:0,0:0:0:0:
384,232,18592,6,0,L|224:256,1,160,2|2,0:0|0:0,0:0:0:0:
184,332,19710,1,8,0:0:0:0:
128,264,20083,2,0,P|104:196|56:172,2,120,2|0|8,0:0|0:0|0:0,0:0:0:0:
72,332,21573,5,4,0:0:0:0:
156,352,21946,2,0,P|200:344|240:332,1,80,8|2,0:0|0:0,0:0:0:0:
316,304,22691,1,8,0:0:0:0:
280,224,23064,2,0,P|280:180|276:144,1,80,2|8,0:0|0:0,0:0:0:0:
188,136,23809,2,0,P|188:180|192:216,1,80,2|8,0:0|0:0,0:0:0:0:
228,296,24555,5,2,0:0:0:0:
316,304,24927,2,0,P|368:228|324:144,1,160,8|8,0:0|0:0,0:0:0:0:
263,147,26045,2,0,P|263:88|279:30,2,120,2|2|8,0:0|0:0|0:0,0:0:0:0:
216,220,27536,5,4,0:0:0:0:
164,152,27909,2,0,B|144:160|132:180|128:204|128:204|92:148|31:169,1,160,8|8,0:0|0:0,0:0:0:0:
52,252,29027,2,0,P|45:311|37:371,2,120,2|2|8,0:0|0:0|0:0,0:0:0:0:
92,176,30517,6,0,B|144:152|180:184|180:184|220:152|220:152|272:176|312:164,1,240,2|10,0:0|0:0,0:0:0:0:
336,252,32008,2,0,P|383:216|398:160,2,120,2|2|8,0:0|0:0|0:0,0:0:0:0:
256,216,33499,5,4,0:0:0:0:
420,80,34617,1,10,0:0:0:0:
360,288,35735,1,10,0:0:0:0:
344,200,36107,1,10,0:0:0:0:
256,216,36480,5,4,0:0:0:0:
92,80,37598,1,10,0:0:0:0:
152,288,38716,1,10,0:0:0:0:
168,200,39088,1,10,0:0:0:0:
256,216,39462,6,0,P|289:238|317:266,1,80,4|8,0:0|0:0,0:0:0:0:
380,204,40207,2,0,P|382:164|392:124,1,80,2|8,0:0|0:0,0:0:0:0:
304,128,40952,2,0,P|236:116|200:88,1,80,0|8,0:0|0:0,0:0:0:0:
276,36,41698,2,0,P|344:48|380:76,1,80,0|8,0:0|0:0,0:0:0:0:
411,116,42443,6,0,P|413:155|425:193,1,80,2|8,0:0|0:0,0:0:0:0:
348,236,43188,2,0,P|374:265|408:286,1,80,2|8,0:0|0:0,0:0:0:0:
484,328,43934,2,0,L|304:356,1,160,2|2,0:0|0:0,0:0:0:0:
256,296,45052,1,10,0:0:0:0:
188,352,45424,6,0,P|92:316|72:284,2,120,4|2|2,0:0|0:0|0:0,0:0:0:0:
256,296,46915,2,0,B|308:288|308:288|360:308|360:308|409:297,1,160,2|10,0:0|0:0,0:0:0:0:
488,252,48033,1,10,0:0:0:0:
471,163,48406,6,0,P|423:128|367:107,1,120,4|2,0:0|0:0,0:0:0:0:
236,96,49524,2,0,B|184:76|184:76|148:112|89:113,1,160,2|2,0:0|0:0,0:0:0:0:
11,68,50642,2,0,P|0:106|2:145,1,80,2|10,0:0|0:0,0:0:0:0:
52,216,51387,6,0,P|116:204|176:204,1,120,4|8,0:0|0:0,0:0:0:0:
272,120,52505,2,0,P|208:108|148:108,1,120,8|8,0:0|0:0,0:0:0:0:
120,236,53623,2,0,L|135:314,1,80,10|8,0:0|0:0,0:0:0:0:
220,336,54368,6,0,P|277:323|308:273,2,120,4|8|8,0:0|0:0|0:0,0:0:0:0:
168,264,55859,2,0,B|176:216|156:184|156:184|172:160|172:160|156:132|160:92,1,160,8|8,0:0|0:0,0:0:0:0:
208,40,56977,1,8,0:0:0:0:
292,48,57350,6,0,L|408:56,1,80,4|8,0:0|0:0,0:0:0:0:
396,140,58095,2,0,L|316:134,1,80,2|8,0:0|0:0,0:0:0:0:
260,200,58840,2,0,P|264:258|301:304,2,120,2|2|8,0:0|0:0|0:0,0:0:0:0:
196,140,60331,6,0,L|64:168,2,120,2|2|8,0:0|0:0|0:0,0:0:0:0:
272,96,61822,2,0,L|404:124,2,120,2|2|8,0:0|0:0|0:0,0:0:0:0:
191,127,63312,6,0,P|152:123|113:112,1,80,4|8,0:0|0:0,0:0:0:0:
80,196,64058,2,0,P|119:200|158:211,1,80,2|8,0:0|0:0,0:0:0:0:
160,300,64803,2,0,P|104:282|44:278,2,120,2|2|8,0:0|0:0|0:0,0:0:0:0:
235,344,66294,6,0,L|391:316,1,120,4|8,0:0|0:0,0:0:0:0:
464,252,67412,2,0,L|308:224,1,120,8|8,0:0|0:0,0:0:0:0:
215,252,68530,2,0,P|176:248|139:233,1,80,8|8,0:0|0:0,0:0:0:0:
144,144,69275,6,0,L|276:108,2,120,4|2|8,0:0|0:0|0:0,0:0:0:0:
92,216,70766,2,0,L|6:131,2,120,2|2|8,0:0|0:0|0:0,0:0:0:0:
180,232,72257,6,0,L|149:348,2,120,2|2|8,0:0|0:0|0:0,0:0:0:0:
236,164,73747,2,0,P|276:180|316:216,1,80,2|8,0:0|0:0,0:0:0:0:
360,132,74493,2,0,P|386:166|403:217,1,80,2|8,0:0|0:0,0:0:0:0:
432,284,75238,6,0,L|452:96,1,160,4|2,0:0|0:0,0:0:0:0:
400,52,76356,1,8,0:0:0:0:
360,132,76729,2,0,B|281:151|281:91|205:123,1,160,2|2,0:0|0:0,0:0:0:0:
244,204,77847,1,8,0:0:0:0:
156,204,78219,6,0,P|116:156|116:100,2,120,2|2|8,0:0|0:0|0:0,0:0:0:0:
200,280,79710,2,0,L|184:364,1,80,2|8,0:0|0:0,0:0:0:0:
272,349,80455,2,0,L|352:325,1,80,2|8,0:0|0:0,0:0:0:0:
408,261,81201,6,0,P|420:209|416:181,1,80,4|8,0:0|0:0,0:0:0:0:
400,96,81946,2,0,L|264:80,1,120,2|2,0:0|0:0,0:0:0:0:
224,148,82878,2,0,L|144:156,1,80,2|2,0:0|0:0,0:0:0:0:
76,212,83623,6,0,P|41:260|33:318,1,120,2|2,0:0|0:0,0:0:0:0:
112,360,84555,1,8,0:0:0:0:
172,296,84927,2,0,L|276:288,1,80,2|8,0:0|0:0,0:0:0:0:
320,348,85673,1,2,0:0:0:0:
396,304,86045,2,0,P|444:228|440:136,1,160,8|8,0:0|0:0,0:0:0:0:
388,92,87163,6,0,P|328:112|248:120,1,120,4|2,0:0|0:0,0:0:0:0:
156,60,88281,2,0,P|99:40|39:32,1,120,2|2,0:0|0:0,0:0:0:0:
52,164,89399,2,0,P|60:208|80:240,1,80,2|8,0:0|0:0,0:0:0:0:
152,284,90145,6,0,L|271:294,2,120,4|2|10,0:0|0:0|0:0,0:0:0:0:
92,220,91635,2,0,P|86:175|84:132,1,80,2|10,0:0|0:0,0:0:0:0:
168,116,92381,2,0,P|173:160|176:204,1,80,2|10,0:0|0:0,0:0:0:0:
264,180,93126,6,0,P|321:161|380:158,1,120,12|8,0:0|0:0,0:0:0:0:
444,276,94244,2,0,P|386:294|327:297,1,120,8|8,0:0|0:0,0:0:0:0:
204,248,95362,2,0,P|168:230|128:228,1,80,8|8,0:0|0:0,0:0:0:0:
52,180,96107,6,0,P|40:124|48:62,2,120,8|8|8,0:0|0:0|0:0,0:0:0:0:
168,115,97785,2,0,B|212:100|256:124|256:124|280:96|320:80,1,160,8|8,0:0|0:0,0:0:0:0:
