osu file format v12

[General]
AudioFilename: -Across the line-.mp3
AudioLeadIn: 0
PreviewTime: 57257
Countdown: 0
SampleSet: Soft
StackLeniency: 0.7
Mode: 0
LetterboxInBreaks: 0
WidescreenStoryboard: 1

[Editor]
DistanceSpacing: 1.5
BeatDivisor: 4
GridSize: 4

[Metadata]
Title:-Across the line- (short size)
TitleUnicode:-Across the line- (short size)
Artist:Uchida Maaya
ArtistUnicode:内田真礼
Creator:CloudSplash16
Version:Hard
Source:Takanashi Rikka ・Kai~ Gekijouban Chuunibyou demo Koi ga Shitai!~
Tags:chuunibyou movie opening 小鳥遊六花・改 ~劇場版 中二病でも恋がしたい!~
BeatmapID:304572
BeatmapSetID:116938

[Difficulty]
HPDrainRate:6
CircleSize:4
OverallDifficulty:6
ApproachRate:8
SliderMultiplier:1.5
SliderTickRate:2

[Events]
//Background and Video events
0,0,"bg1.jpg",0,0
//Break Periods
//Storyboard Layer 0 (Background)
//Storyboard Layer 1 (Fail)
//Storyboard Layer 2 (Pass)
//Storyboard Layer 3 (Foreground)
//Storyboard Sound Samples
//Background Colour Transformations
3,100,163,162,255

[TimingPoints]
6667,372.670807453416,4,2,1,40,1,0
8157,-100,4,2,1,45,0,0
8530,-100,4,2,1,50,0,0
8903,-100,4,2,1,55,0,0
9275,-100,4,2,1,60,0,0
11511,-100,4,2,2,55,0,0
11604,-100,4,2,1,55,0,0
12629,-100,4,2,1,50,0,0
13561,-100,4,2,3,50,0,0
13654,-100,4,2,1,50,0,0
17474,-100,4,2,2,50,0,0
17567,-100,4,2,1,50,0,0
18592,-100,4,2,1,50,0,0
21573,-100,4,2,1,55,0,0
23437,-100,4,2,2,55,0,0
23530,-100,4,2,1,55,0,0
24555,-100,4,2,1,50,0,0
26232,-100,4,2,3,50,0,0
26325,-100,4,2,1,50,0,0
29213,-100,4,2,3,50,0,0
29306,-100,4,2,1,50,0,0
32194,-100,4,2,3,50,0,0
32288,-100,4,2,1,50,0,0
39462,-100,4,2,1,55,0,0
40393,-100,4,2,3,55,0,0
40486,-100,4,2,1,55,0,0
41139,-100,4,2,3,55,0,0
41232,-100,4,2,1,55,0,0
43375,-100,4,2,3,55,0,0
43561,-100,4,2,2,55,0,0
43654,-100,4,2,1,55,0,0
44865,-100,4,2,3,55,0,0
44958,-100,4,2,1,55,0,0
45424,-133.333333333333,4,2,1,60,0,0
54368,-100,4,2,1,65,0,0
55486,-100,4,2,1,68,0,0
56604,-100,4,2,1,70,0,0
57350,-100,4,2,1,70,0,1
62567,-100,4,2,3,70,0,1
62660,-100,4,2,1,70,0,1
62940,-100,4,2,2,70,0,1
63033,-100,4,2,1,70,0,1
65548,-100,4,2,3,70,0,1
65642,-100,4,2,1,70,0,1
66294,-133.333333333333,4,2,1,70,0,1
68716,-100,4,2,1,70,0,1
69182,-100,4,2,1,70,0,0
69275,-100,4,2,1,70,0,1
70021,-100,4,2,3,70,0,1
70114,-100,4,2,1,70,0,1
71511,-100,4,2,3,70,0,1
71604,-100,4,2,1,70,0,1
73002,-100,4,2,3,70,0,1
73095,-100,4,2,1,70,0,1
75983,-100,4,2,3,70,0,1
76076,-100,4,2,1,70,0,1
79710,-100,4,2,3,70,0,1
79803,-100,4,2,1,70,0,1
80642,-100,4,2,3,70,0,1
80735,-100,4,2,1,70,0,1
83437,-100,4,2,3,70,0,1
83530,-100,4,2,1,70,0,1
85673,-100,4,2,3,70,0,1
85766,-100,4,2,1,70,0,1
86232,-100,4,2,1,65,0,1
87163,-100,4,2,1,55,0,0
90145,-100,4,2,1,60,0,0
91822,-100,4,2,1,50,0,0
92381,-100,4,2,1,55,0,0
92753,-100,4,2,1,60,0,0
93126,-100,4,2,1,65,0,0
95362,-100,4,2,1,55,0,0
95735,-100,4,2,1,60,0,0
96107,-100,4,2,1,65,0,0

[Colours]
Combo1 : 255,255,0
Combo2 : 0,128,255
Combo3 : 0,255,0
Combo4 : 255,0,128
Combo5 : 164,0,164

[HitObjects]
256,192,7785,12,8,9276,0:0:0:0:
124,156,9648,6,0,P|176:148|272:208,1,150,4|8,0:0|0:0,0:0:0:0:
332,256,10208,1,0,0:0:0:0:
417,127,10393,2,0,P|373:143|337:183,1,75,0|2,0:0|0:0,0:0:0:0:
416,296,10766,2,0,P|424:249|407:198,1,75,8|0,0:0|0:0,0:0:0:0:
332,256,11139,1,2,0:0:0:0:
332,256,11326,2,0,P|267:207|256:138,1,150,2|0,0:0|0:0,0:0:0:0:
332,256,11885,2,0,P|337:293|330:329,1,75,0|2,0:0|0:0,0:0:0:0:
224,292,12257,2,0,P|186:277|145:275,1,75,8|0,0:0|0:0,0:0:0:0:
330,330,12630,5,2,0:0:0:0:
329,330,13002,2,0,P|379:276|452:277,2,150,8|0|8,0:0|0:0|0:0,0:0:0:0:
417,362,13934,1,0,0:0:0:0:
453,277,14120,2,0,P|457:237|441:201,1,75,2|2,0:0|0:0,0:0:0:0:
385,133,14493,1,8,0:0:0:0:
385,133,14679,2,0,P|351:196|280:215,1,150,0|2,0:0|0:0,0:0:0:0:
310,73,15239,2,0,P|354:41|378:37,1,75,8|0,0:0|0:0,0:0:0:0:
473,87,15611,6,0,P|467:133|496:232,1,150,2|8,0:0|0:0,0:0:0:0:
454,311,16170,2,0,P|391:297|369:302,1,75
286,297,16542,1,2,0:0:0:0:
188,311,16729,2,0,P|151:311|116:298,1,75,8|0,0:0|0:0,0:0:0:0:
170,205,17101,1,2,0:0:0:0:
170,205,17288,2,0,P|86:194|25:239,1,150,2|0,0:0|0:0,0:0:0:0:
104,370,17847,2,0,P|117:335|116:298,1,75,0|2,0:0|0:0,0:0:0:0:
211,282,18219,2,0,P|198:317|199:355,1,75,8|0,0:0|0:0,0:0:0:0:
292,253,18592,6,0,P|242:200|170:205,2,150,2|8|0,0:0|0:0|0:0,0:0:0:0:
387,225,19524,1,2,0:0:0:0:
387,225,19711,1,8,0:0:0:0:
362,319,19896,2,0,P|383:368|402:384,2,75,0|2|2,0:0|0:0|0:0,0:0:0:0:
387,225,20456,2,0,P|378:171|323:125,1,112.5,8|0,0:0|0:0,0:0:0:0:
301,109,20829,1,0,0:0:0:0:
208,145,21014,1,2,0:0:0:0:
172,55,21201,2,0,P|129:89|118:110,1,75,8|0,0:0|0:0,0:0:0:0:
58,185,21574,6,0,P|129:203|173:263,1,150,4|8,0:0|0:0,0:0:0:0:
220,363,22133,1,0,0:0:0:0:
111,354,22319,2,0,P|81:326|67:292,1,75,0|2,0:0|0:0,0:0:0:0:
173,263,22692,2,0,P|206:244|228:214,1,75,8|0,0:0|0:0,0:0:0:0:
289,113,23065,1,2,0:0:0:0:
289,113,23251,2,0,P|216:97|148:125,1,150,2|0,0:0|0:0,0:0:0:0:
114,218,23809,2,0,P|141:244|174:263,1,75,0|2,0:0|0:0,0:0:0:0:
287,258,24182,2,0,P|260:232|228:214,1,75,8|0,0:0|0:0,0:0:0:0:
232,343,24555,5,2,0:0:0:0:
232,343,24927,2,0,P|266:359|311:358,1,75,8|0,0:0|0:0,0:0:0:0:
397,299,25300,2,0,P|413:333|412:378,2,75,0|2|8,0:0|0:0|0:0,0:0:0:0:
335,207,25859,1,0,0:0:0:0:
241,265,26045,2,0,P|226:196|268:118,1,150,2|8,0:0|0:0,0:0:0:0:
335,207,26604,1,0,0:0:0:0:
335,207,26791,2,0,P|365:228|404:238,1,75,0|0,0:0|0:0,0:0:0:0:
470,93,27163,2,0,P|436:108|408:137,1,75,8|2,0:0|0:0,0:0:0:0:
375,325,27537,6,0,P|446:317|490:258,2,150,6|8|0,0:0|0:0|0:0,0:0:0:0:
375,325,28468,1,0,0:0:0:0:
243,207,28655,2,0,P|190:221|171:236,1,75,8|0,0:0|0:0,0:0:0:0:
242,302,29027,2,0,P|310:275|337:207,1,150,2|8,0:0|0:0,0:0:0:0:
288,127,29586,1,0,0:0:0:0:
84,192,29959,1,2,0:0:0:0:
84,192,30145,2,0,P|75:229|88:280,1,75,8|0,0:0|0:0,0:0:0:0:
151,323,30517,5,2,0:0:0:0:
237,346,30703,1,0,0:0:0:0:
299,282,30890,1,8,0:0:0:0:
275,196,31076,1,0,0:0:0:0:
213,259,31263,5,0,0:0:0:0:
299,282,31449,1,2,0:0:0:0:
362,217,31636,1,8,0:0:0:0:
338,131,31822,1,0,0:0:0:0:
338,131,32008,6,0,P|269:106|204:139,1,150,2|8,0:0|0:0,0:0:0:0:
205,139,32567,1,0,0:0:0:0:
237,346,32940,1,2,0:0:0:0:
237,346,33127,2,0,P|273:338|303:315,1,75,8|0,0:0|0:0,0:0:0:0:
362,217,33499,5,4,0:0:0:0:
270,59,33872,1,8,0:0:0:0:
113,149,34245,2,0,L|38:191,2,75,8|2|0,0:0|0:0|0:0,0:0:0:0:
191,103,34804,1,2,0:0:0:0:
282,259,35176,2,0,L|323:329,1,75,2|8,0:0|0:0,0:0:0:0:
228,165,35735,1,0,0:0:0:0:
228,165,35922,2,0,L|292:128,2,75,2|8|0,0:0|0:0|0:0,0:0:0:0:
149,211,36481,5,4,0:0:0:0:
242,357,36853,1,8,0:0:0:0:
399,266,37226,2,0,L|464:226,2,75,8|2|0,0:0|0:0|0:0,0:0:0:0:
320,311,37785,1,2,0:0:0:0:
228,153,38158,2,0,L|184:78,1,75,2|8,0:0|0:0,0:0:0:0:
281,245,38717,1,0,0:0:0:0:
281,245,38903,2,0,L|206:288,2,75,2|8|0,0:0|0:0|0:0,0:0:0:0:
359,199,39462,5,4,0:0:0:0:
360,199,39834,2,0,P|433:221|495:183,2,150,8|0|8,0:0|0:0|0:0,0:0:0:0:
287,142,40766,1,0,0:0:0:0:
287,142,40952,2,0,P|270:215|308:275,1,150,2|8,0:0|0:0,0:0:0:0:
420,129,41511,2,0,P|350:107|286:141,1,150,0|2,0:0|0:0,0:0:0:0:
224,207,42071,1,8,0:0:0:0:
200,120,42257,1,0,0:0:0:0:
286,142,42443,6,0,P|313:209|282:275,1,150,2|8,0:0|0:0,0:0:0:0:
200,120,43188,2,0,P|225:77|281:53,2,112.5
224,207,43934,1,2,0:0:0:0:
265,287,44120,1,2,0:0:0:0:
312,210,44307,2,0,P|305:173|286:142,1,75,8|0,0:0|0:0,0:0:0:0:
140,240,44679,2,0,P|192:290|265:287,1,150,0|8,0:0|0:0,0:0:0:0:
425,210,45425,6,0,L|312:210,1,112.500004291535,4|8,0:0|0:0,0:0:0:0:
239,210,45984,1,2,0:0:0:0:
70,48,46542,2,0,L|202:48,1,112.500004291535,8|2,0:0|0:0,0:0:0:0:
256,48,47102,1,2,0:0:0:0:
256,192,47661,1,2,0:0:0:0:
256,192,48034,1,8,0:0:0:0:
442,48,48406,6,0,L|329:48,1,112.500004291535,4|8,0:0|0:0,0:0:0:0:
256,48,48965,1,2,0:0:0:0:
70,192,49524,2,0,L|202:192,1,112.500004291535,8|2,0:0|0:0,0:0:0:0:
256,192,50083,1,2,0:0:0:0:
256,192,50269,1,8,0:0:0:0:
374,259,50642,1,2,0:0:0:0:
374,122,51015,1,8,0:0:0:0:
256,192,51388,6,0,L|256:304,1,112.500004291535,4|2,0:0|0:0,0:0:0:0:
256,305,51946,1,4,0:0:0:0:
468,248,52505,2,0,L|468:135,1,112.500004291535,4|2,0:0|0:0,0:0:0:0:
468,136,53064,1,4,0:0:0:0:
312,152,53624,2,0,L|236:152,1,56.2500021457673,4|2,0:0|0:0,0:0:0:0:
200,232,53996,2,0,L|276:232,1,56.2500021457673,8|0,0:0|0:0,0:0:0:0:
256,192,54369,12,2,56605,0:0:0:0:
140,193,56978,5,8,0:0:0:0:
140,193,57350,6,0,P|185:153|279:165,1,150,4|8,0:0|0:0,0:0:0:0:
332,234,57909,2,0,P|380:248|418:239,1,75,0|2,0:0|0:0,0:0:0:0:
469,172,58282,1,2,0:0:0:0:
428,82,58468,2,0,P|380:68|342:77,1,75,8|0,0:0|0:0,0:0:0:0:
269,117,58841,2,0,P|196:127|138:83,1,150,2|8,0:0|0:0,0:0:0:0:
221,32,59400,1,0,0:0:0:0:
269,117,59586,2,0,P|317:131|355:122,1,75,2|2,0:0|0:0,0:0:0:0:
438,131,59959,2,0,P|427:81|401:52,1,75,8|0,0:0|0:0,0:0:0:0:
316,45,60332,6,0,P|276:90|288:184,1,150,2|8,0:0|0:0,0:0:0:0:
366,225,60891,2,0,P|380:273|371:311,1,75,0|2,0:0|0:0,0:0:0:0:
304,362,61263,1,2,0:0:0:0:
214,321,61450,2,0,P|200:273|209:235,1,75,8|0,0:0|0:0,0:0:0:0:
286,198,61822,2,0,P|228:153|155:164,1,150,2|8,0:0|0:0,0:0:0:0:
69,211,62381,2,0,P|58:138|102:80,2,150,0|2|0,0:0|0:0|0:0,0:0:0:0:
144,272,63313,5,2,0:0:0:0:
241,283,63499,2,0,P|289:269|327:278,1,75,0|8,0:0|0:0,0:0:0:0:
424,284,63872,1,0,0:0:0:0:
424,284,63965,1,0,0:0:0:0:
424,284,64058,2,0,P|448:255|458:219,1,75,2|2,0:0|0:0,0:0:0:0:
362,170,64431,2,0,P|337:198|327:234,1,75,8|0,0:0|0:0,0:0:0:0:
297,327,64804,2,0,P|264:311|240:283,1,75,2|0,0:0|0:0,0:0:0:0:
184,204,65176,1,8,0:0:0:0:
240,124,65362,2,0,P|306:100|383:125,1,150,0|2,0:0|0:0,0:0:0:0:
444,196,65921,1,8,0:0:0:0:
444,196,66294,6,0,L|312:196,1,112.500004291535,4|8,0:0|0:0,0:0:0:0:
258,196,66853,1,4,0:0:0:0:
60,288,67412,2,0,L|192:288,1,112.500004291535,12|2,0:0|0:0,0:0:0:0:
246,288,67971,1,4,0:0:0:0:
246,68,68530,1,2,0:0:0:0:
340,93,68717,2,0,P|324:126|297:151,1,75,2|8,0:0|0:0,0:0:0:0:
200,160,69089,1,0,0:0:0:0:
200,160,69183,1,0,0:0:0:0:
200,160,69276,6,0,P|135:195|115:265,1,150,4|8,0:0|0:0,0:0:0:0:
200,248,69835,2,0,P|154:191|81:183,1,150,0|2,0:0|0:0,0:0:0:0:
52,276,70394,1,8,0:0:0:0:
136,324,70580,1,0,0:0:0:0:
232,336,70767,2,0,P|297:301|317:231,1,150,2|8,0:0|0:0,0:0:0:0:
232,248,71326,2,0,P|278:305|351:313,1,150,0|2,0:0|0:0,0:0:0:0:
380,220,71885,1,8,0:0:0:0:
296,172,72071,1,0,0:0:0:0:
232,248,72257,6,0,P|185:266|146:260,1,75,2|0,0:0|0:0,0:0:0:0:
92,196,72630,1,8,0:0:0:0:
121,102,72816,2,0,P|167:83|263:113,1,150,0|2,0:0|0:0,0:0:0:0:
292,214,73375,1,8,0:0:0:0:
260,110,73561,1,0,0:0:0:0:
186,190,73747,2,0,P|158:257|188:323,1,150,2|8,0:0|0:0,0:0:0:0:
189,324,74307,1,2,0:0:0:0:
368,249,74679,1,0,0:0:0:0:
84,144,75052,1,0,0:0:0:0:
84,144,75239,6,0,P|145:104|217:122,1,150,4|8,0:0|0:0,0:0:0:0:
159,187,75798,2,0,P|132:118|161:50,1,150,0|2,0:0|0:0,0:0:0:0:
252,16,76356,1,8,0:0:0:0:
322,82,76542,2,0,P|329:117|321:153,1,75,0|2,0:0|0:0,0:0:0:0:
283,244,76915,1,0,0:0:0:0:
283,244,77101,2,0,P|319:234|428:284,1,150,8|2,0:0|0:0,0:0:0:0:
333,346,77660,1,2,0:0:0:0:
215,323,77847,2,0,P|187:284|179:238,1,75,8|0,0:0|0:0,0:0:0:0:
178,159,78220,6,0,P|110:187|81:254,1,150,2|8,0:0|0:0,0:0:0:0:
257,214,78778,2,0,P|273:169|269:123,2,75,0|2|2,0:0|0:0|0:0,0:0:0:0:
178,159,79337,1,8,0:0:0:0:
178,159,79524,2,0,P|195:87|256:48,1,150,0|0,0:0|0:0,0:0:0:0:
257,213,80083,2,0,P|195:253|123:238,2,150,8|2|8,0:0|0:0|0:0,0:0:0:0:
178,159,81014,1,0,0:0:0:0:
283,291,81201,6,0,P|355:306|417:266,1,150,4|8,0:0|0:0,0:0:0:0:
337,209,81760,1,0,0:0:0:0:
283,291,81947,2,0,P|284:330|300:364,2,75,2|2|8,0:0|0:0|0:0,0:0:0:0:
337,209,82506,1,0,0:0:0:0:
154,27,82878,1,0,0:0:0:0:
75,82,83065,1,8,0:0:0:0:
82,176,83251,2,0,P|144:216|216:202,1,150,0|2,0:0|0:0,0:0:0:0:
162,122,83810,1,8,0:0:0:0:
216,202,83996,1,0,0:0:0:0:
307,239,84183,5,2,0:0:0:0:
413,76,84555,1,8,0:0:0:0:
218,66,84928,1,2,0:0:0:0:
259,154,85114,1,2,0:0:0:0:
315,74,85301,1,8,0:0:0:0:
218,66,85487,2,0,P|168:119|170:193,1,150
275,225,86045,1,8,0:0:0:0:
370,203,86232,1,2,0:0:0:0:
370,203,86419,2,0,P|369:164|353:130,1,75,8|0,0:0|0:0,0:0:0:0:
258,154,86791,2,0,P|259:191|274:225,1,75,4|0,0:0|0:0,0:0:0:0:
306,318,87164,6,0,P|232:319|179:269,1,150,2|2,0:0|0:0,0:0:0:0:
81,257,87723,2,0,P|114:193|184:171,1,150,2|0,0:0|0:0,0:0:0:0:
268,228,88282,2,0,P|283:192|283:154,1,75,2|0,0:0|0:0,0:0:0:0:
200,100,88655,2,0,P|185:134|185:172,1,75,2|0,0:0|0:0,0:0:0:0:
179,269,89027,2,0,P|232:319|306:318,1,150,2|8,0:0|0:0,0:0:0:0:
395,278,89586,2,0,P|404:314|398:350,2,75,2|4|0,0:0|0:0|0:0,0:0:0:0:
341,196,90145,6,0,P|276:161|205:181,1,150,2|2,0:0|0:0,0:0:0:0:
206,181,90704,1,2,0:0:0:0:
457,330,91263,1,2,0:0:0:0:
457,330,91822,2,0,P|466:293|459:257,2,75,0|8|0,0:0|0:0|0:0,0:0:0:0:
367,290,92381,2,0,P|360:253|369:217,1,75,8|0,0:0|0:0,0:0:0:0:
283,170,92754,2,0,P|304:139|336:120,1,75,8|0,0:0|0:0,0:0:0:0:
432,140,93127,6,0,L|492:200,1,75,4|2,0:0|0:0,0:0:0:0:
308,272,93686,2,0,L|248:332,1,75,2|2,0:0|0:0,0:0:0:0:
204,112,94245,2,0,L|264:52,1,75,2|2,0:0|0:0,0:0:0:0:
80,244,94804,2,0,L|20:184,2,75,2|8|0,0:0|0:0|0:0,0:0:0:0:
173,282,95363,2,0,P|179:245|170:209,1,75,8|2,0:0|0:0,0:0:0:0:
257,162,95736,2,0,P|235:131|203:112,1,75,4|2,0:0|0:0,0:0:0:0:
80,140,96108,6,0,L|20:200,1,75,6|2,0:0|0:0,0:0:0:0:
204,272,96667,2,0,L|264:332,1,75,2|2,0:0|0:0,0:0:0:0:
308,112,97226,2,0,L|248:52,1,75,2|2,0:0|0:0,0:0:0:0:
432,244,97785,2,0,L|492:184,2,75,2|2|2,0:0|0:0|0:0,0:0:0:0:
362,313,98344,1,2,0:0:0:0:
362,313,98530,1,2,0:0:0:0:
