osu file format v12

[General]
AudioFilename: Spica Terrible.mp3
AudioLeadIn: 0
PreviewTime: 48004
Countdown: 0
SampleSet: Soft
StackLeniency: 0.6
Mode: 0
LetterboxInBreaks: 0

[Editor]
DistanceSpacing: 0.8
BeatDivisor: 2
GridSize: 4

[Metadata]
Title:Spicaterrible
TitleUnicode:スピカテリブル
Artist:Uchida Aya
ArtistUnicode:内田彩
Creator:Andrea
Version:Normal
Source:Love Live! School idol project
Tags:Spica Terrible Minami Kotori Collab Vicho osuplayer111 lolcubes Taiko
BeatmapID:272685
BeatmapSetID:103493

[Difficulty]
HPDrainRate:3
CircleSize:3
OverallDifficulty:3
ApproachRate:4
SliderMultiplier:1.2
SliderTickRate:1

[Events]
//Background and Video events
0,0,"spicaterrible.jpg",0,0
//Break Periods
2,72295,82411
//Storyboard Layer 0 (Background)
//Storyboard Layer 1 (Fail)
//Storyboard Layer 2 (Pass)
//Storyboard Layer 3 (Foreground)
//Storyboard Sound Samples
//Background Colour Transformations
3,100,255,255,85

[TimingPoints]
2277,363.636363636364,4,2,1,90,1,0
37185,-133.333333333333,4,2,1,90,0,0
45913,-100,4,2,1,90,0,0
48640,-100,4,2,1,90,0,1
60185,-100,4,2,1,90,0,0
60276,-100,4,2,1,90,0,1
72094,-100,4,2,1,90,0,0
107003,-133.333333333333,4,2,1,90,0,0
115731,-100,4,2,1,90,0,0
118458,-100,4,2,1,90,0,1
130003,-100,4,2,1,90,0,0
130094,-100,4,2,1,90,0,1
141913,-100,4,2,1,90,0,0

[Colours]
Combo1 : 212,212,212
Combo2 : 255,43,43
Combo3 : 255,255,43
Combo4 : 43,255,96

[HitObjects]
36,192,13914,1,4,0:0:0:0:
256,40,15368,1,2,0:0:0:0:
476,192,16823,5,2,0:0:0:0:
256,344,18277,1,2,0:0:0:0:
36,192,19732,5,2,0:0:0:0:
256,40,21186,1,2,0:0:0:0:
476,192,22277,6,0,P|416:192|368:228,1,120,8|4,1:0|0:0,0:0:0:0:
304,296,23004,1,8,1:0:0:0:
208,296,23368,1,2,0:0:0:0:
144,228,23732,6,0,L|84:228,1,60,8|4,1:0|0:0,0:0:0:0:
40,144,24277,2,0,L|88:104,1,60,8|8,1:0|1:0,0:0:0:0:
164,48,24823,1,8,1:0:0:0:
256,80,25186,1,8,1:0:0:0:
348,48,25550,5,4,0:0:0:0:
424,104,25914,2,0,P|424:224|348:312,1,240,8|8,1:0|1:0,0:0:0:0:
256,292,27004,1,2,0:0:0:0:
162,311,27368,2,0,P|88:224|88:104,1,240,8|8,1:0|1:0,0:0:0:0:
160,40,28459,5,2,0:0:0:0:
208,124,28823,1,8,1:0:0:0:
304,124,29186,1,0,0:0:0:0:
352,40,29550,2,0,P|448:116|448:232,2,240,8|8|8,1:0|1:0|1:0,0:0:0:0:
256,56,31368,5,2,0:0:0:0:
160,40,31732,2,0,P|64:116|64:232,1,240,8|8,1:0|1:0,0:0:0:0:
92,316,32823,1,2,0:0:0:0:
180,280,33186,2,0,P|300:280|404:340,1,240,8|8,1:0|1:0,0:0:0:0:
484,288,34277,5,4,0:0:0:0:
456,196,34641,2,0,P|336:196|232:136,1,240,8|8,1:0|1:0,0:0:0:0:
196,108,35550,1,4,0:0:0:0:
100,108,35914,6,0,L|52:144,1,60,2|8,0:0|1:0,0:0:0:0:
56,240,36459,1,8,1:0:0:0:
124,308,36823,1,8,1:0:0:0:
224,308,37186,6,0,P|316:308|384:256,2,180.000006866455,4|8|2,0:0|1:0|0:0,0:0:0:0:
124,308,39004,1,0,0:0:0:0:
56,240,39368,2,0,B|56:148|56:148|104:72,1,180.000006866455,8|4,1:0|0:0,0:0:0:0:
200,68,40459,5,0,0:0:0:0:
300,68,40823,2,0,B|392:68|392:68|464:120,2,180.000006866455,8|2|8,1:0|0:0|1:0,0:0:0:0:
256,156,42641,1,8,1:0:0:0:
344,200,43004,6,0,P|344:292|404:352,2,180.000006866455,4|8|2,0:0|1:0|0:0,0:0:0:0:
256,156,44823,1,0,0:0:0:0:
168,200,45186,2,0,P|168:292|108:352,1,180.000006866455,8|2,1:0|0:0,0:0:0:0:
60,352,46095,5,8,1:0:0:0:
60,256,46459,2,0,L|60:192,1,60,2|8,0:0|1:0,0:0:0:0:
60,100,47004,2,0,L|108:64,1,60,2|8,0:0|1:0,0:0:0:0:
204,60,47550,2,0,L|264:60,1,60,8|8,1:0|1:0,0:0:0:0:
360,60,48095,6,0,P|416:112|364:184,1,180,2|4,0:0|0:0,0:0:0:0:
292,248,49004,2,0,L|252:296,1,60,0|8,0:0|1:0,0:0:0:0:
188,364,49550,1,0,0:0:0:0:
120,296,49913,1,8,1:0:0:0:
96,252,50095,6,0,P|32:224|12:120,1,180,2|8,0:0|1:0,0:0:0:0:
88,64,51004,1,2,0:0:0:0:
152,136,51368,1,8,1:0:0:0:
216,64,51732,5,4,0:0:0:0:
280,136,52095,2,0,P|400:136|492:208,1,240,8|8,1:0|1:0,0:0:0:0:
416,268,53186,1,2,0:0:0:0:
336,320,53550,2,0,B|248:320|248:320|180:296|180:296|96:296,1,240,8|8,1:0|1:0,0:0:0:0:
32,228,54641,5,4,0:0:0:0:
32,132,55004,1,8,1:0:0:0:
92,60,55368,2,0,P|152:60|200:92,1,120,0|8,0:0|1:0,0:0:0:0:
268,160,56095,2,0,P|316:192|376:192,1,120,2|8,0:0|1:0,0:0:0:0:
472,184,56823,6,0,P|472:304|376:360,1,240,2|4,0:0|0:0,0:0:0:0:
304,296,57914,1,8,1:0:0:0:
208,296,58277,1,2,0:0:0:0:
136,360,58640,1,8,1:0:0:0:
100,328,58822,2,0,P|34:278|28:184,1,180,4|2,0:0|0:0,0:0:0:0:
116,148,59732,6,0,P|200:148|280:92,1,180,8|4,1:0|0:0,0:0:0:0:
344,28,60641,2,0,L|404:28,1,60,0|8,0:0|1:0,0:0:0:0:
476,92,61186,1,2,0:0:0:0:
476,188,61550,6,0,L|440:236,1,60,8|2,1:0|0:0,0:0:0:0:
344,244,62095,2,0,L|308:292,1,60,0|8,0:0|1:0,0:0:0:0:
216,324,62641,2,0,P|100:324|16:240,1,240,2|4,0:0|0:0,0:0:0:0:
16,144,63732,6,0,P|100:60|216:60,1,240,8|8,1:0|1:0,0:0:0:0:
312,60,64823,1,2,0:0:0:0:
384,124,65186,2,0,B|384:244|384:244|304:336,1,240,8|8,1:0|1:0,0:0:0:0:
208,336,66277,6,0,P|136:336|40:288,2,180,4|4|4,0:0|0:0|0:0,0:0:0:0:
256,200,67914,1,4,0:0:0:0:
304,64,68459,2,0,P|364:64|416:100,1,120,2|8,0:0|1:0,0:0:0:0:
448,184,69186,6,0,P|448:304|348:352,1,240,4|2,0:0|0:0,0:0:0:0:
256,332,70277,1,2,0:0:0:0:
256,192,70823,12,4,72095,0:0:0:0:
72,124,83731,5,4,0:0:0:0:
152,72,84095,2,0,P|272:72|372:140,2,240,8|8|8,1:0|1:0|1:0,0:0:0:0:
148,256,86277,6,0,P|192:292|252:304,1,120,8|2,1:0|0:0,0:0:0:0:
352,304,87004,2,0,P|448:232|448:120,2,240,8|8|8,1:0|1:0|1:0,0:0:0:0:
256,136,89186,6,0,L|256:16,2,120,8|2|8,1:0|0:0|1:0,0:0:0:0:
196,320,90640,2,0,L|316:320,2,120,8|2|8,1:0|0:0|1:0,0:0:0:0:
36,192,92095,6,0,P|96:192|144:156,1,120,8|4,1:0|0:0,0:0:0:0:
208,88,92822,1,8,1:0:0:0:
304,88,93186,1,2,0:0:0:0:
368,156,93550,6,0,L|428:156,1,60,8|4,1:0|0:0,0:0:0:0:
472,240,94095,2,0,L|424:280,1,60,8|8,1:0|1:0,0:0:0:0:
348,336,94641,1,8,1:0:0:0:
256,304,95004,1,8,1:0:0:0:
164,336,95368,5,4,0:0:0:0:
88,280,95732,2,0,P|88:160|164:72,1,240,8|8,1:0|1:0,0:0:0:0:
256,92,96822,1,2,0:0:0:0:
350,73,97186,2,0,P|424:160|424:280,1,240,8|8,1:0|1:0,0:0:0:0:
352,344,98277,5,2,0:0:0:0:
304,260,98641,1,8,1:0:0:0:
208,260,99004,1,0,0:0:0:0:
160,344,99368,2,0,P|64:268|64:152,2,240,8|8|8,1:0|1:0|1:0,0:0:0:0:
256,328,101186,5,2,0:0:0:0:
352,344,101550,2,0,P|448:268|448:152,1,240,8|8,1:0|1:0,0:0:0:0:
420,68,102641,1,2,0:0:0:0:
332,104,103004,2,0,P|212:104|108:44,1,240,8|8,1:0|1:0,0:0:0:0:
28,96,104095,5,4,0:0:0:0:
56,188,104459,2,0,P|176:188|280:248,1,240,8|8,1:0|1:0,0:0:0:0:
316,276,105368,1,4,0:0:0:0:
412,276,105732,6,0,L|460:240,1,60,2|8,0:0|1:0,0:0:0:0:
456,144,106277,1,8,1:0:0:0:
388,76,106641,1,8,1:0:0:0:
288,76,107004,6,0,P|196:76|128:128,2,180.000006866455,4|0|2,0:0|1:0|0:0,0:0:0:0:
388,76,108822,1,0,0:0:0:0:
456,144,109186,2,0,B|456:236|456:236|408:312,1,180.000006866455,0|4,1:0|0:0,0:0:0:0:
312,316,110277,5,2,0:0:0:0:
212,316,110641,2,0,B|120:316|120:316|48:264,2,180.000006866455,0|2|0,1:0|0:0|1:0,0:0:0:0:
256,228,112459,1,0,1:0:0:0:
168,184,112822,6,0,P|168:92|108:32,2,180.000006866455,4|0|2,0:0|1:0|0:0,0:0:0:0:
256,228,114641,1,0,0:0:0:0:
344,184,115004,2,0,P|344:92|404:32,1,180.000006866455,0|2,1:0|0:0,0:0:0:0:
452,32,115913,5,8,1:0:0:0:
452,128,116277,2,0,L|452:192,1,60,2|8,0:0|1:0,0:0:0:0:
452,284,116822,2,0,L|404:320,1,60,2|8,0:0|1:0,0:0:0:0:
308,324,117368,2,0,L|248:324,1,60,8|8,1:0|1:0,0:0:0:0:
152,324,117913,6,0,P|96:272|148:200,1,180,2|4,0:0|0:0,0:0:0:0:
220,136,118822,2,0,L|260:88,1,60,0|8,0:0|1:0,0:0:0:0:
324,20,119368,1,0,0:0:0:0:
392,88,119731,1,8,1:0:0:0:
416,132,119913,6,0,P|480:160|500:264,1,180,2|8,0:0|1:0,0:0:0:0:
424,320,120822,1,2,0:0:0:0:
360,248,121186,1,8,1:0:0:0:
296,320,121550,5,4,0:0:0:0:
232,248,121913,2,0,P|112:248|20:176,1,240,8|8,1:0|1:0,0:0:0:0:
96,116,123004,1,2,0:0:0:0:
176,64,123368,2,0,B|264:64|264:64|332:88|332:88|416:88,1,240,8|8,1:0|1:0,0:0:0:0:
480,156,124459,5,4,0:0:0:0:
480,252,124822,1,8,1:0:0:0:
420,324,125186,2,0,P|360:324|312:292,1,120,0|8,0:0|1:0,0:0:0:0:
244,224,125913,2,0,P|196:192|136:192,1,120,2|8,0:0|1:0,0:0:0:0:
40,200,126641,6,0,P|40:80|136:24,1,240,2|4,0:0|0:0,0:0:0:0:
208,88,127732,1,8,1:0:0:0:
304,88,128095,1,2,0:0:0:0:
376,24,128458,1,8,1:0:0:0:
412,56,128640,2,0,P|477:105|484:200,1,180,4|2,0:0|0:0,0:0:0:0:
396,236,129550,6,0,P|312:236|232:292,1,180,8|4,1:0|0:0,0:0:0:0:
168,356,130459,2,0,L|108:356,1,60,0|8,0:0|1:0,0:0:0:0:
36,292,131004,1,2,0:0:0:0:
36,196,131368,6,0,L|72:148,1,60,8|2,1:0|0:0,0:0:0:0:
168,140,131913,2,0,L|204:92,1,60,0|8,0:0|1:0,0:0:0:0:
296,60,132459,2,0,P|412:60|496:144,1,240,2|4,0:0|0:0,0:0:0:0:
496,240,133550,6,0,P|412:324|296:324,1,240,8|8,1:0|1:0,0:0:0:0:
200,324,134641,1,2,0:0:0:0:
128,260,135004,2,0,B|128:140|128:140|208:48,1,240,8|8,1:0|1:0,0:0:0:0:
304,48,136095,6,0,P|376:48|472:96,2,180,4|4|4,0:0|0:0|0:0,0:0:0:0:
256,184,137732,1,4,0:0:0:0:
208,320,138277,2,0,P|148:320|96:284,1,120,2|8,0:0|1:0,0:0:0:0:
64,200,139004,6,0,P|64:80|164:32,1,240,4|2,0:0|0:0,0:0:0:0:
256,52,140095,1,2,0:0:0:0:
256,192,140641,12,4,141913,0:0:0:0:
