osu file format v12

[General]
AudioFilename: Spica Terrible.mp3
AudioLeadIn: 0
PreviewTime: 48004
Countdown: 0
SampleSet: Soft
StackLeniency: 0.6
Mode: 0
LetterboxInBreaks: 0

[Editor]
DistanceSpacing: 1
BeatDivisor: 4
GridSize: 4

[Metadata]
Title:Spicaterrible
TitleUnicode:スピカテリブル
Artist:Uchida Aya
ArtistUnicode:内田彩
Creator:Andrea
Version:Hard
Source:Love Live! School idol project
Tags:Spica Terrible Minami Kotori Collab Vicho osuplayer111 lolcubes Taiko
BeatmapID:272684
BeatmapSetID:103493

[Difficulty]
HPDrainRate:7
CircleSize:4
OverallDifficulty:7
ApproachRate:8
SliderMultiplier:1.7
SliderTickRate:1

[Events]
//Background and Video events
0,0,"spicaterrible.jpg",0,0
//Break Periods
2,72294,81345
//Storyboard Layer 0 (Background)
//Storyboard Layer 1 (Fail)
//Storyboard Layer 2 (Pass)
//Storyboard Layer 3 (Foreground)
Sprite,Foreground,Centre,"Andrea.png",720,180 M,0,13550,,500,75 F,0,13550,13914,0,1 F,0,25186,25550,1,0 F,0,36823,37186,0,1 F,0,48277,48641,1,0 F,0,59914,60277,0,1 F,0,71732,72095,1,0 F,0,95004,95368,0,1 F,0,106641,107004,1,0 F,0,118095,118459,0,1 F,0,129732,130095,1,0
Sprite,Foreground,Centre,"Vicho.png",720,180 M,0,25186,,500,75 F,0,25186,25550,0,1 F,0,36823,37186,1,0 F,0,48277,48641,0,1 F,0,59914,60277,1,0 F,0,81732,82095,0,1 F,0,95004,95368,1,0 F,0,106641,107004,0,1 F,0,118095,118459,1,0 F,0,129732,130095,0,1 F,0,141550,141914,1,0
//Storyboard Sound Samples
//Background Colour Transformations
3,100,255,255,85

[TimingPoints]
2277,363.636363636364,4,2,1,90,1,0
37185,-133.333333333333,4,2,1,90,0,0
45913,-100,4,2,1,90,0,0
48640,-100,4,2,1,90,0,1
60185,-100,4,2,1,90,0,0
60276,-100,4,2,1,90,0,1
72094,-100,4,2,1,90,0,0
107003,-133.333333333333,4,2,1,90,0,0
115731,-100,4,2,1,90,0,0
118458,-100,4,2,1,90,0,1
130003,-100,4,2,1,90,0,0
130094,-100,4,2,1,90,0,1
141913,-100,4,2,1,90,0,0

[Colours]
Combo1 : 212,212,212
Combo2 : 255,43,43
Combo3 : 255,255,43
Combo4 : 43,255,96

[HitObjects]
160,108,13913,1,4,0:0:0:0:
216,44,14095,1,0,0:0:0:0:
296,44,14277,1,0,0:0:0:0:
352,108,14458,2,0,P|436:108|496:168,1,170,2|0,0:0|0:0,0:0:0:0:
496,252,15004,1,0,0:0:0:0:
412,252,15186,2,0,P|368:252|336:280,1,85,0|2,0:0|0:0,0:0:0:0:
276,336,15549,1,0,0:0:0:0:
204,288,15731,1,0,0:0:0:0:
132,336,15913,2,0,P|50:307|18:235,1,170,2|0,0:0|0:0,0:0:0:0:
18,149,16458,6,0,P|50:77|132:48,1,170,0|2,0:0|0:0,0:0:0:0:
192,108,17004,1,0,0:0:0:0:
256,52,17186,1,0,0:0:0:0:
320,108,17367,2,0,B|404:108|404:108|480:152,1,170,2|0,0:0|0:0,0:0:0:0:
444,228,17913,2,0,L|360:180,2,85,0|0|2,0:0|0:0|0:0,0:0:0:0:
400,300,18458,1,0,0:0:0:0:
324,260,18640,1,0,0:0:0:0:
276,328,18822,2,0,P|184:308|152:244,1,170,2|0,0:0|0:0,0:0:0:0:
176,164,19367,38,0,P|145:227|53:247,2,170,0|2|0,0:0|0:0|0:0,0:0:0:0:
188,80,20277,2,0,P|256:36|324:80,1,170,2|0,0:0|0:0,0:0:0:0:
408,80,20822,1,0,0:0:0:0:
456,152,21004,1,0,0:0:0:0:
456,236,21186,2,0,B|372:236|372:236|296:284,1,170,2|0,0:0|0:0,0:0:0:0:
212,281,21731,2,0,B|140:236|140:236|56:236,1,170,2|8,0:0|1:0,0:0:0:0:
56,236,22186,1,0,0:0:0:0:
56,236,22277,1,4,0:0:0:0:
468,196,22640,6,0,B|468:112|468:112|420:36,1,170,4|8,0:0|1:0,0:0:0:0:
360,96,23186,2,0,L|312:20,1,85,0|2,0:0|0:0,0:0:0:0:
256,84,23549,1,0,0:0:0:0:
152,96,23731,2,0,L|200:20,1,85,8|4,1:0|0:0,0:0:0:0:
256,184,24277,37,8,1:0:0:0:
172,184,24458,2,0,P|129:251|173:319,1,170,8|8,1:0|1:0,0:0:0:0:
256,336,25004,1,8,1:0:0:0:
276,339,25095,1,8,1:0:0:0:
297,336,25186,1,8,1:0:0:0:
316,327,25277,1,8,1:0:0:0:
331,312,25367,2,0,L|356:272,2,42.5,8|8|4,1:0|1:0|0:0,0:0:0:0:
336,176,25731,21,0,0:0:0:0:
264,224,25913,2,0,P|256:180|256:132,1,85,8|0,1:0|0:0,0:0:0:0:
260,96,26186,1,0,0:0:0:0:
232,64,26277,2,0,P|188:56|140:56,1,85
64,76,26640,1,8,1:0:0:0:
88,156,26822,6,0,P|96:204|100:252,1,85,0|2,0:0|0:0,0:0:0:0:
88,324,27186,1,0,0:0:0:0:
160,368,27367,1,8,1:0:0:0:
208,296,27549,2,0,P|268:248|352:272,1,170
412,332,28095,1,8,1:0:0:0:
460,260,28277,2,0,P|472:216|484:164,1,85,0|2,0:0|0:0,0:0:0:0:
492,92,28640,37,0,0:0:0:0:
424,40,28822,1,8,1:0:0:0:
356,92,29004,1,0,0:0:0:0:
356,92,29095,1,0,0:0:0:0:
356,92,29186,2,0,P|304:96|260:92,1,85
188,76,29549,1,8,1:0:0:0:
112,36,29731,1,0,0:0:0:0:
64,108,29913,6,0,P|52:148|44:200,1,85,2|0,0:0|0:0,0:0:0:0:
140,296,30277,2,0,P|152:256|160:204,1,85,8|0,1:0|0:0,0:0:0:0:
172,172,30549,1,0,0:0:0:0:
172,172,30640,2,0,L|268:188,1,85,2|0,0:0|0:0,0:0:0:0:
340,204,31004,1,8,1:0:0:0:
360,120,31186,1,0,0:0:0:0:
404,48,31367,38,0,P|476:64|492:160,1,170,2|8,0:0|1:0,0:0:0:0:
456,224,31913,1,0,0:0:0:0:
456,224,32004,1,0,0:0:0:0:
456,224,32095,2,0,P|444:268|440:320,1,85,2|0,0:0|0:0,0:0:0:0:
352,352,32458,2,0,L|176:336,1,170,8|2,1:0|0:0,0:0:0:0:
100,312,33004,1,0,0:0:0:0:
28,268,33186,5,8,1:0:0:0:
68,192,33367,1,0,0:0:0:0:
68,192,33458,1,0,0:0:0:0:
68,192,33549,2,0,P|80:144|84:96,1,85,2|0,0:0|0:0,0:0:0:0:
144,48,33913,1,8,1:0:0:0:
144,48,34095,2,0,L|232:47,1,85,0|4,0:0|0:0,0:0:0:0:
314,48,34458,1,0,0:0:0:0:
400,44,34640,37,8,1:0:0:0:
400,44,34822,2,0,P|456:88|440:176,1,170,2|0,0:0|0:0,0:0:0:0:
360,280,35367,1,8,1:0:0:0:
360,280,35549,2,0,P|304:236|320:148,1,170,4|2,0:0|0:0,0:0:0:0:
288,68,36095,6,0,P|240:60|196:60,1,85,8|0,1:0|0:0,0:0:0:0:
160,64,36367,1,0,0:0:0:0:
160,64,36458,1,8,1:0:0:0:
88,108,36640,1,8,1:0:0:0:
160,156,36822,2,0,P|164:208|160:252,1,85,8|8,1:0|1:0,0:0:0:0:
144,324,37186,6,0,P|200:360|256:344,1,127.500004863739,4|0,0:0|0:0,0:0:0:0:
316,288,37731,2,0,L|344:160,1,127.500004863739,2|2,0:0|0:0,0:0:0:0:
360,80,38277,1,0,0:0:0:0:
280,64,38458,1,0,0:0:0:0:
260,144,38640,2,0,P|192:144|132:124,1,127.500004863739,2|0,0:0|0:0,0:0:0:0:
84,192,39186,1,2,0:0:0:0:
184,324,39549,1,2,0:0:0:0:
256,364,39731,1,0,0:0:0:0:
328,324,39913,1,2,0:0:0:0:
256,288,40095,6,0,P|256:224|296:168,1,127.500004863739,4|2,0:0|0:0,0:0:0:0:
368,200,40640,2,0,L|284:96,1,127.500004863739,2|2,0:0|0:0,0:0:0:0:
240,32,41186,1,0,0:0:0:0:
172,76,41367,1,2,0:0:0:0:
88,76,41549,2,0,B|88:140|88:140|124:196,1,127.500004863739,0|2,0:0|0:0,0:0:0:0:
176,256,42095,2,0,L|144:280,2,31.8750012159348,8|0|8,1:0|1:0|1:0,0:0:0:0:
256,284,42458,1,0,1:0:0:0:
336,256,42640,2,0,P|368:256|396:236,1,63.7500024318696,8|0,1:0|1:0,0:0:0:0:
396,156,43004,38,0,P|352:108|300:76,1,127.500004863739,4|0,0:0|0:0,0:0:0:0:
212,76,43549,2,0,P|160:108|116:156,1,127.500004863739,2|0,0:0|0:0,0:0:0:0:
188,196,44095,1,0,0:0:0:0:
256,148,44277,1,2,0:0:0:0:
324,196,44458,1,0,0:0:0:0:
200,304,44822,2,0,L|160:360,1,63.7500024318696,2|0,0:0|0:0,0:0:0:0:
256,360,45186,1,2,0:0:0:0:
349,355,45367,2,0,L|312:304,1,63.7500024318696,0|2,0:0|0:0,0:0:0:0:
140,192,45913,6,0,P|96:192|56:172,1,85,2|8,0:0|1:0,0:0:0:0:
372,192,46458,2,0,P|416:192|456:172,1,85,2|8,0:0|1:0,0:0:0:0:
256,48,47004,2,0,L|256:132,1,85,2|8,0:0|1:0,0:0:0:0:
256,336,47549,2,8,L|256:252,1,85,8|8,1:0|1:0,0:0:0:0:
328,208,47913,1,8,1:0:0:0:
256,168,48095,37,2,0:0:0:0:
249,147,48186,1,0,0:0:0:0:
240,128,48277,1,0,0:0:0:0:
229,110,48367,1,0,0:0:0:0:
215,94,48458,1,0,0:0:0:0:
198,81,48549,1,0,0:0:0:0:
180,70,48640,22,0,P|136:76|88:92,1,85,4|0,0:0|0:0,0:0:0:0:
28,140,49004,1,0,0:0:0:0:
96,188,49186,2,0,P|108:228|116:276,1,85,8|0,1:0|0:0,0:0:0:0:
116,356,49549,1,0,0:0:0:0:
192,320,49731,2,0,L|284:336,1,85,0|8,0:0|1:0,0:0:0:0:
360,316,50095,6,0,P|400:244|364:168,1,170,2|0,0:0|0:0,0:0:0:0:
288,136,50640,1,8,1:0:0:0:
256,56,50822,1,0,0:0:0:0:
180,96,51004,2,0,P|136:104|84:108,1,85,2|0,0:0|0:0,0:0:0:0:
52,112,51277,1,0,0:0:0:0:
32,152,51367,2,0,P|24:196|24:240,1,85,8|0,1:0|0:0,0:0:0:0:
92,288,51731,38,0,P|176:292|244:352,1,170,4|8,0:0|1:0,0:0:0:0:
324,352,52277,2,0,P|336:308|340:264,1,85,0|0,0:0|0:0,0:0:0:0:
332,184,52640,1,0,0:0:0:0:
392,124,52822,1,8,1:0:0:0:
344,56,53004,6,0,P|260:48|224:124,1,170,2|0,0:0|0:0,0:0:0:0:
212,243,53549,2,0,P|296:251|332:175,1,170,8|2,1:0|0:0,0:0:0:0:
392,124,54095,1,0,0:0:0:0:
392,124,54186,1,0,0:0:0:0:
392,124,54277,2,0,P|424:152|456:188,1,85,8|0,1:0|0:0,0:0:0:0:
500,256,54640,37,4,0:0:0:0:
416,264,54822,2,0,L|336:308,1,85,0|8,0:0|1:0,0:0:0:0:
260,344,55186,1,0,0:0:0:0:
236,264,55367,2,0,P|232:216|232:176,1,85
236,92,55731,1,8,1:0:0:0:
296,32,55913,1,0,0:0:0:0:
364,88,56095,6,0,P|408:100|456:108,1,85,2|0,0:0|0:0,0:0:0:0:
484,112,56367,1,0,0:0:0:0:
484,112,56458,1,8,1:0:0:0:
464,196,56640,1,0,0:0:0:0:
464,196,56822,2,0,P|456:244|456:292,1,85,2|0,0:0|0:0,0:0:0:0:
408,352,57186,1,8,1:0:0:0:
352,288,57367,1,0,0:0:0:0:
268,292,57549,38,0,P|224:296|184:316,1,85,4|0,0:0|0:0,0:0:0:0:
108,344,57913,1,8,1:0:0:0:
76,264,58095,2,0,P|68:220|68:172,1,85,0|2,0:0|0:0,0:0:0:0:
84,96,58458,1,0,0:0:0:0:
84,96,58549,1,0,0:0:0:0:
84,96,58640,1,8,1:0:0:0:
160,136,58822,6,0,P|248:144|316:92,1,170,4|0,0:0|0:0,0:0:0:0:
364,32,59367,1,8,1:0:0:0:
432,84,59549,1,0,0:0:0:0:
408,164,59731,2,0,P|400:208|400:260,1,85,2|0,0:0|0:0,0:0:0:0:
404,292,60004,1,0,0:0:0:0:
404,292,60095,2,0,P|360:288|308:296,1,85,8|4,1:0|0:0,0:0:0:0:
236,316,60458,5,0,0:0:0:0:
152,332,60640,2,0,P|108:332|72:312,1,85,0|8,0:0|1:0,0:0:0:0:
32,236,61004,2,0,P|51:200|51:156,1,85,0|0,0:0|0:0,0:0:0:0:
72,72,61367,1,0,0:0:0:0:
96,72,61458,1,0,0:0:0:0:
120,72,61549,1,8,1:0:0:0:
192,116,61731,6,0,P|256:163|320:116,1,170,2|0,0:0|0:0,0:0:0:0:
256,60,62277,1,8,1:0:0:0:
336,28,62458,2,0,P|380:28|416:48,1,85,0|2,0:0|0:0,0:0:0:0:
472,112,62822,1,0,0:0:0:0:
472,136,62913,1,0,0:0:0:0:
472,160,63004,2,0,B|472:204|472:204|452:240,1,85,8|0,1:0|0:0,0:0:0:0:
400,308,63367,38,0,P|316:308|256:252,2,170,4|8|0,0:0|1:0|0:0,0:0:0:0:
452,240,64277,1,0,0:0:0:0:
380,192,64458,1,8,1:0:0:0:
452,144,64640,2,0,L|396:72,1,85,0|2,0:0|0:0,0:0:0:0:
344,12,65004,1,0,0:0:0:0:
320,92,65186,6,0,B|280:140|256:88|256:88|232:140|192:92,1,170,8|8,1:0|1:0,0:0:0:0:
168,12,65731,1,8,1:0:0:0:
108,72,65913,1,8,1:0:0:0:
94,88,66004,1,8,1:0:0:0:
84,107,66095,1,8,1:0:0:0:
78,127,66186,1,8,1:0:0:0:
75,148,66277,38,0,P|76:192|104:228,1,85,4|2,0:0|0:0,0:0:0:0:
184,224,66640,1,8,1:0:0:0:
144,300,66822,2,0,L|208:360,1,85,4|2,0:0|0:0,0:0:0:0:
256,288,67186,1,8,1:0:0:0:
305,358,67367,2,0,L|368:300,1,85,4|2,0:0|0:0,0:0:0:0:
328,224,67731,1,8,1:0:0:0:
412,224,67913,2,0,P|436:192|437:148,1,85,4|2,0:0|0:0,0:0:0:0:
424,64,68277,6,0,P|380:64|344:44,1,85,0|8,0:0|1:0,0:0:0:0:
300,116,68640,1,0,0:0:0:0:
212,116,68822,1,8,1:0:0:0:
167,44,69004,2,0,P|132:64|88:64,1,85,0|4,0:0|0:0,0:0:0:0:
256,192,69277,12,2,70640,0:0:0:0:
156,152,70822,38,0,B|156:192|156:192|176:232,1,85,0|2,1:0|0:0,0:0:0:0:
336,232,71186,2,0,B|356:192|356:192|356:152,1,85,0|8,0:0|1:0,0:0:0:0:
300,88,71549,1,0,0:0:0:0:
212,88,71731,1,2,0:0:0:0:
256,160,71913,2,0,L|256:245,1,85,0|4,0:0|0:0,0:0:0:0:
256,192,82095,12,2,83731,0:0:0:0:
256,192,83913,22,0,P|264:240|264:292,1,85,0|8,0:0|1:0,0:0:0:0:
332,328,84277,1,2,0:0:0:0:
332,328,84367,1,0,0:0:0:0:
332,328,84458,2,0,P|376:320|424:320,1,85
480,260,84822,2,0,P|496:180|428:136,1,170,8|2,1:0|0:0,0:0:0:0:
348,152,85367,5,0,0:0:0:0:
276,108,85549,2,0,P|240:80|208:44,1,85,8|2,1:0|0:0,0:0:0:0:
172,40,85822,1,0,0:0:0:0:
172,40,85913,2,0,L|96:96,1,85
36,144,86277,2,0,P|28:184|32:240,1,85,8|0,1:0|0:0,0:0:0:0:
56,308,86640,37,2,0:0:0:0:
140,328,86822,1,0,0:0:0:0:
192,260,87004,2,0,P|236:252|284:252,1,85,8|2,1:0|0:0,0:0:0:0:
320,256,87277,1,0,0:0:0:0:
360,272,87367,1,0,0:0:0:0:
428,324,87549,1,0,0:0:0:0:
444,240,87731,2,0,P|456:200|468:156,1,85,8|0,1:0|0:0,0:0:0:0:
436,80,88095,6,0,P|392:88|344:108,1,85,2|0,0:0|0:0,0:0:0:0:
280,144,88458,1,8,1:0:0:0:
200,108,88640,1,2,0:0:0:0:
200,108,88731,1,0,0:0:0:0:
200,108,88822,1,0,0:0:0:0:
136,164,89004,2,0,P|128:208|128:252,1,85,0|8,0:0|1:0,0:0:0:0:
68,328,89367,1,0,0:0:0:0:
68,328,89549,38,0,P|124:288|224:320,1,170,2|8,0:0|1:0,0:0:0:0:
300,320,90095,1,2,0:0:0:0:
300,320,90186,1,0,0:0:0:0:
300,320,90277,2,0,P|316:276|324:232,1,85
264,168,90640,6,0,P|356:191|412:151,2,170,8|2|8,1:0|0:0|1:0,0:0:0:0:
216,92,91549,1,2,0:0:0:0:
216,92,91640,1,0,0:0:0:0:
216,92,91731,2,0,P|172:120|172:196,1,127.5,0|0,0:0|0:0,0:0:0:0:
180,232,92095,2,0,L|148:328,1,85,8|0,1:0|0:0,0:0:0:0:
36,348,92458,38,0,L|68:252,1,85,4|0,0:0|0:0,0:0:0:0:
76,184,92822,2,0,P|60:140|40:104,1,85,8|0,1:0|0:0,0:0:0:0:
80,32,93186,2,0,P|144:36|196:84,1,127.5,2|0,0:0|0:0,0:0:0:0:
216,112,93549,2,0,P|260:112|308:104,1,85,8|4,1:0|0:0,0:0:0:0:
460,44,94095,5,8,1:0:0:0:
420,120,94277,2,0,P|400:176|408:248,1,127.5,8|0,1:0|0:0,0:0:0:0:
382,278,94640,2,0,L|292:301,1,85,8|8,1:0|1:0,0:0:0:0:
280,305,94913,1,8,1:0:0:0:
260,312,95004,1,8,1:0:0:0:
239,316,95095,1,8,1:0:0:0:
218,319,95186,1,8,1:0:0:0:
197,319,95277,1,8,1:0:0:0:
175,317,95367,6,0,P|132:304|104:272,1,85,4|0,0:0|0:0,0:0:0:0:
40,220,95731,1,8,1:0:0:0:
84,148,95913,2,0,P|168:148|224:88,1,170,2|0,0:0|0:0,0:0:0:0:
276,24,96458,1,8,1:0:0:0:
332,88,96640,2,0,P|376:88|408:112,1,85,0|2,0:0|0:0,0:0:0:0:
468,172,97004,1,0,0:0:0:0:
408,232,97186,1,8,1:0:0:0:
408,316,97367,2,0,P|324:304|296:232,1,170,2|0,0:0|0:0,0:0:0:0:
216,232,97913,6,0,P|188:304|104:316,1,170,8|2,1:0|0:0,0:0:0:0:
104,232,98458,1,0,0:0:0:0:
44,172,98640,1,8,1:0:0:0:
104,112,98822,2,0,P|188:112|244:52,1,170,2|0,0:0|0:0,0:0:0:0:
328,52,99367,1,8,1:0:0:0:
392,108,99549,38,0,P|436:108|476:124,1,85,0|2,0:0|0:0,0:0:0:0:
424,192,99913,1,0,0:0:0:0:
473,261,100095,2,0,P|436:276|392:276,1,85,8|0,1:0|0:0,0:0:0:0:
312,308,100458,1,2,0:0:0:0:
232,332,100640,1,0,0:0:0:0:
152,308,100822,6,0,P|68:308|16:244,2,170,8|2|8,1:0|0:0|1:0,0:0:0:0:
176,232,101731,2,0,B|212:192|212:148|212:148|212:72,1,170,2|0,0:0|0:0,0:0:0:0:
300,72,102277,2,0,B|300:148|300:148|300:192|336:232,2,170,8|2|8,1:0|0:0|1:0,0:0:0:0:
212,72,103186,2,0,P|128:72|56:116,1,170,2|0,0:0|0:0,0:0:0:0:
20,192,103731,1,8,1:0:0:0:
56,268,103913,1,0,0:0:0:0:
56,268,104095,38,0,P|128:312|212:312,1,170,4|8,0:0|1:0,0:0:0:0:
300,312,104640,2,0,P|384:312|456:268,1,170,2|0,0:0|0:0,0:0:0:0:
416,192,105186,1,8,1:0:0:0:
456,116,105367,2,0,P|384:72|300:72,1,170,4|0,0:0|0:0,0:0:0:0:
256,144,105913,2,0,P|172:144|100:100,1,170,8|8,1:0|1:0,0:0:0:0:
36,44,106458,1,8,1:0:0:0:
36,44,106549,1,8,1:0:0:0:
36,44,106640,1,8,1:0:0:0:
116,16,106822,1,8,1:0:0:0:
100,100,107004,21,4,0:0:0:0:
256,144,107367,1,0,0:0:0:0:
308,208,107549,2,0,P|364:236|432:232,1,127.500004863739,2|0,0:0|0:0,0:0:0:0:
468,160,108095,2,0,L|488:96,1,63.7500024318696,2|0,0:0|0:0,0:0:0:0:
448,24,108458,2,0,P|384:32|352:88,1,127.500004863739,2|0,0:0|0:0,0:0:0:0:
353,82,109004,2,0,L|221:53,1,127.500004863739,2|0,0:0|0:0,0:0:0:0:
148,84,109549,2,0,P|136:116|124:156,1,63.7500024318696,2|0,0:0|0:0,0:0:0:0:
52,192,109913,6,0,P|96:236|156:224,1,127.500004863739,4|0,0:0|0:0,0:0:0:0:
236,200,110458,2,0,P|264:248|268:320,1,127.500004863739,2|0,0:0|0:0,0:0:0:0:
340,360,111004,1,2,0:0:0:0:
376,284,111186,1,0,0:0:0:0:
376,284,111367,2,0,P|424:244|488:236,1,127.500004863739,2|0,0:0|0:0,0:0:0:0:
472,144,111913,37,8,1:0:0:0:
472,144,112004,1,0,1:0:0:0:
472,144,112095,2,0,P|444:104|428:72,1,63.7500024318696,8|0,1:0|1:0,0:0:0:0:
388,24,112458,1,8,1:0:0:0:
312,60,112640,1,0,1:0:0:0:
308,144,112822,6,0,P|284:200|220:232,1,127.500004863739,4|0,0:0|0:0,0:0:0:0:
144,220,113367,2,0,P|192:256|200:328,2,127.500004863739,2|0|2,0:0|0:0|0:0,0:0:0:0:
60,224,114277,1,0,0:0:0:0:
32,144,114458,2,0,P|28:112|32:72,1,63.7500024318696,0|2,0:0|0:0,0:0:0:0:
144,36,114822,2,0,P|148:68|144:108,1,63.7500024318696,0|2,0:0|0:0,0:0:0:0:
256,192,115367,1,2,0:0:0:0:
344,336,115731,38,0,P|388:340|444:336,1,85,2|8,0:0|1:0,0:0:0:0:
168,336,116277,2,0,P|124:340|68:336,1,85,2|8,0:0|1:0,0:0:0:0:
256,192,116822,2,0,L|256:104,1,85,2|8,0:0|1:0,0:0:0:0:
412,36,117367,2,0,P|436:72|456:120,1,85,8|8,1:0|1:0,0:0:0:0:
472,192,117731,1,8,1:0:0:0:
452,276,117913,5,2,0:0:0:0:
444,285,118004,1,0,0:0:0:0:
434,294,118095,1,0,0:0:0:0:
424,301,118186,1,0,0:0:0:0:
412,307,118277,1,0,0:0:0:0:
400,310,118367,1,0,0:0:0:0:
387,312,118458,6,0,P|300:312|232:268,1,170,4|0,0:0|0:0,0:0:0:0:
172,208,119004,1,8,1:0:0:0:
108,264,119186,1,0,0:0:0:0:
52,200,119367,1,0,0:0:0:0:
116,144,119549,1,0,0:0:0:0:
116,144,119640,1,0,0:0:0:0:
116,144,119731,1,8,1:0:0:0:
184,96,119913,6,0,P|256:58|328:96,1,170,2|0,0:0|0:0,0:0:0:0:
396,144,120458,1,8,1:0:0:0:
460,200,120640,1,0,0:0:0:0:
404,264,120822,1,2,0:0:0:0:
340,208,121004,1,0,0:0:0:0:
340,208,121095,1,0,0:0:0:0:
340,208,121186,1,8,1:0:0:0:
328,292,121367,1,2,0:0:0:0:
328,292,121549,38,0,P|256:330|184:292,2,170,4|8|0,0:0|1:0|0:0,0:0:0:0:
340,208,122458,2,0,L|368:128,1,85,0|8,0:0|1:0,0:0:0:0:
256,55,122822,2,0,L|256:140,1,85,0|2,0:0|0:0,0:0:0:0:
172,208,123186,2,0,L|144:128,2,85,0|8|0,0:0|1:0|0:0,0:0:0:0:
184,292,123731,6,0,P|256:330|328:292,2,170,2|8|4,0:0|1:0|0:0,0:0:0:0:
108,248,124640,1,0,0:0:0:0:
44,192,124822,1,8,1:0:0:0:
108,136,125004,1,0,0:0:0:0:
108,52,125186,2,0,P|152:52|184:76,1,85
256,32,125549,1,8,1:0:0:0:
328,76,125731,38,0,P|360:52|404:52,1,85,0|2,0:0|0:0,0:0:0:0:
404,136,126095,1,0,0:0:0:0:
468,192,126277,1,8,1:0:0:0:
404,248,126458,1,0,0:0:0:0:
320,248,126640,2,0,B|320:292|320:292|304:332,1,85,2|0,0:0|0:0,0:0:0:0:
192,248,127004,2,0,B|192:292|192:292|208:332,1,85,8|0,1:0|0:0,0:0:0:0:
256,192,127367,6,0,L|256:108,1,85,4|0,0:0|0:0,0:0:0:0:
172,108,127731,1,8,1:0:0:0:
212,32,127913,1,0,0:0:0:0:
300,36,128095,1,2,0:0:0:0:
340,108,128277,1,0,0:0:0:0:
256,108,128458,1,8,1:0:0:0:
256,192,128640,38,0,P|256:276|316:336,1,170,4|0,0:0|1:0,0:0:0:0:
400,336,129186,1,8,1:0:0:0:
456,272,129367,2,0,L|456:184,1,85,0|2,0:0|1:2,0:0:0:0:
456,144,129640,1,0,1:0:0:0:
456,144,129731,1,0,1:0:0:0:
412,72,129913,1,8,1:0:0:0:
336,36,130095,22,0,P|248:48|208:112,1,170,4|0,0:0|0:0,0:0:0:0:
204,196,130640,1,8,1:0:0:0:
124,172,130822,2,0,P|76:164|36:160,1,85,0|0,0:0|0:0,0:0:0:0:
28,304,131186,1,0,0:0:0:0:
28,304,131277,1,0,0:0:0:0:
28,304,131367,2,0,P|76:312|116:316,1,85,8|2,1:0|0:0,0:0:0:0:
196,328,131731,1,0,0:0:0:0:
280,340,131913,5,0,0:0:0:0:
280,340,132095,2,0,P|288:296|292:244,1,85,8|0,1:0|0:0,0:0:0:0:
292,172,132458,1,2,0:0:0:0:
376,192,132640,1,0,0:0:0:0:
376,192,132731,1,0,0:0:0:0:
376,192,132822,1,8,1:0:0:0:
416,116,133004,1,0,0:0:0:0:
352,60,133186,38,0,P|276:24|212:72,1,170,4|8,0:0|1:0,0:0:0:0:
184,152,133731,1,0,0:0:0:0:
224,228,133913,2,0,P|236:272|240:316,1,85
100,360,134277,2,0,P|88:316|84:272,1,85,8|0,1:0|0:0,0:0:0:0:
16,224,134640,6,0,P|76:240|124:184,1,127.5,2|0,0:0|0:0,0:0:0:0:
132,160,135004,2,0,L|228:180,1,85,8|0,1:0|0:0,0:0:0:0:
296,204,135367,1,8,1:0:0:0:
364,152,135549,2,0,P|380:116|396:60,1,85,8|8,1:0|1:0,0:0:0:0:
400,44,135822,1,8,1:0:0:0:
424,24,135913,1,8,1:0:0:0:
452,20,136004,1,8,1:0:0:0:
480,36,136095,38,0,P|500:72|516:124,1,85,4|2,0:0|0:0,0:0:0:0:
476,192,136458,1,8,1:0:0:0:
408,244,136640,2,0,P|388:280|372:332,1,85,4|2,0:0|0:0,0:0:0:0:
296,360,137004,1,8,1:0:0:0:
252,288,137186,2,0,P|204:280|152:280,1,85,4|2,0:0|0:0,0:0:0:0:
88,304,137549,1,8,1:0:0:0:
52,228,137731,6,0,P|40:184|32:144,1,85,4|2,0:0|0:0,0:0:0:0:
148,52,138095,2,0,P|160:96|168:136,1,85,0|8,0:0|1:0,0:0:0:0:
176,220,138458,1,0,0:0:0:0:
256,192,138640,2,0,P|296:184|344:168,2,85,8|0|4,1:0|0:0|0:0,0:0:0:0:
256,192,139095,12,2,140458,0:0:0:0:
144,236,140640,38,0,P|140:192|145:144,1,85,0|2,1:0|0:0,0:0:0:0:
368,151,141004,2,0,P|372:192|368:236,1,85,0|8,0:0|1:0,0:0:0:0:
256,324,141367,1,0,0:0:0:0:
256,192,141549,1,8,1:0:0:0:
256,192,141731,2,0,L|256:104,1,85,0|4,0:0|0:0,0:0:0:0:
