osu file format v13

[General]
AudioFilename: Spicaterrible.mp3
AudioLeadIn: 0
PreviewTime: 47988
Countdown: 0
SampleSet: Soft
StackLeniency: 0.7
Mode: 3
LetterboxInBreaks: 0
SpecialStyle: 0
WidescreenStoryboard: 1

[Editor]
DistanceSpacing: 0.8
BeatDivisor: 4
GridSize: 4
TimelineZoom: 1

[Metadata]
Title:Spicaterrible
TitleUnicode:スピカテリブル
Artist:Uchida Aya
ArtistUnicode:内田彩
Creator:- [ S o r a ] -
Version:4K MX
Source:Love Live! School idol project
Tags:kotori minami vocaloid1anime2
BeatmapID:519886
BeatmapSetID:222386

[Difficulty]
HPDrainRate:8
CircleSize:4
OverallDifficulty:8
ApproachRate:5
SliderMultiplier:1.4
SliderTickRate:1

[Events]
//Background and Video events
0,0,"43953-5.jpg",0,0
//Break Periods
//Storyboard Layer 0 (Background)
//Storyboard Layer 1 (Fail)
//Storyboard Layer 2 (Pass)
//Storyboard Layer 3 (Foreground)
//Storyboard Sound Samples
//Background Colour Transformations
3,100,163,162,255

[TimingPoints]
831,363.636363636364,4,2,0,30,1,0
7740,-83.3333333333333,4,2,0,30,0,0
7921,-125,4,2,0,30,0,0
8103,-100,4,2,0,30,0,0
11012,-76.9230769230769,4,2,0,30,0,0
11194,-125,4,2,0,30,0,0
11285,-166.666666666667,4,2,0,30,0,0
11376,-200,4,2,0,30,0,0
11467,-83.3333333333333,4,2,0,30,0,0
11740,-200,4,2,0,30,0,0
11921,-100,4,2,0,30,0,0
12376,-90.9090909090909,4,2,0,30,0,0
13558,-83.3333333333333,4,2,0,30,0,0
13740,-125,4,2,0,30,0,0
13921,-133.333333333333,4,2,0,30,0,0
21921,-117.647058823529,4,2,0,30,0,0
22103,-100,4,2,0,30,0,0
22285,-83.3333333333333,4,2,0,30,0,0
22467,-90.9090909090909,4,2,0,30,0,0
22558,-125,4,2,0,30,0,0
22649,-100,4,2,0,30,0,0
25558,-33.3333333333333,4,2,0,30,0,0
25603,-100,4,2,0,30,0,0
34649,-200,4,2,0,30,0,0
34740,-83.3333333333333,4,2,0,30,0,0
35012,-250,4,2,0,30,0,0
35103,-76.9230769230769,4,2,0,30,0,0
35194,-250,4,2,0,30,0,0
35285,-66.6666666666667,4,2,0,30,0,0
35376,-250,4,2,0,30,0,0
35467,-66.6666666666667,4,2,0,30,0,0
35558,-90.9090909090909,4,2,0,30,0,0
36467,-83.3333333333333,4,2,0,30,0,0
36921,-166.666666666667,4,2,0,30,0,0
37194,-100,4,2,0,30,0,0
47194,-33.3333333333333,4,2,0,30,0,0
47285,-200,4,2,0,30,0,0
47467,-333.333333333333,4,2,0,30,0,0
47558,-71.4285714285714,4,2,0,30,0,0
47649,-250,4,2,0,30,0,0
47740,-66.6666666666667,4,2,0,30,0,0
47831,-250,4,2,0,30,0,0
47921,-100,4,2,0,30,0,0
48649,-100,4,2,0,30,0,1
71921,-100,4,2,0,30,0,0
80831,-95.2380952380952,4,2,0,30,0,0
81194,-200,4,2,0,30,0,0
81285,-83.3333333333333,4,2,0,30,0,0
81467,-200,4,2,0,30,0,0
81740,-100,4,2,0,30,0,0
82103,-90.9090909090909,4,2,0,30,0,0
83376,-83.3333333333333,4,2,0,30,0,0
83558,-125,4,2,0,30,0,0
83740,-100,4,2,0,30,0,0
91921,-90.9090909090909,4,2,0,30,0,0
92103,-83.3333333333333,4,2,0,30,0,0
92285,-200,4,2,0,30,0,0
92376,-333.333333333333,4,2,0,30,0,0
92467,-100,4,2,0,30,0,0
95376,-33.3333333333333,4,2,0,30,0,0
95421,-100,4,2,0,30,0,0
104467,-200,4,2,0,30,0,0
104558,-83.3333333333333,4,2,0,30,0,0
104831,-250,4,2,0,30,0,0
104921,-76.9230769230769,4,2,0,30,0,0
105012,-250,4,2,0,30,0,0
105103,-66.6666666666667,4,2,0,30,0,0
105194,-250,4,2,0,30,0,0
105285,-66.6666666666667,4,2,0,30,0,0
105376,-90.9090909090909,4,2,0,30,0,0
106831,-125,4,2,0,30,0,0
107012,-100,4,2,0,30,0,0
117012,-33.3333333333333,4,2,0,30,0,0
117103,-200,4,2,0,30,0,0
117285,-333.333333333333,4,2,0,30,0,0
117376,-71.4285714285714,4,2,0,30,0,0
117467,-250,4,2,0,30,0,0
117558,-66.6666666666667,4,2,0,30,0,0
117649,-250,4,2,0,30,0,0
117740,-100,4,2,0,30,0,0
118467,-100,4,2,0,30,0,1
141740,-111.111111111111,4,2,0,30,0,0
146831,-117.647058823529,4,2,0,30,0,0
148194,-133.333333333333,4,2,0,30,0,0
152406,-153.846153846154,4,2,0,30,0,0
154891,-200,4,2,0,30,0,0
159740,-100,4,2,0,30,0,0

[HitObjects]
192,192,831,128,0,2285:0:0:0:0:
320,192,2285,1,0,0:0:0:0:
448,192,2285,1,0,0:0:0:0:
64,192,2285,1,0,0:0:0:0:
192,192,2467,1,0,0:0:0:0:
320,192,2649,1,0,0:0:0:0:
448,192,2831,1,0,0:0:0:0:
320,192,3012,1,0,0:0:0:0:
192,192,3012,1,0,0:0:0:0:
64,192,3194,1,0,0:0:0:0:
320,192,3376,1,0,0:0:0:0:
192,192,3558,1,0,0:0:0:0:
448,192,3740,1,0,0:0:0:0:
320,192,3740,1,0,0:0:0:0:
64,192,3740,1,0,0:0:0:0:
192,192,3921,1,0,0:0:0:0:
448,192,4103,1,0,0:0:0:0:
64,192,4285,1,0,0:0:0:0:
192,192,4467,1,0,0:0:0:0:
320,192,4467,1,0,0:0:0:0:
64,192,4649,1,0,0:0:0:0:
192,192,4831,1,0,0:0:0:0:
320,192,5012,1,0,0:0:0:0:
448,192,5194,1,0,0:0:0:0:
64,192,5194,1,0,0:0:0:0:
320,192,5376,1,0,0:0:0:0:
192,192,5558,1,0,0:0:0:0:
64,192,5740,1,0,0:0:0:0:
320,192,6103,128,0,6194:0:0:0:0:
64,192,6103,128,0,6649:0:0:0:0:
320,192,6285,128,0,6376:0:0:0:0:
320,192,6467,128,0,6558:0:0:0:0:
192,192,6649,1,0,0:0:0:0:
448,192,6649,1,0,0:0:0:0:
320,192,6649,1,0,0:0:0:0:
192,192,6831,1,0,0:0:0:0:
192,192,7012,1,0,0:0:0:0:
64,192,7194,1,0,0:0:0:0:
320,192,7194,1,0,0:0:0:0:
448,192,7194,1,0,0:0:0:0:
64,192,7558,1,0,0:0:0:0:
448,192,7558,128,0,7921:0:0:0:0:
192,192,7649,1,0,0:0:0:0:
320,192,7740,1,0,0:0:0:0:
64,192,7740,1,0,0:0:0:0:
320,192,8103,1,0,0:0:0:0:
192,192,8103,1,0,0:0:0:0:
64,192,8103,128,0,9194:0:0:0:0:
320,192,8467,1,0,0:0:0:0:
448,192,8467,1,0,0:0:0:0:
192,192,8649,1,0,0:0:0:0:
320,192,8740,1,0,0:0:0:0:
448,192,8831,1,0,0:0:0:0:
320,192,9012,1,0,0:0:0:0:
192,192,9012,1,0,0:0:0:0:
320,192,9194,128,0,9558:0:0:0:0:
448,192,9194,1,0,0:0:0:0:
448,192,9558,128,0,10285:0:0:0:0:
192,192,9558,1,0,0:0:0:0:
64,192,9740,1,0,0:0:0:0:
320,192,9740,1,0,0:0:0:0:
192,192,9921,1,0,0:0:0:0:
320,192,9921,1,0,0:0:0:0:
320,192,10285,128,0,10467:0:0:0:0:
192,192,10467,128,0,10649:0:0:0:0:
64,192,10467,1,0,0:0:0:0:
64,192,10649,128,0,11012:0:0:0:0:
448,192,10649,1,0,0:0:0:0:
448,192,11012,128,0,11376:0:0:0:0:
192,192,11012,1,0,0:0:0:0:
320,192,11376,1,0,0:0:0:0:
64,192,11376,1,0,0:0:0:0:
448,192,11558,1,0,0:0:0:0:
64,192,11558,128,0,11921:0:0:0:0:
448,192,11921,1,0,0:0:0:0:
320,192,11921,128,0,12285:0:0:0:0:
192,192,12103,1,0,0:0:0:0:
64,192,12103,1,0,0:0:0:0:
192,192,12285,1,0,0:0:0:0:
64,192,12285,1,0,0:0:0:0:
448,192,12285,1,0,0:0:0:0:
64,192,12649,1,0,0:0:0:0:
192,192,12649,1,0,0:0:0:0:
192,192,12831,1,0,0:0:0:0:
320,192,12831,1,0,0:0:0:0:
448,192,13012,1,0,0:0:0:0:
320,192,13103,1,0,0:0:0:0:
192,192,13194,1,0,0:0:0:0:
64,192,13194,128,0,13740:0:0:0:0:
320,192,13376,1,0,0:0:0:0:
448,192,13558,1,0,0:0:0:0:
320,192,13921,1,0,0:0:0:0:
64,192,13921,1,0,0:0:0:0:
192,192,14103,1,0,0:0:0:0:
320,192,14285,1,0,0:0:0:0:
448,192,14467,1,0,0:0:0:0:
64,192,14649,1,0,0:0:0:0:
320,192,14649,128,0,15012:0:0:0:0:
64,192,15012,128,0,15376:0:0:0:0:
320,192,15194,1,0,0:0:0:0:
448,192,15376,1,0,0:0:0:0:
192,192,15376,1,0,0:0:0:0:
320,192,15558,1,0,0:0:0:0:
192,192,15740,1,0,0:0:0:0:
64,192,15921,1,0,0:0:0:0:
448,192,16103,128,0,16467:0:0:0:0:
320,192,16103,1,0,0:0:0:0:
64,192,16285,1,0,0:0:0:0:
192,192,16467,128,0,16831:0:0:0:0:
320,192,16467,1,0,0:0:0:0:
448,192,16649,1,0,0:0:0:0:
64,192,16831,1,0,0:0:0:0:
320,192,16831,1,0,0:0:0:0:
192,192,17012,1,0,0:0:0:0:
320,192,17194,1,0,0:0:0:0:
448,192,17376,1,0,0:0:0:0:
192,192,17558,128,0,17921:0:0:0:0:
320,192,17558,1,0,0:0:0:0:
448,192,17740,1,0,0:0:0:0:
64,192,17921,128,0,18285:0:0:0:0:
320,192,17921,1,0,0:0:0:0:
448,192,18103,1,0,0:0:0:0:
192,192,18285,1,0,0:0:0:0:
320,192,18285,1,0,0:0:0:0:
448,192,18467,1,0,0:0:0:0:
192,192,18649,1,0,0:0:0:0:
64,192,18831,1,0,0:0:0:0:
320,192,19012,1,0,0:0:0:0:
448,192,19012,1,0,0:0:0:0:
64,192,19194,1,0,0:0:0:0:
192,192,19285,1,0,0:0:0:0:
320,192,19376,1,0,0:0:0:0:
192,192,19558,1,0,0:0:0:0:
448,192,19740,1,0,0:0:0:0:
64,192,19740,1,0,0:0:0:0:
320,192,19921,1,0,0:0:0:0:
192,192,20103,1,0,0:0:0:0:
64,192,20285,1,0,0:0:0:0:
192,192,20467,128,0,20831:0:0:0:0:
448,192,20467,1,0,0:0:0:0:
64,192,20649,1,0,0:0:0:0:
320,192,20831,128,0,21194:0:0:0:0:
192,192,21012,1,0,0:0:0:0:
448,192,21194,1,0,0:0:0:0:
64,192,21194,1,0,0:0:0:0:
192,192,21376,1,0,0:0:0:0:
320,192,21558,1,0,0:0:0:0:
448,192,21740,1,0,0:0:0:0:
320,192,21921,128,0,22285:0:0:0:0:
192,192,21921,1,0,0:0:0:0:
64,192,22103,1,0,0:0:0:0:
192,192,22194,1,0,0:0:0:0:
448,192,22285,1,0,0:0:0:0:
64,192,22285,1,0,0:0:0:0:
448,192,22649,1,0,0:0:0:0:
192,192,22649,1,0,0:0:0:0:
64,192,22649,1,0,0:0:0:0:
320,192,22649,128,0,23012:0:0:0:0:
64,192,23012,1,0,0:0:0:0:
448,192,23012,1,0,0:0:0:0:
192,192,23012,128,0,23194:0:0:0:0:
320,192,23194,128,0,23376:0:0:0:0:
448,192,23376,1,0,0:0:0:0:
320,192,23558,128,0,23740:0:0:0:0:
192,192,23558,1,0,0:0:0:0:
448,192,23740,1,0,0:0:0:0:
64,192,23740,1,0,0:0:0:0:
64,192,23921,128,0,25558:0:0:0:0:
192,192,23921,1,0,0:0:0:0:
320,192,23921,1,0,0:0:0:0:
448,192,24285,1,0,0:0:0:0:
320,192,24285,1,0,0:0:0:0:
192,192,24467,1,0,0:0:0:0:
448,192,24649,1,0,0:0:0:0:
320,192,24740,1,0,0:0:0:0:
192,192,24831,1,0,0:0:0:0:
448,192,24831,1,0,0:0:0:0:
448,192,25012,1,0,0:0:0:0:
192,192,25012,1,0,0:0:0:0:
320,192,25103,1,0,0:0:0:0:
192,192,25194,1,0,0:0:0:0:
448,192,25194,1,0,0:0:0:0:
320,192,25285,1,0,0:0:0:0:
448,192,25376,1,0,0:0:0:0:
192,192,25376,1,0,0:0:0:0:
320,192,25467,1,0,0:0:0:0:
192,192,25558,1,0,0:0:0:0:
448,192,25558,1,0,0:0:0:0:
64,192,25921,1,0,0:0:0:0:
192,192,25921,1,0,0:0:0:0:
448,192,26103,1,0,0:0:0:0:
320,192,26194,1,0,0:0:0:0:
192,192,26285,1,0,0:0:0:0:
320,192,26467,1,0,0:0:0:0:
64,192,26467,1,0,0:0:0:0:
448,192,26649,1,0,0:0:0:0:
192,192,26649,1,0,0:0:0:0:
320,192,26831,1,0,0:0:0:0:
320,192,27012,128,0,28467:0:0:0:0:
64,192,27012,1,0,0:0:0:0:
192,192,27194,1,0,0:0:0:0:
64,192,27376,1,0,0:0:0:0:
448,192,27376,1,0,0:0:0:0:
192,192,27558,1,0,0:0:0:0:
448,192,27649,1,0,0:0:0:0:
192,192,27740,1,0,0:0:0:0:
448,192,27921,1,0,0:0:0:0:
64,192,27921,1,0,0:0:0:0:
448,192,28103,1,0,0:0:0:0:
192,192,28103,1,0,0:0:0:0:
64,192,28103,128,0,28467:0:0:0:0:
192,192,28467,128,0,29921:0:0:0:0:
448,192,28467,1,0,0:0:0:0:
320,192,28831,1,0,0:0:0:0:
64,192,28831,1,0,0:0:0:0:
448,192,29012,1,0,0:0:0:0:
64,192,29103,1,0,0:0:0:0:
320,192,29194,1,0,0:0:0:0:
448,192,29376,1,0,0:0:0:0:
64,192,29376,1,0,0:0:0:0:
320,192,29558,1,0,0:0:0:0:
64,192,29558,1,0,0:0:0:0:
64,192,29921,128,0,30649:0:0:0:0:
320,192,29921,1,0,0:0:0:0:
448,192,30103,1,0,0:0:0:0:
192,192,30103,1,0,0:0:0:0:
192,192,30285,1,0,0:0:0:0:
448,192,30285,1,0,0:0:0:0:
320,192,30467,1,0,0:0:0:0:
192,192,30558,1,0,0:0:0:0:
448,192,30649,128,0,31012:0:0:0:0:
320,192,30649,1,0,0:0:0:0:
192,192,30831,1,0,0:0:0:0:
320,192,31012,128,0,31376:0:0:0:0:
64,192,31012,1,0,0:0:0:0:
64,192,31376,128,0,32831:0:0:0:0:
192,192,31376,1,0,0:0:0:0:
448,192,31740,1,0,0:0:0:0:
320,192,31740,1,0,0:0:0:0:
192,192,31921,1,0,0:0:0:0:
320,192,32012,1,0,0:0:0:0:
448,192,32103,1,0,0:0:0:0:
320,192,32285,1,0,0:0:0:0:
192,192,32285,1,0,0:0:0:0:
192,192,32467,1,0,0:0:0:0:
448,192,32467,1,0,0:0:0:0:
448,192,32831,128,0,34285:0:0:0:0:
320,192,32831,1,0,0:0:0:0:
192,192,33012,1,0,0:0:0:0:
64,192,33194,1,0,0:0:0:0:
320,192,33194,1,0,0:0:0:0:
192,192,33376,1,0,0:0:0:0:
64,192,33467,1,0,0:0:0:0:
320,192,33558,1,0,0:0:0:0:
192,192,33740,1,0,0:0:0:0:
64,192,33740,1,0,0:0:0:0:
64,192,33921,1,0,0:0:0:0:
320,192,33921,1,0,0:0:0:0:
320,192,34285,1,0,0:0:0:0:
64,192,34285,1,0,0:0:0:0:
192,192,34285,1,0,0:0:0:0:
320,192,34649,1,0,0:0:0:0:
64,192,34649,1,0,0:0:0:0:
192,192,34831,1,0,0:0:0:0:
448,192,34831,128,0,35194:0:0:0:0:
64,192,35194,128,0,35558:0:0:0:0:
320,192,35194,1,0,0:0:0:0:
320,192,35376,1,0,0:0:0:0:
448,192,35376,1,0,0:0:0:0:
448,192,35558,128,0,37012:0:0:0:0:
320,192,35558,128,0,37012:0:0:0:0:
192,192,35558,1,0,0:0:0:0:
192,192,35921,1,0,0:0:0:0:
192,192,36103,1,0,0:0:0:0:
64,192,36103,1,0,0:0:0:0:
192,192,36467,128,0,37012:0:0:0:0:
64,192,36467,128,0,37012:0:0:0:0:
64,192,37194,1,0,0:0:0:0:
192,192,37194,1,0,0:0:0:0:
320,192,37194,1,0,0:0:0:0:
448,192,37194,1,0,0:0:0:0:
320,192,37558,1,0,0:0:0:0:
192,192,37558,1,0,0:0:0:0:
448,192,37740,1,0,0:0:0:0:
192,192,37921,1,0,0:0:0:0:
64,192,37921,1,0,0:0:0:0:
320,192,37921,1,0,0:0:0:0:
320,192,38285,1,0,0:0:0:0:
448,192,38285,1,0,0:0:0:0:
192,192,38649,1,0,0:0:0:0:
320,192,38649,1,0,0:0:0:0:
64,192,38831,1,0,0:0:0:0:
320,192,39012,1,0,0:0:0:0:
448,192,39012,1,0,0:0:0:0:
192,192,39194,1,0,0:0:0:0:
320,192,39376,1,0,0:0:0:0:
448,192,39376,1,0,0:0:0:0:
64,192,39376,1,0,0:0:0:0:
192,192,39558,1,0,0:0:0:0:
448,192,39558,1,0,0:0:0:0:
320,192,39740,1,0,0:0:0:0:
64,192,39740,1,0,0:0:0:0:
192,192,39921,1,0,0:0:0:0:
448,192,39921,1,0,0:0:0:0:
448,192,40103,1,0,0:0:0:0:
320,192,40103,1,0,0:0:0:0:
64,192,40103,1,0,0:0:0:0:
192,192,40103,1,0,0:0:0:0:
192,192,40467,1,0,0:0:0:0:
448,192,40467,1,0,0:0:0:0:
320,192,40649,1,0,0:0:0:0:
192,192,40831,1,0,0:0:0:0:
64,192,40831,1,0,0:0:0:0:
448,192,40831,1,0,0:0:0:0:
320,192,41194,1,0,0:0:0:0:
192,192,41194,1,0,0:0:0:0:
448,192,41376,1,0,0:0:0:0:
192,192,41558,1,0,0:0:0:0:
64,192,41558,1,0,0:0:0:0:
448,192,41740,1,0,0:0:0:0:
320,192,41921,1,0,0:0:0:0:
192,192,41921,1,0,0:0:0:0:
448,192,42103,1,0,0:0:0:0:
320,192,42194,1,0,0:0:0:0:
192,192,42285,1,0,0:0:0:0:
64,192,42285,1,0,0:0:0:0:
448,192,42467,1,0,0:0:0:0:
320,192,42467,1,0,0:0:0:0:
192,192,42649,1,0,0:0:0:0:
448,192,42649,1,0,0:0:0:0:
64,192,42831,1,0,0:0:0:0:
320,192,42831,1,0,0:0:0:0:
448,192,43012,1,0,0:0:0:0:
64,192,43012,1,0,0:0:0:0:
192,192,43012,1,0,0:0:0:0:
320,192,43012,1,0,0:0:0:0:
320,192,43376,1,0,0:0:0:0:
192,192,43376,1,0,0:0:0:0:
448,192,43558,1,0,0:0:0:0:
192,192,43740,1,0,0:0:0:0:
64,192,43740,1,0,0:0:0:0:
320,192,43740,1,0,0:0:0:0:
320,192,44103,1,0,0:0:0:0:
192,192,44103,1,0,0:0:0:0:
448,192,44285,1,0,0:0:0:0:
64,192,44467,1,0,0:0:0:0:
192,192,44467,1,0,0:0:0:0:
320,192,44649,1,0,0:0:0:0:
192,192,44831,1,0,0:0:0:0:
448,192,44831,1,0,0:0:0:0:
320,192,45012,1,0,0:0:0:0:
64,192,45194,1,0,0:0:0:0:
192,192,45194,1,0,0:0:0:0:
448,192,45194,1,0,0:0:0:0:
320,192,45376,1,0,0:0:0:0:
64,192,45376,1,0,0:0:0:0:
448,192,45558,1,0,0:0:0:0:
192,192,45558,1,0,0:0:0:0:
320,192,45740,1,0,0:0:0:0:
64,192,45740,1,0,0:0:0:0:
192,192,45921,1,0,0:0:0:0:
320,192,46103,1,0,0:0:0:0:
64,192,46103,1,0,0:0:0:0:
448,192,46103,1,0,0:0:0:0:
192,192,46285,1,0,0:0:0:0:
320,192,46467,1,0,0:0:0:0:
192,192,46649,1,0,0:0:0:0:
64,192,46649,1,0,0:0:0:0:
448,192,46649,1,0,0:0:0:0:
320,192,46831,1,0,0:0:0:0:
192,192,47012,1,0,0:0:0:0:
192,192,47194,1,0,0:0:0:0:
64,192,47194,1,0,0:0:0:0:
320,192,47194,1,0,0:0:0:0:
448,192,47194,1,0,0:0:0:0:
64,192,47558,1,0,0:0:0:0:
192,192,47558,1,0,0:0:0:0:
192,192,47740,1,0,0:0:0:0:
320,192,47740,1,0,0:0:0:0:
448,192,47921,1,0,0:0:0:0:
64,192,47921,1,0,0:0:0:0:
448,192,48103,1,0,0:0:0:0:
320,192,48164,1,0,0:0:0:0:
192,192,48224,1,0,0:0:0:0:
64,192,48285,1,0,0:0:0:0:
192,192,48346,1,0,0:0:0:0:
320,192,48406,1,0,0:0:0:0:
448,192,48467,1,0,0:0:0:0:
192,192,48649,1,0,0:0:0:0:
320,192,48649,1,0,0:0:0:0:
448,192,48649,1,0,0:0:0:0:
64,192,48649,1,0,0:0:0:0:
320,192,49012,1,0,0:0:0:0:
448,192,49012,1,0,0:0:0:0:
192,192,49194,1,0,0:0:0:0:
64,192,49194,1,0,0:0:0:0:
320,192,49558,1,0,0:0:0:0:
192,192,49740,1,0,0:0:0:0:
64,192,49740,1,0,0:0:0:0:
320,192,49921,1,0,0:0:0:0:
448,192,49921,1,0,0:0:0:0:
192,192,50103,1,0,0:0:0:0:
64,192,50103,128,0,51012:0:0:0:0:
448,192,50467,1,0,0:0:0:0:
320,192,50467,1,0,0:0:0:0:
320,192,50649,1,0,0:0:0:0:
192,192,50649,1,0,0:0:0:0:
320,192,51012,128,0,51740:0:0:0:0:
448,192,51012,1,0,0:0:0:0:
192,192,51194,1,0,0:0:0:0:
64,192,51194,1,0,0:0:0:0:
64,192,51376,1,0,0:0:0:0:
448,192,51376,1,0,0:0:0:0:
448,192,51740,128,0,53194:0:0:0:0:
192,192,51740,1,0,0:0:0:0:
64,192,51740,1,0,0:0:0:0:
320,192,51921,1,0,0:0:0:0:
192,192,52103,1,0,0:0:0:0:
64,192,52103,1,0,0:0:0:0:
320,192,52467,1,0,0:0:0:0:
192,192,52649,1,0,0:0:0:0:
64,192,52649,1,0,0:0:0:0:
64,192,52831,1,0,0:0:0:0:
320,192,52831,1,0,0:0:0:0:
64,192,53194,1,0,0:0:0:0:
192,192,53194,1,0,0:0:0:0:
320,192,53376,1,0,0:0:0:0:
448,192,53558,128,0,53921:0:0:0:0:
192,192,53558,1,0,0:0:0:0:
320,192,53921,1,0,0:0:0:0:
64,192,53921,1,2,0:0:0:0:
320,192,54103,1,0,0:0:0:0:
64,192,54103,1,2,0:0:0:0:
448,192,54285,1,0,0:0:0:0:
64,192,54285,1,2,0:0:0:0:
192,192,54285,1,0,0:0:0:0:
192,192,54467,1,2,0:0:0:0:
320,192,54467,1,0,0:0:0:0:
64,192,54649,1,2,0:0:0:0:
320,192,54649,1,0,0:0:0:0:
448,192,54649,1,0,0:0:0:0:
192,192,54649,1,0,0:0:0:0:
192,192,55012,1,0,0:0:0:0:
64,192,55012,1,0,0:0:0:0:
320,192,55376,1,0,0:0:0:0:
192,192,55558,1,0,0:0:0:0:
320,192,55558,1,0,0:0:0:0:
64,192,55740,1,2,0:0:0:0:
448,192,55740,1,0,0:0:0:0:
192,192,55740,1,0,0:0:0:0:
64,192,55921,1,2,0:0:0:0:
320,192,55921,1,0,0:0:0:0:
192,192,56103,1,2,0:0:0:0:
320,192,56103,128,0,56831:0:0:0:0:
448,192,56103,1,0,0:0:0:0:
192,192,56467,1,0,0:0:0:0:
448,192,56467,1,0,0:0:0:0:
64,192,56649,1,2,0:0:0:0:
192,192,56831,128,0,57558:0:0:0:0:
448,192,56831,1,0,0:0:0:0:
64,192,57012,1,0,0:0:0:0:
320,192,57012,1,0,0:0:0:0:
320,192,57194,1,0,0:0:0:0:
448,192,57194,1,0,0:0:0:0:
448,192,57558,128,0,58831:0:0:0:0:
320,192,57558,1,0,0:0:0:0:
64,192,57558,1,0,0:0:0:0:
64,192,57921,1,0,0:0:0:0:
192,192,57921,1,0,0:0:0:0:
320,192,58285,1,0,0:0:0:0:
192,192,58467,1,0,0:0:0:0:
64,192,58467,1,0,0:0:0:0:
64,192,58649,1,0,0:0:0:0:
320,192,58649,1,0,0:0:0:0:
320,192,58831,1,0,0:0:0:0:
64,192,58831,128,0,59194:0:0:0:0:
192,192,58831,1,0,0:0:0:0:
448,192,59194,128,0,59740:0:0:0:0:
320,192,59376,128,0,59740:0:0:0:0:
192,192,59558,128,0,59740:0:0:0:0:
64,192,59740,128,0,60103:0:0:0:0:
192,192,59921,128,0,60103:0:0:0:0:
320,192,60103,128,0,60285:0:0:0:0:
448,192,60285,1,0,0:0:0:0:
192,192,60285,1,0,0:0:0:0:
64,192,60285,1,0,0:0:0:0:
192,192,60649,1,0,0:0:0:0:
64,192,60649,1,0,0:0:0:0:
320,192,60831,1,0,0:0:0:0:
448,192,60831,1,0,0:0:0:0:
192,192,61194,1,0,0:0:0:0:
64,192,61376,1,0,0:0:0:0:
320,192,61376,1,0,0:0:0:0:
192,192,61558,1,0,0:0:0:0:
320,192,61558,1,0,0:0:0:0:
64,192,61740,1,0,0:0:0:0:
448,192,61740,128,0,62649:0:0:0:0:
192,192,61921,1,0,0:0:0:0:
320,192,62103,1,0,0:0:0:0:
64,192,62103,1,0,0:0:0:0:
192,192,62285,1,0,0:0:0:0:
64,192,62285,1,0,0:0:0:0:
64,192,62649,128,0,63376:0:0:0:0:
192,192,62649,1,0,0:0:0:0:
320,192,62831,1,0,0:0:0:0:
448,192,62831,1,0,0:0:0:0:
448,192,63012,1,0,0:0:0:0:
192,192,63012,1,0,0:0:0:0:
192,192,63376,128,0,64831:0:0:0:0:
448,192,63376,1,0,0:0:0:0:
320,192,63376,1,0,0:0:0:0:
320,192,63740,1,0,0:0:0:0:
448,192,63740,1,0,0:0:0:0:
320,192,64103,1,0,0:0:0:0:
64,192,64285,1,0,0:0:0:0:
448,192,64285,1,0,0:0:0:0:
320,192,64467,1,0,0:0:0:0:
448,192,64467,1,0,0:0:0:0:
64,192,64649,1,0,0:0:0:0:
448,192,64831,128,0,65558:0:0:0:0:
320,192,64831,1,0,0:0:0:0:
192,192,65012,1,0,0:0:0:0:
64,192,65012,1,0,0:0:0:0:
64,192,65194,1,0,0:0:0:0:
320,192,65194,1,0,0:0:0:0:
192,192,65558,1,0,0:0:0:0:
64,192,65558,128,0,66285:0:0:0:0:
320,192,65740,1,0,0:0:0:0:
448,192,65740,1,0,0:0:0:0:
192,192,65740,1,0,0:0:0:0:
320,192,65921,1,0,0:0:0:0:
448,192,65921,1,0,0:0:0:0:
192,192,65921,1,0,0:0:0:0:
320,192,66103,1,0,0:0:0:0:
448,192,66194,1,0,0:0:0:0:
192,192,66285,1,0,0:0:0:0:
448,192,66285,128,0,66649:0:0:0:0:
320,192,66285,1,0,0:0:0:0:
320,192,66467,128,0,66649:0:0:0:0:
192,192,66649,128,0,66831:0:0:0:0:
64,192,66649,1,0,0:0:0:0:
320,192,66831,1,0,0:0:0:0:
448,192,66831,1,0,0:0:0:0:
64,192,66831,128,0,67194:0:0:0:0:
320,192,67012,128,0,67194:0:0:0:0:
448,192,67194,128,0,67376:0:0:0:0:
192,192,67194,1,0,0:0:0:0:
320,192,67376,1,0,0:0:0:0:
64,192,67376,1,0,0:0:0:0:
192,192,67376,128,0,67740:0:0:0:0:
320,192,67558,128,0,67740:0:0:0:0:
448,192,67740,128,0,67921:0:0:0:0:
64,192,67740,1,0,0:0:0:0:
320,192,67921,1,0,0:0:0:0:
192,192,67921,1,0,0:0:0:0:
64,192,67921,128,0,68467:0:0:0:0:
192,192,68103,128,0,68467:0:0:0:0:
320,192,68285,128,0,68467:0:0:0:0:
448,192,68467,128,0,68831:0:0:0:0:
192,192,68649,1,0,0:0:0:0:
320,192,68831,128,0,69194:0:0:0:0:
64,192,68831,1,0,0:0:0:0:
192,192,69012,128,0,69194:0:0:0:0:
64,192,69103,128,0,69194:0:0:0:0:
448,192,69194,128,0,70649:0:0:0:0:
320,192,69558,1,0,0:0:0:0:
64,192,69558,128,0,69740:0:0:0:0:
192,192,69740,128,0,69921:0:0:0:0:
64,192,69921,128,0,70103:0:0:0:0:
320,192,70103,128,0,70285:0:0:0:0:
192,192,70285,128,0,70467:0:0:0:0:
320,192,70467,128,0,70649:0:0:0:0:
64,192,70467,128,0,70649:0:0:0:0:
192,192,70831,128,0,71012:0:0:0:0:
64,192,70831,1,0,0:0:0:0:
320,192,71012,128,0,71194:0:0:0:0:
448,192,71012,1,0,0:0:0:0:
192,192,71194,1,0,0:0:0:0:
64,192,71194,128,0,71376:0:0:0:0:
448,192,71376,128,0,71558:0:0:0:0:
320,192,71376,1,0,0:0:0:0:
192,192,71558,128,0,71740:0:0:0:0:
64,192,71558,1,0,0:0:0:0:
64,192,71740,128,0,71921:0:0:0:0:
448,192,71740,1,0,0:0:0:0:
448,192,71921,1,0,0:0:0:0:
320,192,71921,1,0,0:0:0:0:
192,192,71921,1,0,0:0:0:0:
64,192,72103,1,0,0:0:0:0:
192,192,72285,1,0,0:0:0:0:
448,192,72285,1,0,0:0:0:0:
64,192,72467,1,0,0:0:0:0:
320,192,72467,1,0,0:0:0:0:
448,192,72649,1,0,0:0:0:0:
320,192,72740,1,0,0:0:0:0:
64,192,72831,1,0,0:0:0:0:
192,192,72831,1,0,0:0:0:0:
320,192,73012,1,0,0:0:0:0:
448,192,73012,1,0,0:0:0:0:
192,192,73194,1,0,0:0:0:0:
448,192,73194,1,0,0:0:0:0:
320,192,73376,128,0,73558:0:0:0:0:
64,192,73558,128,0,73921:0:0:0:0:
192,192,73558,1,0,0:0:0:0:
192,192,73921,128,0,74103:0:0:0:0:
448,192,73921,1,0,0:0:0:0:
320,192,74103,128,0,74285:0:0:0:0:
64,192,74103,1,0,0:0:0:0:
192,192,74194,1,0,0:0:0:0:
448,192,74285,128,0,75012:0:0:0:0:
64,192,74285,1,0,0:0:0:0:
192,192,74467,1,0,0:0:0:0:
320,192,74467,1,0,0:0:0:0:
64,192,74649,1,0,0:0:0:0:
320,192,74649,128,0,75012:0:0:0:0:
192,192,74649,1,0,0:0:0:0:
192,192,75012,1,0,0:0:0:0:
64,192,75012,1,0,0:0:0:0:
320,192,75376,1,0,0:0:0:0:
448,192,75376,1,0,0:0:0:0:
64,192,75558,1,0,0:0:0:0:
192,192,75649,1,0,0:0:0:0:
320,192,75740,1,0,0:0:0:0:
448,192,75740,1,0,0:0:0:0:
192,192,75921,1,0,0:0:0:0:
64,192,76103,1,0,0:0:0:0:
320,192,76103,1,0,0:0:0:0:
448,192,76103,1,0,0:0:0:0:
448,192,76285,1,0,0:0:0:0:
192,192,76285,1,0,0:0:0:0:
320,192,76467,1,0,0:0:0:0:
64,192,76467,1,0,0:0:0:0:
192,192,76649,128,0,76831:0:0:0:0:
448,192,76649,1,0,0:0:0:0:
448,192,76831,128,0,77012:0:0:0:0:
64,192,76831,1,0,0:0:0:0:
320,192,77012,128,0,77558:0:0:0:0:
192,192,77012,1,0,0:0:0:0:
448,192,77376,1,0,0:0:0:0:
64,192,77376,1,0,0:0:0:0:
64,192,77558,128,0,77921:0:0:0:0:
192,192,77558,1,0,0:0:0:0:
448,192,77558,1,0,0:0:0:0:
192,192,77921,1,0,0:0:0:0:
320,192,77921,1,0,0:0:0:0:
448,192,77921,1,0,0:0:0:0:
64,192,78103,1,0,0:0:0:0:
192,192,78285,1,0,0:0:0:0:
320,192,78285,1,0,0:0:0:0:
448,192,78467,1,0,0:0:0:0:
320,192,78467,1,0,0:0:0:0:
64,192,78649,128,0,78831:0:0:0:0:
192,192,78831,1,0,0:0:0:0:
448,192,78831,1,0,0:0:0:0:
320,192,78921,1,0,0:0:0:0:
448,192,79012,128,0,79194:0:0:0:0:
64,192,79012,1,0,0:0:0:0:
192,192,79012,1,0,0:0:0:0:
192,192,79194,128,0,79376:0:0:0:0:
64,192,79376,128,0,79740:0:0:0:0:
320,192,79376,1,0,0:0:0:0:
320,192,79558,1,0,0:0:0:0:
448,192,79558,1,0,0:0:0:0:
320,192,79740,128,0,79921:0:0:0:0:
192,192,79740,1,0,0:0:0:0:
448,192,79740,1,0,0:0:0:0:
64,192,79921,128,0,80831:0:0:0:0:
448,192,80103,128,0,80285:0:0:0:0:
320,192,80285,128,0,80467:0:0:0:0:
192,192,80285,1,0,0:0:0:0:
448,192,80467,1,0,0:0:0:0:
192,192,80467,128,0,80831:0:0:0:0:
320,192,80831,1,0,0:0:0:0:
448,192,80831,128,0,81012:0:0:0:0:
320,192,81012,128,0,81194:0:0:0:0:
192,192,81194,1,0,0:0:0:0:
64,192,81194,1,0,0:0:0:0:
192,192,81376,1,0,0:0:0:0:
448,192,81377,1,0,0:0:0:0:
448,192,81740,1,0,0:0:0:0:
192,192,81740,128,0,82103:0:0:0:0:
320,192,81921,1,0,0:0:0:0:
64,192,81921,1,0,0:0:0:0:
320,192,82103,1,0,0:0:0:0:
64,192,82103,1,0,0:0:0:0:
448,192,82103,1,0,0:0:0:0:
448,192,82467,1,0,0:0:0:0:
320,192,82467,1,0,0:0:0:0:
320,192,82649,1,0,0:0:0:0:
192,192,82649,1,0,0:0:0:0:
64,192,82831,1,0,0:0:0:0:
192,192,82921,1,0,0:0:0:0:
320,192,83012,1,0,0:0:0:0:
448,192,83012,128,0,83558:0:0:0:0:
64,192,83194,1,0,0:0:0:0:
192,192,83376,1,0,0:0:0:0:
320,192,83740,1,0,0:0:0:0:
64,192,83740,1,0,0:0:0:0:
192,192,83831,1,0,0:0:0:0:
320,192,83921,1,0,0:0:0:0:
448,192,84012,1,0,0:0:0:0:
64,192,84103,1,0,0:0:0:0:
192,192,84103,1,0,0:0:0:0:
320,192,84194,1,0,0:0:0:0:
192,192,84285,1,0,0:0:0:0:
64,192,84376,1,0,0:0:0:0:
192,192,84467,1,0,0:0:0:0:
320,192,84467,1,0,0:0:0:0:
64,192,84649,1,0,0:0:0:0:
448,192,84649,1,0,0:0:0:0:
320,192,84831,1,0,0:0:0:0:
64,192,84831,1,0,0:0:0:0:
192,192,84831,1,0,0:0:0:0:
64,192,85012,1,0,0:0:0:0:
448,192,85012,1,0,0:0:0:0:
192,192,85194,1,0,0:0:0:0:
320,192,85194,1,0,0:0:0:0:
448,192,85285,1,0,0:0:0:0:
320,192,85376,1,0,0:0:0:0:
192,192,85467,1,0,0:0:0:0:
448,192,85558,1,0,0:0:0:0:
64,192,85558,1,0,0:0:0:0:
192,192,85649,1,0,0:0:0:0:
320,192,85740,1,0,0:0:0:0:
192,192,85831,1,0,0:0:0:0:
448,192,85921,1,0,0:0:0:0:
64,192,85921,1,0,0:0:0:0:
192,192,86103,1,0,0:0:0:0:
320,192,86103,1,0,0:0:0:0:
320,192,86285,1,0,0:0:0:0:
192,192,86285,1,0,0:0:0:0:
448,192,86285,1,0,0:0:0:0:
192,192,86467,1,0,0:0:0:0:
448,192,86467,1,0,0:0:0:0:
64,192,86649,1,0,0:0:0:0:
320,192,86649,1,0,0:0:0:0:
448,192,86740,1,0,0:0:0:0:
320,192,86831,1,0,0:0:0:0:
192,192,86921,1,0,0:0:0:0:
448,192,87012,1,0,0:0:0:0:
64,192,87012,1,0,0:0:0:0:
320,192,87103,1,0,0:0:0:0:
192,192,87194,1,0,0:0:0:0:
64,192,87285,1,0,0:0:0:0:
192,192,87376,1,0,0:0:0:0:
448,192,87376,1,0,0:0:0:0:
320,192,87558,1,0,0:0:0:0:
192,192,87558,1,0,0:0:0:0:
192,192,87740,1,0,0:0:0:0:
320,192,87740,1,0,0:0:0:0:
64,192,87740,1,0,0:0:0:0:
320,192,87921,1,0,0:0:0:0:
64,192,87921,1,0,0:0:0:0:
448,192,88103,1,0,0:0:0:0:
192,192,88103,1,0,0:0:0:0:
320,192,88194,1,0,0:0:0:0:
192,192,88285,1,0,0:0:0:0:
64,192,88376,1,0,0:0:0:0:
320,192,88467,1,0,0:0:0:0:
192,192,88467,1,0,0:0:0:0:
448,192,88558,1,0,0:0:0:0:
320,192,88649,1,0,0:0:0:0:
192,192,88740,1,0,0:0:0:0:
64,192,88831,1,0,0:0:0:0:
320,192,88831,1,0,0:0:0:0:
448,192,89012,1,0,0:0:0:0:
64,192,89012,1,0,0:0:0:0:
448,192,89194,1,0,0:0:0:0:
64,192,89194,1,0,0:0:0:0:
192,192,89194,1,0,0:0:0:0:
448,192,89376,1,0,0:0:0:0:
192,192,89376,1,0,0:0:0:0:
64,192,89558,1,0,0:0:0:0:
320,192,89558,1,0,0:0:0:0:
192,192,89649,1,0,0:0:0:0:
320,192,89740,1,0,0:0:0:0:
192,192,89831,1,0,0:0:0:0:
448,192,89921,1,0,0:0:0:0:
64,192,89921,1,0,0:0:0:0:
192,192,90012,1,0,0:0:0:0:
320,192,90103,1,0,0:0:0:0:
448,192,90194,1,0,0:0:0:0:
64,192,90285,1,0,0:0:0:0:
192,192,90285,1,0,0:0:0:0:
320,192,90467,1,0,0:0:0:0:
192,192,90467,1,0,0:0:0:0:
320,192,90649,1,0,0:0:0:0:
64,192,90649,1,0,0:0:0:0:
192,192,90649,1,0,0:0:0:0:
320,192,90831,1,0,0:0:0:0:
64,192,90831,1,0,0:0:0:0:
192,192,91012,1,0,0:0:0:0:
448,192,91012,1,0,0:0:0:0:
320,192,91103,1,0,0:0:0:0:
192,192,91194,1,0,0:0:0:0:
64,192,91285,1,0,0:0:0:0:
320,192,91376,1,0,0:0:0:0:
192,192,91376,1,0,0:0:0:0:
448,192,91467,1,0,0:0:0:0:
320,192,91558,1,0,0:0:0:0:
192,192,91649,1,0,0:0:0:0:
448,192,91740,1,0,0:0:0:0:
64,192,91740,1,0,0:0:0:0:
320,192,91921,1,0,0:0:0:0:
448,192,91921,1,0,0:0:0:0:
192,192,92012,1,0,0:0:0:0:
448,192,92103,128,0,92467:0:0:0:0:
64,192,92103,128,0,92467:0:0:0:0:
320,192,92467,1,0,0:0:0:0:
192,192,92467,1,0,0:0:0:0:
448,192,92831,1,0,0:0:0:0:
64,192,92831,1,0,0:0:0:0:
192,192,92831,1,0,0:0:0:0:
320,192,93194,1,0,0:0:0:0:
64,192,93376,1,0,0:0:0:0:
192,192,93376,1,0,0:0:0:0:
320,192,93558,1,0,0:0:0:0:
448,192,93558,1,0,0:0:0:0:
192,192,93740,1,0,0:0:0:0:
448,192,93740,1,0,0:0:0:0:
64,192,93740,128,0,95376:0:0:0:0:
320,192,94103,1,0,0:0:0:0:
448,192,94103,1,0,0:0:0:0:
192,192,94285,1,0,0:0:0:0:
448,192,94467,1,0,0:0:0:0:
320,192,94558,1,0,0:0:0:0:
192,192,94649,1,0,0:0:0:0:
448,192,94649,1,0,0:0:0:0:
448,192,94831,1,0,0:0:0:0:
320,192,94831,1,0,0:0:0:0:
192,192,94921,1,0,0:0:0:0:
320,192,95012,1,0,0:0:0:0:
448,192,95012,1,0,0:0:0:0:
192,192,95103,1,0,0:0:0:0:
448,192,95194,1,0,0:0:0:0:
320,192,95194,1,0,0:0:0:0:
192,192,95285,1,0,0:0:0:0:
448,192,95376,128,0,96831:0:0:0:0:
320,192,95376,1,0,0:0:0:0:
64,192,95740,1,0,0:0:0:0:
192,192,95740,1,0,0:0:0:0:
320,192,95921,1,0,0:0:0:0:
192,192,96012,1,0,0:0:0:0:
64,192,96103,1,0,0:0:0:0:
192,192,96285,1,0,0:0:0:0:
320,192,96286,1,0,0:0:0:0:
64,192,96467,1,0,0:0:0:0:
192,192,96467,128,0,96831:0:0:0:0:
64,192,96831,1,0,0:0:0:0:
320,192,96831,1,0,0:0:0:0:
448,192,97012,1,0,0:0:0:0:
320,192,97194,1,0,0:0:0:0:
192,192,97194,1,0,0:0:0:0:
448,192,97376,1,0,0:0:0:0:
192,192,97467,1,0,0:0:0:0:
64,192,97558,1,0,0:0:0:0:
320,192,97740,1,0,0:0:0:0:
192,192,97740,1,0,0:0:0:0:
448,192,97921,128,0,98285:0:0:0:0:
320,192,97921,1,0,0:0:0:0:
64,192,97922,1,0,0:0:0:0:
320,192,98285,128,0,99740:0:0:0:0:
64,192,98286,1,0,0:0:0:0:
192,192,98649,1,0,0:0:0:0:
64,192,98650,1,0,0:0:0:0:
448,192,98831,1,0,0:0:0:0:
64,192,98922,1,0,0:0:0:0:
192,192,99012,1,0,0:0:0:0:
448,192,99194,1,0,0:0:0:0:
64,192,99194,1,0,0:0:0:0:
192,192,99376,128,0,99740:0:0:0:0:
64,192,99377,1,0,0:0:0:0:
64,192,99740,1,0,0:0:0:0:
448,192,99740,128,0,100285:0:0:0:0:
320,192,99922,1,0,0:0:0:0:
64,192,100103,1,0,0:0:0:0:
192,192,100104,1,0,0:0:0:0:
320,192,100285,1,0,0:0:0:0:
192,192,100377,1,0,0:0:0:0:
448,192,100467,1,0,0:0:0:0:
64,192,100467,128,0,100831:0:0:0:0:
320,192,100649,1,0,0:0:0:0:
192,192,100650,1,0,0:0:0:0:
448,192,100831,1,0,0:0:0:0:
320,192,100831,128,0,101194:0:0:0:0:
64,192,101194,1,0,0:0:0:0:
192,192,101195,1,0,0:0:0:0:
64,192,101558,1,0,0:0:0:0:
448,192,101559,1,0,0:0:0:0:
320,192,101740,1,0,0:0:0:0:
192,192,101831,1,0,0:0:0:0:
64,192,101921,1,0,0:0:0:0:
448,192,102103,1,0,0:0:0:0:
320,192,102104,1,0,0:0:0:0:
64,192,102285,128,0,102649:0:0:0:0:
448,192,102285,1,0,0:0:0:0:
192,192,102286,1,0,0:0:0:0:
320,192,102650,1,0,0:0:0:0:
192,192,102831,1,0,0:0:0:0:
448,192,103012,1,0,0:0:0:0:
320,192,103013,1,0,0:0:0:0:
64,192,103194,1,0,0:0:0:0:
192,192,103285,1,0,0:0:0:0:
320,192,103377,1,0,0:0:0:0:
448,192,103558,1,0,0:0:0:0:
192,192,103558,1,0,0:0:0:0:
64,192,103740,1,0,0:0:0:0:
192,192,103740,1,0,0:0:0:0:
448,192,104103,1,0,0:0:0:0:
192,192,104103,1,0,0:0:0:0:
320,192,104103,128,0,104467:0:0:0:0:
64,192,104467,1,0,0:0:0:0:
448,192,104467,1,0,0:0:0:0:
448,192,104649,1,0,0:0:0:0:
192,192,104649,128,0,105012:0:0:0:0:
64,192,105012,128,0,105376:0:0:0:0:
320,192,105013,1,0,0:0:0:0:
448,192,105194,1,0,0:0:0:0:
320,192,105194,1,0,0:0:0:0:
320,192,105376,1,0,0:0:0:0:
448,192,105376,128,0,106831:0:0:0:0:
192,192,105377,1,0,0:0:0:0:
192,192,105740,1,0,0:0:0:0:
320,192,105921,1,0,0:0:0:0:
64,192,105922,1,0,0:0:0:0:
64,192,106285,128,0,106831:0:0:0:0:
192,192,106285,1,0,0:0:0:0:
320,192,106467,1,0,0:0:0:0:
192,192,106649,1,0,0:0:0:0:
320,192,106831,1,0,0:0:0:0:
64,192,107013,1,0,0:0:0:0:
192,192,107013,1,0,0:0:0:0:
320,192,107013,1,0,0:0:0:0:
448,192,107013,1,0,0:0:0:0:
192,192,107376,1,0,0:0:0:0:
64,192,107376,1,0,0:0:0:0:
320,192,107558,1,0,0:0:0:0:
448,192,107740,1,0,0:0:0:0:
192,192,107740,1,0,0:0:0:0:
64,192,107740,1,0,0:0:0:0:
64,192,108103,1,0,0:0:0:0:
192,192,108103,1,0,0:0:0:0:
448,192,108285,1,0,0:0:0:0:
320,192,108467,1,0,0:0:0:0:
192,192,108467,1,0,0:0:0:0:
448,192,108649,1,0,0:0:0:0:
64,192,108831,1,0,0:0:0:0:
320,192,108831,1,0,0:0:0:0:
192,192,109013,1,0,0:0:0:0:
64,192,109194,1,0,0:0:0:0:
320,192,109195,1,0,0:0:0:0:
448,192,109195,1,0,0:0:0:0:
192,192,109376,1,0,0:0:0:0:
448,192,109376,1,0,0:0:0:0:
64,192,109558,1,0,0:0:0:0:
320,192,109559,1,0,0:0:0:0:
192,192,109740,1,0,0:0:0:0:
448,192,109740,1,0,0:0:0:0:
320,192,109921,1,0,0:0:0:0:
192,192,109921,1,0,0:0:0:0:
448,192,109922,1,0,0:0:0:0:
64,192,109922,1,0,0:0:0:0:
320,192,110285,1,0,0:0:0:0:
64,192,110285,1,0,0:0:0:0:
192,192,110467,1,0,0:0:0:0:
448,192,110649,1,0,0:0:0:0:
320,192,110649,1,0,0:0:0:0:
64,192,110649,1,0,0:0:0:0:
64,192,111012,1,0,0:0:0:0:
320,192,111012,1,0,0:0:0:0:
192,192,111194,1,0,0:0:0:0:
320,192,111376,1,0,0:0:0:0:
448,192,111376,1,0,0:0:0:0:
64,192,111558,1,0,0:0:0:0:
192,192,111740,1,0,0:0:0:0:
320,192,111740,1,0,0:0:0:0:
448,192,111922,1,0,0:0:0:0:
320,192,112013,1,0,0:0:0:0:
448,192,112103,1,0,0:0:0:0:
192,192,112104,1,0,0:0:0:0:
64,192,112285,1,0,0:0:0:0:
192,192,112285,1,0,0:0:0:0:
320,192,112467,1,0,0:0:0:0:
192,192,112468,1,0,0:0:0:0:
448,192,112649,1,0,0:0:0:0:
320,192,112650,1,0,0:0:0:0:
320,192,112831,1,0,0:0:0:0:
64,192,112831,1,0,0:0:0:0:
192,192,112831,1,0,0:0:0:0:
448,192,112831,1,0,0:0:0:0:
64,192,113194,1,0,0:0:0:0:
320,192,113195,1,0,0:0:0:0:
192,192,113376,1,0,0:0:0:0:
448,192,113558,1,0,0:0:0:0:
320,192,113558,1,0,0:0:0:0:
64,192,113740,1,0,0:0:0:0:
192,192,113921,1,0,0:0:0:0:
320,192,113921,1,0,0:0:0:0:
448,192,114285,1,0,0:0:0:0:
320,192,114285,1,0,0:0:0:0:
192,192,114467,1,0,0:0:0:0:
64,192,114649,1,0,0:0:0:0:
448,192,114649,1,0,0:0:0:0:
320,192,114831,1,0,0:0:0:0:
448,192,115012,1,0,0:0:0:0:
64,192,115012,1,0,0:0:0:0:
192,192,115013,1,0,0:0:0:0:
448,192,115194,1,0,0:0:0:0:
320,192,115195,1,0,0:0:0:0:
64,192,115376,1,0,0:0:0:0:
448,192,115558,1,0,0:0:0:0:
192,192,115740,1,0,0:0:0:0:
448,192,115921,1,0,0:0:0:0:
320,192,115921,1,0,0:0:0:0:
64,192,115922,1,0,0:0:0:0:
192,192,116104,1,0,0:0:0:0:
320,192,116285,1,0,0:0:0:0:
192,192,116467,1,0,0:0:0:0:
448,192,116467,1,0,0:0:0:0:
64,192,116468,1,0,0:0:0:0:
320,192,116649,1,0,0:0:0:0:
192,192,116831,1,0,0:0:0:0:
448,192,117012,1,0,0:0:0:0:
320,192,117012,1,0,0:0:0:0:
192,192,117012,1,0,0:0:0:0:
64,192,117013,1,0,0:0:0:0:
448,192,117376,1,0,0:0:0:0:
192,192,117377,1,0,0:0:0:0:
64,192,117558,1,0,0:0:0:0:
320,192,117559,1,0,0:0:0:0:
448,192,117740,1,0,0:0:0:0:
320,192,117740,1,0,0:0:0:0:
192,192,117921,1,0,0:0:0:0:
320,192,117982,1,0,0:0:0:0:
448,192,118043,1,0,0:0:0:0:
320,192,118103,1,0,0:0:0:0:
192,192,118164,1,0,0:0:0:0:
64,192,118224,1,0,0:0:0:0:
192,192,118285,1,0,0:0:0:0:
192,192,118468,1,0,0:0:0:0:
320,192,118468,1,0,0:0:0:0:
448,192,118468,1,0,0:0:0:0:
64,192,118468,1,0,0:0:0:0:
320,192,118831,1,0,0:0:0:0:
448,192,118831,1,0,0:0:0:0:
192,192,119013,1,0,0:0:0:0:
64,192,119013,1,0,0:0:0:0:
320,192,119377,1,0,0:0:0:0:
64,192,119558,1,0,0:0:0:0:
192,192,119559,1,0,0:0:0:0:
320,192,119740,1,0,0:0:0:0:
448,192,119740,1,0,0:0:0:0:
192,192,119921,128,0,120831:0:0:0:0:
64,192,119921,1,0,0:0:0:0:
320,192,120285,1,0,0:0:0:0:
448,192,120286,1,0,0:0:0:0:
64,192,120467,1,0,0:0:0:0:
320,192,120468,1,0,0:0:0:0:
448,192,120649,1,0,0:0:0:0:
320,192,120740,1,0,0:0:0:0:
448,192,120831,128,0,121558:0:0:0:0:
64,192,120831,1,0,0:0:0:0:
320,192,121012,1,0,0:0:0:0:
192,192,121013,1,0,0:0:0:0:
320,192,121194,1,0,0:0:0:0:
64,192,121195,1,0,0:0:0:0:
64,192,121558,128,0,123012:0:0:0:0:
320,192,121558,1,0,0:0:0:0:
192,192,121559,1,0,0:0:0:0:
448,192,121740,1,0,0:0:0:0:
320,192,121921,1,0,0:0:0:0:
192,192,121922,1,0,0:0:0:0:
320,192,122286,1,0,0:0:0:0:
448,192,122467,1,0,0:0:0:0:
192,192,122468,1,0,0:0:0:0:
448,192,122649,1,0,0:0:0:0:
320,192,122650,1,0,0:0:0:0:
320,192,123012,1,0,0:0:0:0:
448,192,123012,128,0,123740:0:0:0:0:
192,192,123013,1,0,0:0:0:0:
64,192,123194,1,0,0:0:0:0:
192,192,123194,1,0,0:0:0:0:
320,192,123376,1,0,0:0:0:0:
192,192,123376,1,0,0:0:0:0:
192,192,123740,1,0,0:0:0:0:
64,192,123740,128,0,124467:0:0:0:0:
320,192,123921,1,0,0:0:0:0:
448,192,123921,1,0,0:0:0:0:
192,192,124103,1,0,0:0:0:0:
448,192,124104,1,0,0:0:0:0:
320,192,124285,1,0,0:0:0:0:
320,192,124467,1,0,0:0:0:0:
448,192,124467,1,0,0:0:0:0:
192,192,124467,1,0,0:0:0:0:
192,192,124831,1,0,0:0:0:0:
64,192,124831,1,0,0:0:0:0:
448,192,125194,1,0,0:0:0:0:
320,192,125376,1,0,0:0:0:0:
192,192,125377,1,0,0:0:0:0:
64,192,125558,1,0,0:0:0:0:
448,192,125559,1,0,0:0:0:0:
192,192,125921,1,0,0:0:0:0:
64,192,125921,128,0,126649:0:0:0:0:
448,192,125922,1,0,0:0:0:0:
320,192,126285,1,0,0:0:0:0:
192,192,126286,1,0,0:0:0:0:
320,192,126649,128,0,127376:0:0:0:0:
192,192,126649,1,0,0:0:0:0:
448,192,126831,1,0,0:0:0:0:
192,192,127012,1,0,0:0:0:0:
64,192,127012,1,0,0:0:0:0:
192,192,127194,1,0,0:0:0:0:
448,192,127285,1,0,0:0:0:0:
192,192,127376,1,0,0:0:0:0:
448,192,127376,128,0,128103:0:0:0:0:
64,192,127377,1,0,0:0:0:0:
64,192,127740,1,0,0:0:0:0:
192,192,127740,1,0,0:0:0:0:
64,192,128103,128,0,128649:0:0:0:0:
320,192,128104,1,0,0:0:0:0:
448,192,128285,1,0,0:0:0:0:
192,192,128286,1,0,0:0:0:0:
448,192,128467,1,0,0:0:0:0:
320,192,128468,1,0,0:0:0:0:
448,192,128649,1,0,0:0:0:0:
320,192,128650,1,0,0:0:0:0:
192,192,128650,1,0,0:0:0:0:
320,192,129012,128,0,129376:0:0:0:0:
192,192,129194,128,0,129376:0:0:0:0:
448,192,129376,128,0,129921:0:0:0:0:
64,192,129559,128,0,129922:0:0:0:0:
192,192,129740,128,0,129921:0:0:0:0:
320,192,129922,128,0,130104:0:0:0:0:
448,192,130104,1,0,0:0:0:0:
192,192,130104,1,0,0:0:0:0:
64,192,130104,1,0,0:0:0:0:
448,192,130467,1,0,0:0:0:0:
192,192,130468,1,0,0:0:0:0:
64,192,130649,1,0,0:0:0:0:
320,192,130649,1,0,0:0:0:0:
192,192,131013,1,0,0:0:0:0:
448,192,131194,1,0,0:0:0:0:
64,192,131194,1,0,0:0:0:0:
192,192,131377,1,0,0:0:0:0:
320,192,131377,1,0,0:0:0:0:
448,192,131558,128,0,132467:0:0:0:0:
64,192,131559,1,0,0:0:0:0:
192,192,131921,1,0,0:0:0:0:
320,192,131921,1,0,0:0:0:0:
320,192,132103,1,0,0:0:0:0:
64,192,132104,1,0,0:0:0:0:
320,192,132467,128,0,133194:0:0:0:0:
192,192,132468,1,0,0:0:0:0:
64,192,132649,1,0,0:0:0:0:
448,192,132649,1,0,0:0:0:0:
448,192,132831,1,0,0:0:0:0:
192,192,132831,1,0,0:0:0:0:
64,192,133194,1,0,0:0:0:0:
192,192,133195,128,0,134650:0:0:0:0:
448,192,133195,1,0,0:0:0:0:
64,192,133558,1,0,0:0:0:0:
448,192,133559,1,0,0:0:0:0:
448,192,133921,1,0,0:0:0:0:
320,192,134103,1,0,0:0:0:0:
64,192,134103,1,0,0:0:0:0:
64,192,134285,1,0,0:0:0:0:
448,192,134286,1,0,0:0:0:0:
320,192,134467,1,0,0:0:0:0:
448,192,134558,1,0,0:0:0:0:
64,192,134649,1,0,0:0:0:0:
320,192,134649,128,0,135376:0:0:0:0:
448,192,134831,1,0,0:0:0:0:
192,192,135012,1,0,0:0:0:0:
64,192,135012,1,0,0:0:0:0:
64,192,135376,1,0,0:0:0:0:
192,192,135377,1,0,0:0:0:0:
64,192,135558,1,0,0:0:0:0:
320,192,135559,1,0,0:0:0:0:
448,192,135559,1,0,0:0:0:0:
192,192,135740,1,0,0:0:0:0:
64,192,135740,1,0,0:0:0:0:
448,192,135740,128,0,136103:0:0:0:0:
320,192,135921,1,0,0:0:0:0:
192,192,136012,1,0,0:0:0:0:
64,192,136103,1,0,0:0:0:0:
320,192,136103,128,0,136467:0:0:0:0:
192,192,136285,128,0,136467:0:0:0:0:
64,192,136467,128,0,136649:0:0:0:0:
448,192,136467,1,0,0:0:0:0:
192,192,136649,128,0,136831:0:0:0:0:
320,192,136649,1,0,0:0:0:0:
448,192,136650,1,0,0:0:0:0:
320,192,136831,128,0,137013:0:0:0:0:
448,192,137013,128,0,137195:0:0:0:0:
192,192,137013,1,0,0:0:0:0:
64,192,137194,128,0,137558:0:0:0:0:
192,192,137194,1,0,0:0:0:0:
320,192,137195,1,0,0:0:0:0:
192,192,137376,128,0,137558:0:0:0:0:
320,192,137558,1,0,0:0:0:0:
448,192,137559,128,0,137740:0:0:0:0:
320,192,137740,128,0,138285:0:0:0:0:
192,192,137740,1,0,0:0:0:0:
64,192,137740,1,0,0:0:0:0:
64,192,137921,128,0,138103:0:0:0:0:
448,192,138103,128,0,138285:0:0:0:0:
192,192,138285,128,0,139012:0:0:0:0:
64,192,138285,128,0,138467:0:0:0:0:
448,192,138467,128,0,138649:0:0:0:0:
320,192,138649,128,0,138831:0:0:0:0:
448,192,138831,128,0,139012:0:0:0:0:
64,192,139012,128,0,140467:0:0:0:0:
320,192,139012,1,0,0:0:0:0:
192,192,139376,128,0,139558:0:0:0:0:
448,192,139558,128,0,139740:0:0:0:0:
320,192,139740,128,0,139921:0:0:0:0:
448,192,139921,128,0,140103:0:0:0:0:
192,192,140104,128,0,140286:0:0:0:0:
320,192,140285,128,0,140467:0:0:0:0:
448,192,140285,128,0,140467:0:0:0:0:
64,192,140649,128,0,140831:0:0:0:0:
192,192,140649,1,0,0:0:0:0:
448,192,140831,128,0,141194:0:0:0:0:
320,192,140831,1,0,0:0:0:0:
320,192,141012,128,0,141194:0:0:0:0:
64,192,141012,1,0,0:0:0:0:
64,192,141194,128,0,141558:0:0:0:0:
192,192,141194,1,0,0:0:0:0:
192,192,141376,128,0,141558:0:0:0:0:
448,192,141376,1,0,0:0:0:0:
448,192,141558,128,0,141740:0:0:0:0:
320,192,141558,1,0,0:0:0:0:
320,192,141740,1,0,0:0:0:0:
64,192,141740,1,0,0:0:0:0:
192,192,141740,128,0,143376:0:0:0:0:
448,192,141921,1,0,0:0:0:0:
320,192,142103,1,0,0:0:0:0:
64,192,142285,1,0,0:0:0:0:
320,192,142467,1,0,0:0:0:0:
448,192,142649,1,0,0:0:0:0:
64,192,142831,1,0,0:0:0:0:
320,192,142831,1,0,0:0:0:0:
448,192,143012,1,0,0:0:0:0:
64,192,143012,1,0,0:0:0:0:
320,192,143194,1,0,0:0:0:0:
448,192,143194,1,0,0:0:0:0:
320,192,143376,1,0,0:0:0:0:
64,192,143376,1,0,0:0:0:0:
448,192,143740,1,0,0:0:0:0:
192,192,143921,1,0,0:0:0:0:
64,192,144164,1,0,0:0:0:0:
192,192,144346,1,0,0:0:0:0:
320,192,144527,1,0,0:0:0:0:
448,192,144709,1,0,0:0:0:0:
64,192,144891,1,0,0:0:0:0:
320,192,144891,1,0,0:0:0:0:
192,192,145073,1,0,0:0:0:0:
320,192,145255,1,0,0:0:0:0:
448,192,145437,1,0,0:0:0:0:
64,192,145558,1,0,0:0:0:0:
192,192,145603,1,0,0:0:0:0:
320,192,145649,1,0,0:0:0:0:
448,192,145679,128,0,145982:0:0:0:0:
64,192,145982,1,0,0:0:0:0:
320,192,145982,128,0,146224:0:0:0:0:
64,192,146224,128,0,146406:0:0:0:0:
192,192,146224,1,0,0:0:0:0:
448,192,146406,1,0,0:0:0:0:
320,192,146588,1,0,0:0:0:0:
448,192,146770,1,0,0:0:0:0:
64,192,147073,1,0,0:0:0:0:
192,192,147073,1,0,0:0:0:0:
320,192,147740,1,0,0:0:0:0:
192,192,147740,1,0,0:0:0:0:
320,192,148164,1,0,0:0:0:0:
448,192,148164,1,0,0:0:0:0:
64,192,148467,1,0,0:0:0:0:
192,192,148709,1,0,0:0:0:0:
448,192,148921,1,0,0:0:0:0:
320,192,149194,1,0,0:0:0:0:
64,192,149194,128,0,150224:0:0:0:0:
448,192,149437,1,0,0:0:0:0:
192,192,149679,1,0,0:0:0:0:
320,192,149679,1,0,0:0:0:0:
320,192,150224,1,0,0:0:0:0:
448,192,150224,1,0,0:0:0:0:
320,192,150709,1,0,0:0:0:0:
192,192,150831,1,0,0:0:0:0:
320,192,150952,1,0,0:0:0:0:
448,192,151255,128,0,151497:0:0:0:0:
192,192,151527,128,0,151800:0:0:0:0:
64,192,151800,128,0,152406:0:0:0:0:
192,192,152406,1,0,0:0:0:0:
448,192,152406,1,0,0:0:0:0:
320,192,152406,1,0,0:0:0:0:
64,192,152679,1,0,0:0:0:0:
192,192,152952,1,0,0:0:0:0:
320,192,153224,1,0,0:0:0:0:
64,192,153558,1,0,0:0:0:0:
192,192,153861,1,0,0:0:0:0:
448,192,154164,1,0,0:0:0:0:
320,192,154467,1,0,0:0:0:0:
64,192,154709,1,0,0:0:0:0:
192,192,154770,1,0,0:0:0:0:
320,192,154831,1,0,0:0:0:0:
192,192,154891,1,0,0:0:0:0:
64,192,154891,128,0,157012:0:0:0:0:
448,192,154891,128,0,159740:0:0:0:0:
