osu file format v13

[General]
AudioFilename: kokuhaku biyori, desu!.mp3
AudioLeadIn: 1500
PreviewTime: 46491
Countdown: 0
SampleSet: Soft
StackLeniency: 0.7
Mode: 0
LetterboxInBreaks: 0
WidescreenStoryboard: 0

[Editor]
DistanceSpacing: 1.7
BeatDivisor: 4
GridSize: 32
TimelineZoom: 3.099999

[Metadata]
Title:Kokuhaku Biyori, desu!
TitleUnicode:告白日和、です!
Artist:Uchida Aya & Kubo Yurika
ArtistUnicode:内田彩 & 久保ユリカ
Creator:Sakaue Nachi
Version:Insane
Source:Love Live! School idol project
Tags:ラブライブ! µ's Minami Kotori Koizumi Hanayo 南ことり 小泉花陽 [CSGA]Ar3sgice Mei Kawaiwkyik
BeatmapID:531100
BeatmapSetID:227994

[Difficulty]
HPDrainRate:6.5
CircleSize:4
OverallDifficulty:8
ApproachRate:9
SliderMultiplier:1.8
SliderTickRate:1

[Events]
//Background and Video events
0,0,"BG.jpg",0,0
//Break Periods
//Storyboard Layer 0 (Background)
//Storyboard Layer 1 (Fail)
//Storyboard Layer 2 (Pass)
//Storyboard Layer 3 (Foreground)
//Storyboard Sound Samples
//Background Colour Transformations
3,100,163,162,255

[TimingPoints]
445,348.837209302326,4,2,1,40,1,0
445,-125,4,2,1,40,0,0
5503,-100,4,2,1,70,0,0
34195,-125,4,2,1,40,0,0
38729,-125,4,2,1,60,0,0
39514,-100,4,2,1,70,0,0
45619,-100,4,2,1,75,0,0
45968,-100,4,2,1,70,0,0
46142,-100,4,2,1,75,0,0
46491,-90.9090909090909,4,2,1,80,0,1
68032,-90.9090909090909,4,2,1,60,0,1
68817,-90.9090909090909,4,2,1,70,0,0
70212,-100,4,2,1,70,0,0
88351,-100,4,2,1,40,0,0
88700,-100,4,2,1,45,0,0
89049,-100,4,2,1,50,0,0
89398,-100,4,2,1,55,0,0
89747,-100,4,2,1,65,0,0
90619,-83.3333333333333,4,2,1,65,0,0

[Colours]
Combo1 : 159,133,181
Combo2 : 37,218,200
Combo3 : 236,186,51
Combo4 : 52,203,90

[HitObjects]
248,357,445,6,0,P|312:331|367:373,1,144,2|0,0:0|0:0,0:0:0:0:
444,218,1142,2,0,L|454:136,1,72,2|0,0:0|0:0,0:0:0:0:
326,117,1491,2,0,L|334:221,1,72,2|0,0:0|0:0,0:0:0:0:
383,63,1840,6,0,P|318:38|260:75,1,144,2|0,0:0|0:0,0:0:0:0:
171,235,2538,2,0,P|164:206|163:164,1,72,2|0,0:0|0:0,0:0:0:0:
315,195,2886,2,0,L|240:185,1,72,2|0,0:0|0:0,0:0:0:0:
457,214,3235,6,0,L|315:195,1,144,2|0,0:0|0:0,0:0:0:0:
39,110,3933,2,0,L|123:94,1,72,2|0,0:0|0:0,0:0:0:0:
227,152,4282,2,0,L|156:167,1,72,2|0,0:0|0:0,0:0:0:0:
69,195,4631,6,0,P|28:252|44:346,1,144,2|0,0:0|0:0,0:0:0:0:
379,267,5328,5,2,0:0:0:0:
321,129,5503,1,0,0:0:0:0:
321,129,5590,1,0,0:0:0:0:
321,129,5677,1,8,0:0:0:0:
179,202,5851,1,0,0:0:0:0:
179,202,5939,1,0,0:0:0:0:
179,202,6026,6,0,L|191:321,1,90,4|0,0:0|0:0,0:0:0:0:
321,129,6375,2,0,L|335:38,1,90,8|0,0:0|0:0,0:0:0:0:
334,40,6724,1,0,0:0:0:0:
301,243,6898,1,0,0:0:0:0:
178,123,7072,1,8,0:0:0:0:
236,293,7247,6,0,P|308:325|381:256,1,180,4|0,0:0|0:0,0:0:0:0:
412,78,7770,1,8,0:0:0:0:
301,243,7945,2,0,L|296:153,1,90,0|0,0:0|0:0,0:0:0:0:
142,256,8293,1,0,0:0:0:0:
178,123,8468,1,8,0:0:0:0:
55,288,8642,1,0,0:0:0:0:
85,111,8817,6,0,P|119:51|245:56,1,180,4|8,0:0|0:0,0:0:0:0:
320,152,9340,1,0,0:0:0:0:
186,212,9514,2,0,P|178:161|179:115,1,90
323,73,9863,1,8,0:0:0:0:
399,205,10038,1,8,0:0:0:0:
405,226,10125,1,8,0:0:0:0:
412,247,10212,5,4,0:0:0:0:
323,73,10386,2,0,L|353:29,2,45,2|2|10,0:0|0:0|0:0,0:0:0:0:
209,202,10735,2,0,P|156:187|68:206,1,135,2|0,0:0|0:0,0:0:0:0:
14,234,11084,1,2,0:0:0:0:
90,118,11258,1,10,0:0:0:0:
177,295,11433,1,2,0:0:0:0:
268,132,11607,6,0,L|164:115,1,90,4|0,0:0|0:0,0:0:0:0:
25,213,11956,1,8,0:0:0:0:
177,295,12131,1,0,0:0:0:0:
108,118,12305,2,0,L|99:222,1,90,0|0,0:0|0:0,0:0:0:0:
270,304,12654,1,8,0:0:0:0:
270,304,12828,1,0,0:0:0:0:
351,172,13003,6,0,P|309:187|276:217,1,90,0|0,0:0|0:0,0:0:0:0:
360,328,13351,1,8,0:0:0:0:
421,130,13526,1,0,0:0:0:0:
275,217,13700,2,0,L|281:127,1,90
138,200,14049,1,8,0:0:0:0:
281,127,14224,1,0,0:0:0:0:
170,308,14398,6,0,B|240:298|240:298|298:311|298:311|349:303,1,180,0|8,0:0|0:0,0:0:0:0:
255,376,14921,1,0,0:0:0:0:
355,215,15096,2,0,L|362:116,1,90,0|0,0:0|0:0,0:0:0:0:
258,52,15445,1,8,0:0:0:0:
138,200,15619,1,0,0:0:0:0:
181,88,15793,5,2,0:0:0:0:
226,239,15968,1,0,0:0:0:0:
105,124,16142,1,8,0:0:0:0:
251,317,16317,2,0,P|305:249|272:170,1,180,2|0,0:0|0:0,0:0:0:0:
181,88,16840,1,8,0:0:0:0:
367,18,17014,1,0,0:0:0:0:
273,170,17189,6,0,L|394:158,1,90,4|0,0:0|0:0,0:0:0:0:
458,73,17538,1,8,0:0:0:0:
409,308,17712,1,0,0:0:0:0:
409,308,17886,2,0,L|418:208,1,90
299,321,18235,1,8,0:0:0:0:
388,147,18410,1,0,0:0:0:0:
228,285,18584,5,4,0:0:0:0:
350,221,18758,1,0,0:0:0:0:
160,244,18933,1,8,0:0:0:0:
409,308,19107,1,4,0:0:0:0:
409,308,19456,1,0,0:0:0:0:
255,361,19631,1,8,0:0:0:0:
214,189,19805,1,0,0:0:0:0:
123,316,19979,5,4,0:0:0:0:
131,164,20154,1,0,0:0:0:0:
228,285,20328,1,8,0:0:0:0:
131,164,20503,2,0,P|133:80|228:43,1,180
345,72,21026,1,8,0:0:0:0:
222,258,21200,1,8,0:0:0:0:
222,258,21288,1,8,0:0:0:0:
222,258,21375,6,0,P|213:178|202:110,1,135,4|0,0:0|0:0,0:0:0:0:
178,54,21724,1,8,0:0:0:0:
25,261,21898,1,4,0:0:0:0:
25,261,22247,1,8,0:0:0:0:
85,138,22421,1,8,0:0:0:0:
222,258,22596,1,8,0:0:0:0:
397,176,22770,6,0,P|387:90|305:44,1,180,4|8,0:0|0:0,0:0:0:0:
176,148,23293,1,0,0:0:0:0:
302,266,23468,2,0,P|314:222|315:177,1,90,0|0,0:0|0:0,0:0:0:0:
218,46,23817,1,8,0:0:0:0:
315,177,23991,1,0,0:0:0:0:
128,145,24165,6,0,P|82:144|39:154,1,90,0|0,0:0|0:0,0:0:0:0:
122,273,24514,1,8,0:0:0:0:
223,135,24689,2,0,P|224:90|218:46,1,90,0|0,0:0|0:0,0:0:0:0:
97,9,25037,1,2,0:0:0:0:
223,135,25212,1,10,0:0:0:0:
83,243,25386,1,2,0:0:0:0:
324,109,25561,6,0,P|388:135|445:231,1,180,2|8,0:0|0:0,0:0:0:0:
224,197,26084,2,0,P|180:195|136:203,1,90,2|0,0:0|0:0,0:0:0:0:
34,242,26433,1,0,0:0:0:0:
191,99,26607,1,8,0:0:0:0:
211,273,26782,1,0,0:0:0:0:
32,164,26956,6,0,P|25:77|94:22,1,180,4|8,0:0|0:0,0:0:0:0:
138,289,27479,2,0,P|99:269|76:231,1,90
154,46,27828,1,2,0:0:0:0:
212,182,28003,1,8,0:0:0:0:
62,93,28177,1,0,0:0:0:0:
234,263,28351,6,0,P|292:199|265:117,1,180,4|8,0:0|0:0,0:0:0:0:
87,220,28875,1,0,0:0:0:0:
87,220,29049,2,0,P|43:222|0:235,1,90,2|0,0:0|0:0,0:0:0:0:
163,323,29397,1,8,0:0:0:0:
267,93,29572,1,0,0:0:0:0:
336,290,29747,6,0,P|445:310|487:237,1,180,4|8,0:0|0:0,0:0:0:0:
420,47,30270,1,2,0:0:0:0:
301,177,30445,1,0,0:0:0:0:
266,34,30619,1,0,0:0:0:0:
241,237,30793,1,8,0:0:0:0:
241,237,30881,1,8,0:0:0:0:
241,237,30968,1,8,0:0:0:0:
171,120,31142,6,0,P|128:110|83:110,1,90,4|0,0:0|0:0,0:0:0:0:
266,34,31491,1,8,0:0:0:0:
242,260,31665,1,4,0:0:0:0:
242,284,32014,5,2,0:0:0:0:
106,174,32189,1,8,0:0:0:0:
106,174,32363,2,0,P|92:109|121:50,1,135,4|0,0:0|0:0,0:0:0:0:
185,15,32712,5,2,0:0:0:0:
352,192,32886,1,8,0:0:0:0:
150,260,33061,1,2,0:0:0:0:
329,154,33235,1,8,0:0:0:0:
329,154,33322,1,8,0:0:0:0:
329,154,33410,1,0,0:0:0:0:
146,93,33584,1,8,0:0:0:0:
317,32,33758,1,8,0:0:0:0:
317,32,33846,1,8,0:0:0:0:
317,32,33933,6,0,P|315:78|309:121,1,90,4|0,0:0|0:0,0:0:0:0:
422,108,34282,1,2,0:1:0:0:
333,228,34456,1,0,0:0:0:0:
239,133,34631,2,0,L|335:118,1,72,8|0,0:0|0:0,0:0:0:0:
427,36,34979,2,0,L|421:119,1,72,2|0,0:1|0:0,0:0:0:0:
469,211,35328,6,0,P|410:200|328:233,1,144,2|2,0:0|0:1,0:0:0:0:
251,314,35851,1,2,0:0:0:0:
236,199,36026,2,0,L|228:116,1,72,8|0,0:0|0:0,0:0:0:0:
135,46,36375,2,0,L|142:128,1,72,2|0,0:1|0:0,0:0:0:0:
82,254,36724,6,0,P|47:242|11:239,1,72,2|0,0:0|0:0,0:0:0:0:
49,343,37072,1,2,0:1:0:0:
188,278,37247,1,0,0:0:0:0:
188,278,37421,2,0,L|199:189,1,72,8|0,0:0|0:0,0:0:0:0:
298,200,37770,2,0,L|309:111,1,72,2|0,0:1|0:0,0:0:0:0:
143,149,38119,6,0,B|105:125|105:125|49:120|0:167,1,144,2|2,0:0|0:1,0:0:0:0:
116,311,38642,1,2,0:0:0:0:
298,200,38817,2,0,P|295:157|289:129,1,72,10|2,0:0|0:0,0:0:0:0:
188,278,39165,1,10,0:0:0:0:
324,61,39340,1,2,0:0:0:0:
418,272,39514,5,4,0:0:0:0:
238,238,39689,1,0,0:0:0:0:
381,170,39863,1,8,0:0:0:0:
201,136,40038,1,0,0:0:0:0:
309,68,40212,5,0,0:0:0:0:
129,102,40387,1,0,0:0:0:0:
272,170,40561,1,8,0:0:0:0:
92,204,40736,1,0,0:0:0:0:
217,100,40910,5,4,0:0:0:0:
238,284,41084,1,0,0:0:0:0:
92,204,41258,1,8,0:0:0:0:
272,170,41433,1,0,0:0:0:0:
138,296,41607,5,0,0:0:0:0:
330,324,41782,1,0,0:0:0:0:
92,204,41956,1,8,0:0:0:0:
368,147,42131,1,0,0:0:0:0:
242,371,42305,6,0,P|232:328|238:284,1,90,4|0,0:0|0:0,0:0:0:0:
435,98,42654,2,0,P|445:137|439:188,1,90,8|0,0:0|0:0,0:0:0:0:
159,277,43003,2,0,P|149:234|155:190,1,90,8|0,0:0|0:0,0:0:0:0:
508,47,43352,2,0,P|518:86|512:137,1,90,8|0,0:0|0:0,0:0:0:0:
368,251,43700,5,8,0:0:0:0:
327,79,43875,1,0,0:0:0:0:
254,253,44049,1,8,0:0:0:0:
390,154,44224,1,0,0:0:0:0:
390,154,44311,1,0,0:0:0:0:
390,154,44398,1,8,0:0:0:0:
430,304,44572,1,8,0:0:0:0:
231,177,44747,5,8,0:0:0:0:
449,225,44921,1,8,0:0:0:0:
449,225,45008,1,0,0:0:0:0:
449,225,45096,1,4,0:0:0:0:
265,336,45270,1,0,0:0:0:0:
265,336,45357,1,0,0:0:0:0:
265,336,45445,1,8,0:0:0:0:
310,161,45619,1,4,0:0:0:0:
310,161,45968,5,8,0:0:0:0:
465,75,46142,1,8,0:0:0:0:
483,110,46229,1,8,0:0:0:0:
486,151,46317,1,8,0:0:0:0:
474,189,46404,1,8,0:0:0:0:
449,225,46491,6,0,P|434:271|442:319,1,99.0000030212403,4|0,0:0|0:0,0:0:0:0:
310,161,46840,2,0,P|317:104|305:66,1,99.0000030212403,8|0,0:0|0:0,0:0:0:0:
213,296,47189,1,0,0:0:0:0:
411,143,47363,1,0,0:0:0:0:
360,291,47538,1,8,0:0:0:0:
327,46,47712,1,0,0:0:0:0:
213,296,47886,6,0,P|134:216|181:126,1,198.000006042481,4|8,0:0|0:0,0:0:0:0:
258,80,48410,1,0,0:0:0:0:
213,296,48584,1,0,0:0:0:0:
361,122,48758,1,0,0:0:0:0:
236,183,48933,1,8,0:0:0:0:
474,248,49107,1,0,0:0:0:0:
258,80,49282,6,0,L|246:277,1,198.000006042481,4|8,0:0|0:0,0:0:0:0:
369,360,49805,1,0,0:0:0:0:
406,167,49979,1,0,0:0:0:0:
289,287,50154,1,0,0:0:0:0:
474,248,50328,1,8,0:0:0:0:
347,85,50503,1,0,0:0:0:0:
369,360,50677,6,0,P|375:260|363:150,1,198.000006042481,4|8,0:0|0:0,0:0:0:0:
289,287,51200,2,0,P|189:231|117:300,1,198.000006042481,4|0,0:0|0:0,0:0:0:0:
292,365,51724,1,8,0:0:0:0:
421,189,51898,1,0,0:0:0:0:
238,91,52072,6,0,L|226:189,1,99.0000030212403,0|0,0:0|0:0,0:0:0:0:
368,51,52421,2,0,P|413:53|477:68,1,99.0000030212403,8|0,0:0|0:0,0:0:0:0:
159,275,52770,2,0,P|112:280|51:272,1,99.0000030212403,0|0,0:0|0:0,0:0:0:0:
322,229,53119,1,8,0:0:0:0:
147,159,53293,1,0,0:0:0:0:
322,229,53468,6,0,L|438:219,1,99.0000030212403,4|0,0:0|0:0,0:0:0:0:
497,116,53817,1,8,0:0:0:0:
347,324,53991,2,0,P|251:296|232:187,1,198.000006042481,4|0,0:0|0:0,0:0:0:0:
245,76,54514,1,8,0:0:0:0:
422,128,54689,1,0,0:0:0:0:
322,229,54863,5,4,0:0:0:0:
400,29,55038,1,0,0:0:0:0:
463,296,55212,2,0,L|471:184,1,99.0000030212403,8|0,0:0|0:0,0:0:0:0:
269,294,55561,1,0,0:0:0:0:
422,128,55735,1,0,0:0:0:0:
172,40,55910,2,0,P|138:74|126:122,1,99.0000030212403,8|0,0:0|0:0,0:0:0:0:
341,132,56258,2,0,P|247:98|179:127,1,148.50000453186,4|0,0:0|0:0,0:0:0:0:
136,171,56607,1,8,0:0:0:0:
136,171,56782,6,0,L|127:123,1,49.5000015106202,8|0,0:0|0:0,0:0:0:0:
87,120,56956,1,8,0:0:0:0:
54,142,57043,1,0,0:0:0:0:
40,179,57131,1,8,0:0:0:0:
49,217,57218,1,0,0:0:0:0:
72,248,57305,1,8,0:0:0:0:
108,262,57392,1,8,0:0:0:0:
147,264,57479,1,8,0:0:0:0:
186,256,57567,1,8,0:0:0:0:
221,238,57654,6,0,P|275:222|341:228,1,99.0000030212403,4|0,0:0|0:0,0:0:0:0:
501,326,58003,2,0,L|494:227,1,99.0000030212403,8|0,0:0|0:0,0:0:0:0:
383,122,58351,1,0,0:0:0:0:
221,238,58526,1,0,0:0:0:0:
393,318,58700,1,8,0:0:0:0:
314,40,58875,1,0,0:0:0:0:
293,345,59049,6,0,L|306:147,1,198.000006042481,4|8,0:0|0:0,0:0:0:0:
400,31,59572,1,0,0:0:0:0:
420,209,59747,1,0,0:0:0:0:
249,89,59921,1,0,0:0:0:0:
306,269,60096,1,8,0:0:0:0:
477,69,60270,1,0,0:0:0:0:
224,244,60445,6,0,P|186:159|249:89,1,198.000006042481,4|8,0:0|0:0,0:0:0:0:
463,246,60968,1,0,0:0:0:0:
398,91,61142,1,0,0:0:0:0:
274,174,61316,1,0,0:0:0:0:
331,46,61491,1,8,0:0:0:0:
367,268,61665,1,0,0:0:0:0:
249,89,61840,6,0,P|154:87|110:170,1,198.000006042481,4|8,0:0|0:0,2:0:0:0:
232,351,62363,1,0,0:0:0:0:
232,351,62538,2,0,P|291:355|361:299,1,148.50000453186,0|0,0:0|0:0,0:0:0:0:
402,258,62886,2,0,P|393:303|397:358,1,99.0000030212403,8|0,0:0|0:0,0:0:0:0:
369,127,63235,6,0,P|299:72|201:111,1,198.000006042481,4|8,0:0|0:0,0:0:0:0:
277,263,63758,1,0,0:0:0:0:
277,263,63933,2,0,P|287:215|280:165,1,99.0000030212403,0|0,0:0|0:0,0:0:0:0:
214,47,64282,1,8,0:0:0:0:
193,233,64456,1,0,0:0:0:0:
402,203,64631,6,0,P|400:116|295:73,1,198.000006042481,4|8,0:0|0:0,0:0:0:0:
364,289,65154,1,0,0:0:0:0:
364,289,65328,2,0,P|413:289|459:272,1,99.0000030212403,0|0,0:0|0:0,0:0:0:0:
321,161,65677,1,8,0:0:0:0:
271,321,65851,1,0,0:0:0:0:
43,257,66026,5,4,0:0:0:0:
161,86,66200,1,0,0:0:0:0:
189,274,66375,1,10,0:0:0:0:
154,75,66549,1,0,0:0:0:0:
328,184,66724,1,10,0:0:0:0:
147,66,66898,1,0,0:0:0:0:
64,274,67072,2,0,L|170:253,1,99.0000030212403,10|0,0:0|0:0,0:0:0:0:
189,274,67334,1,0,0:0:0:0:
216,294,67421,6,0,L|313:274,1,99.0000030212403,4|0,0:0|0:0,0:0:0:0:
472,210,67770,2,0,P|447:145|377:143,1,148.50000453186,8|8,0:0|0:0,0:0:0:0:
414,61,68119,2,0,L|434:16,2,49.5000015106202,8|8|8,0:0|0:0|0:0,0:0:0:0:
399,263,68468,1,8,0:0:0:0:
253,168,68642,1,8,0:0:0:0:
216,182,68729,1,8,0:0:0:0:
189,211,68817,6,0,P|194:288|94:362,1,198.000006042481,4|8,0:0|0:0,0:0:0:0:
18,322,69253,1,0,0:0:0:0:
18,322,69340,2,0,L|-10:390,1,49.5000015106202
91,253,69514,2,0,P|99:216|86:156,1,99.0000030212403,4|0,0:0|0:0,0:0:0:0:
263,254,69863,1,8,0:0:0:0:
263,254,70038,1,0,0:0:0:0:
352,132,70212,5,0,0:0:0:0:
189,211,70386,1,0,0:0:0:0:
348,308,70561,1,8,0:0:0:0:
352,132,70735,1,0,0:0:0:0:
218,193,70910,1,0,0:0:0:0:
444,260,71084,1,0,0:0:0:0:
352,36,71258,1,8,0:0:0:0:
265,354,71433,1,0,0:0:0:0:
265,354,71520,1,0,0:0:0:0:
265,354,71607,6,0,P|245:262|255:167,1,180,4|8,0:0|0:0,0:0:0:0:
389,104,72131,1,0,0:0:0:0:
350,217,72305,1,0,0:0:0:0:
267,55,72479,1,0,0:0:0:0:
350,217,72654,1,8,0:0:0:0:
421,13,72828,6,0,P|479:78|462:164,1,180,4|0,0:0|0:0,0:0:0:0:
339,307,73351,2,0,L|350:217,1,90,8|0,0:0|0:0,0:0:0:0:
176,100,73700,2,0,L|186:190,1,90
78,67,74049,1,8,0:0:0:0:
160,282,74224,6,0,P|245:266|281:187,1,180,4|0,0:0|0:0,0:0:0:0:
319,26,74747,2,0,P|357:69|377:120,1,90,8|0,0:0|0:0,0:0:0:0:
325,227,75096,1,0,0:0:0:0:
192,191,75270,1,0,0:0:0:0:
302,364,75445,1,8,0:0:0:0:
192,191,75619,6,0,P|208:103|244:7,1,180,4|0,0:0|0:0,0:0:0:0:
342,132,76142,1,8,0:0:0:0:
172,291,76317,2,0,P|83:273|0:242,1,180,4|0,0:0|0:0,0:0:0:0:
137,124,76840,1,8,0:0:0:0:
263,306,77014,2,0,P|351:324|426:265,1,180,4|0,0:0|0:0,0:0:0:0:
342,132,77538,6,0,P|335:177|332:222,1,90,8|0,0:0|0:0,0:0:0:0:
427,107,77886,1,0,0:0:0:0:
512,212,78061,1,0,0:0:0:0:
420,20,78235,1,8,0:0:0:0:
332,222,78410,6,0,P|244:222|183:159,1,180,4|0,0:0|0:0,0:0:0:0:
161,33,78933,1,8,0:0:0:0:
81,188,79107,1,8,0:0:0:0:
66,221,79195,1,8,0:0:0:0:
62,256,79282,1,8,0:0:0:0:
212,114,79456,1,8,0:0:0:0:
246,104,79543,1,0,0:0:0:0:
282,102,79631,1,8,0:0:0:0:
317,110,79718,1,8,0:0:0:0:
349,126,79805,1,8,0:0:0:0:
377,149,79892,1,8,0:0:0:0:
397,178,79979,6,0,P|402:134|419:78,1,90,4|0,0:0|0:0,0:0:0:0:
365,302,80328,2,0,P|284:335|212:287,1,180,8|0,0:0|0:0,0:0:0:0:
181,132,80851,1,0,0:0:0:0:
351,71,81026,1,8,0:0:0:0:
140,210,81200,6,0,P|234:212|359:228,1,180,4|0,0:0|0:0,0:0:0:0:
31,213,81724,2,0,P|19:255|15:301,1,90,8|0,0:0|0:0,0:0:0:0:
87,137,82072,1,0,0:0:0:0:
183,285,82247,1,0,0:0:0:0:
264,111,82421,1,8,0:0:0:0:
372,317,82596,1,0,0:0:0:0:
372,317,82683,1,0,0:0:0:0:
372,317,82770,6,0,P|416:313|461:307,1,90,4|0,0:0|0:0,0:0:0:0:
302,190,83119,1,8,0:0:0:0:
442,85,83293,1,0,0:0:0:0:
302,190,83468,2,0,P|293:235|291:280,1,90
179,343,83817,1,8,0:0:0:0:
109,131,83991,1,4,0:0:0:0:
109,131,84165,5,0,0:0:0:0:
302,190,84340,1,0,0:0:0:0:
204,246,84514,1,8,0:0:0:0:
339,83,84689,1,4,0:0:0:0:
354,313,84863,1,0,0:0:0:0:
217,157,85038,1,0,0:0:0:0:
217,157,85125,1,0,0:0:0:0:
217,157,85212,1,8,0:0:0:0:
432,36,85386,6,0,P|444:129|422:232,1,180,4|0,0:0|0:0,0:0:0:0:
284,356,85910,1,8,0:0:0:0:
254,263,86084,1,0,0:0:0:0:
190,336,86258,1,8,0:0:0:0:
158,243,86433,1,0,0:0:0:0:
99,320,86607,1,8,0:0:0:0:
63,228,86782,1,0,0:0:0:0:
116,61,86956,5,8,0:0:0:0:
186,129,87131,1,0,0:0:0:0:
209,35,87305,1,8,0:0:0:0:
280,102,87479,1,0,0:0:0:0:
297,6,87654,1,8,0:0:0:0:
372,71,87828,1,0,0:0:0:0:
372,71,87915,1,0,0:0:0:0:
372,71,88003,1,8,0:0:0:0:
343,221,88177,2,0,L|249:198,2,90,4|8|8,0:0|0:0|0:0,0:0:0:0:
124,268,88700,5,8,0:0:0:0:
124,268,88875,1,8,0:0:0:0:
132,88,89049,1,8,0:0:0:0:
132,88,89224,1,8,0:0:0:0:
301,29,89398,1,8,0:0:0:0:
301,29,89572,1,8,0:0:0:0:
448,132,89747,5,4,0:0:0:0:
213,294,89921,1,4,0:0:0:0:
213,294,90096,1,8,0:0:0:0:
374,342,90270,1,0,0:0:0:0:
135,368,90445,2,0,L|112:349,3,30,0|0|0|0,0:0|0:0|0:0|0:0,0:0:0:0:
316,252,90793,1,8,0:0:0:0:
144,121,90968,1,4,0:0:0:0:
256,192,91055,12,2,93933,0:0:0:0:
