osu file format v12

[General]
AudioFilename: kokuhaku biyori, desu!.mp3
AudioLeadIn: 2000
PreviewTime: 159689
Countdown: 0
SampleSet: Soft
StackLeniency: 0.6
Mode: 0
LetterboxInBreaks: 1

[Editor]
DistanceSpacing: 1
BeatDivisor: 4
GridSize: 4

[Metadata]
Title:Kokuhaku Biyori, desu!
TitleUnicode:告白日和、です!
Artist:Uchida Aya & Kubo Yurika
ArtistUnicode:内田彩 & 久保ユリカ
Creator:Rare
Version:Normal
Source:Love Live! School idol project
Tags:µ's Album Best Live! collection Disc 2 Minami Kotori Koizumi Hanayo
BeatmapID:232125
BeatmapSetID:83754

[Difficulty]
HPDrainRate:4
CircleSize:3
OverallDifficulty:4
ApproachRate:5
SliderMultiplier:1
SliderTickRate:1

[Events]
//Background and Video events
0,0,"moe!!!.jpg",0,0
//Break Periods
2,6401,10582
2,71633,73373
2,134599,147326
//Storyboard Layer 0 (Background)
//Storyboard Layer 1 (Fail)
//Storyboard Layer 2 (Pass)
//Storyboard Layer 3 (Foreground)
//Storyboard Sound Samples
//Background Colour Transformations
3,100,163,162,255

[TimingPoints]
620,348.837209302326,4,2,1,70,1,0
46666,-100,4,2,1,80,0,1
49806,-100,4,2,3,70,0,1
50154,-100,4,2,1,80,0,1
68992,-100,4,2,1,70,0,0
91666,-100,4,2,3,60,0,0
92015,-100,4,2,1,70,0,0
109457,-100,4,2,1,80,0,1
123759,-100,4,2,3,70,0,1
124108,-100,4,2,1,80,0,1
125154,-100,4,2,3,70,0,1
125503,-100,4,2,1,80,0,1
131782,-100,4,2,1,70,0,0
162480,-100,4,2,1,80,0,1
178178,-100,4,2,3,70,0,1
178526,-100,4,2,1,80,0,1
182364,-100,4,1,1,60,0,1
184806,-100,4,2,1,70,0,0
212625,-100,4,2,1,5,0,0

[Colours]
Combo1 : 255,150,0
Combo2 : 0,128,255
Combo3 : 255,128,128
Combo4 : 196,196,136

[HitObjects]
220,320,620,2,0,P|168:340|108:324,1,100,2|0,0:0|0:0,0:0:0:0:
40,280,1317,2,0,L|32:180,1,100,0|0,0:0|0:0,0:0:0:0:
24,80,2015,2,0,P|64:108|120:108,1,100,2|0,0:0|0:0,0:0:0:0:
208,80,2713,6,0,L|316:72,1,100,0|0,0:0|0:0,0:0:0:0:
368,152,3410,2,0,L|260:160,1,100,2|0,0:0|0:0,0:0:0:0:
168,172,4108,2,0,P|152:220|164:272,1,100
224,344,4806,1,2,0:0:0:0:
324,360,5154,2,0,P|412:372|480:292,1,200,0|8,0:0|0:0,0:0:0:0:
476,196,6201,1,4,0:0:0:0:
252,56,11782,5,4,0:0:0:0:
188,132,12131,2,0,P|112:156|88:148,1,100,8|0,0:0|0:0,0:0:0:0:
12,96,12829,2,0,L|16:204,1,100,8|0,0:0|0:0,0:0:0:0:
32,296,13526,1,8,0:0:0:0:
104,364,13875,2,0,P|156:372|204:352,1,100,0|8,0:0|0:0,0:0:0:0:
264,280,14573,5,0,0:0:0:0:
348,332,14922,1,8,0:0:0:0:
444,312,15271,2,0,L|468:208,1,100,0|8,0:0|0:0,0:0:0:0:
492,116,15968,1,0,0:0:0:0:
404,160,16317,2,0,L|352:160,1,50,8|0,0:0|0:0,0:0:0:0:
292,80,16840,2,0,L|240:80,1,50,0|8,0:0|0:0,0:0:0:0:
144,96,17364,5,4,0:0:0:0:
52,136,17713,2,0,L|62:235,1,100,8|0,0:0|0:0,0:0:0:0:
56,336,18410,1,8,0:0:0:0:
144,292,18759,2,0,P|188:276|240:280,1,100,4|8,0:0|0:0,0:0:0:0:
276,316,19282,2,0,P|340:344|412:304,1,150,4|8,0:0|0:0,0:0:0:0:
432,212,20154,5,4,0:0:0:0:
364,140,20503,2,0,L|372:36,2,100,8|0|8,0:0|0:0|0:0,0:0:0:0:
344,240,21550,2,0,P|293:235|253:203,1,100,4|8,0:0|0:0,0:0:0:0:
232,160,22073,2,0,P|144:132|88:160,1,150,4|8,0:0|0:0,0:0:0:0:
4,192,22945,6,0,P|36:232|96:240,1,100,4|8,0:0|0:0,0:0:0:0:
172,288,23643,2,0,L|280:288,2,100,0|8|0,0:0|0:0|0:0,0:0:0:0:
72,284,24689,2,0,P|60:236|72:184,1,100,8|0,0:0|0:0,0:0:0:0:
156,136,25387,1,8,0:0:0:0:
156,236,25736,6,0,P|204:256|256:244,1,100,0|8,0:0|0:0,0:0:0:0:
328,188,26433,2,0,L|336:88,1,100,0|8,0:0|0:0,0:0:0:0:
432,64,27131,2,0,L|424:164,1,100,0|8,0:0|0:0,0:0:0:0:
420,212,27654,1,0,0:0:0:0:
328,188,28003,2,0,L|320:248,1,50,0|8,0:0|0:0,0:0:0:0:
300,336,28526,6,0,P|252:352|200:344,1,100,4|8,0:0|0:0,0:0:0:0:
128,280,29224,2,0,P|84:264|24:280,2,100,0|8|0,0:0|0:0|0:0,0:0:0:0:
192,356,30271,2,0,P|232:292|196:212,1,150,8|0,0:0|0:0,0:0:0:0:
180,188,30968,1,8,0:0:0:0:
128,104,31317,5,4,0:0:0:0:
228,100,31666,2,0,L|280:100,1,50,8|0,0:0|0:0,0:0:0:0:
364,48,32189,2,0,L|416:48,1,50,0|8,0:0|0:0,0:0:0:0:
464,52,32538,2,0,P|484:112|440:184,1,150,4|8,0:0|0:0,0:0:0:0:
372,256,33410,2,0,L|268:256,1,100,0|8,0:0|0:0,0:0:0:0:
220,340,34108,6,0,P|176:292|192:212,1,150,4|0,0:0|0:0,0:0:0:0:
220,176,34806,2,0,P|180:144|124:144,1,100,8|0,0:0|0:0,0:0:0:0:
144,240,35503,2,0,L|40:240,2,100,0|0|8,0:0|0:0|0:0,0:0:0:0:
244,244,36550,1,0,0:0:0:0:
312,316,36899,6,0,P|356:244|328:184,1,150,2|0,0:0|0:0,0:0:0:0:
308,144,37596,2,0,P|352:116|400:116,1,100,8|0,0:0|0:0,0:0:0:0:
476,176,38294,2,0,L|476:276,2,100,0|0|8,0:0|0:0|0:0,0:0:0:0:
480,76,39340,1,0,0:0:0:0:
392,124,39689,6,0,P|344:132|292:116,1,100,4|8,0:0|0:0,0:0:0:0:
204,76,40387,2,0,L|100:76,1,100,0|8,0:0|0:0,0:0:0:0:
100,176,41085,2,0,P|52:188|-4:176,2,100,0|8|0,0:0|0:0|0:0,0:0:0:0:
196,144,42131,1,8,0:0:0:0:
268,212,42480,5,4,0:0:0:0:
364,180,42829,2,0,P|412:168|460:176,2,100,8|8|8,0:0|0:0|0:0,0:0:0:0:
256,192,43875,12,4,45271,0:0:0:0:
204,284,45794,6,0,P|276:300|336:252,1,150,0|8,0:0|0:0,0:0:0:0:
320,160,46666,5,4,0:0:0:0:
408,204,47015,2,8,P|424:252|408:308,2,100,8|0|8,0:0|0:0|0:0,0:0:0:0:
324,256,48061,2,0,L|220:256,1,100,0|8,0:0|0:0,0:0:0:0:
124,256,48759,2,0,P|108:212|120:160,1,100,0|8,0:0|0:0,0:0:0:0:
216,132,49457,6,0,P|144:144|88:96,1,150
76,48,50154,1,0,0:0:0:0:
176,44,50503,2,0,L|232:36,1,50,8|0,0:0|0:0,0:0:0:0:
272,52,50852,6,0,L|376:40,1,100,4|8,0:0|0:0,0:0:0:0:
420,32,51375,2,0,P|448:72|440:136,1,100,4|0,0:0|0:0,0:0:0:0:
428,168,51899,1,8,0:0:0:0:
428,268,52247,6,0,P|376:264|340:224,1,100,0|8,0:0|0:0,0:0:0:0:
304,140,52945,2,0,L|200:140,1,100,0|8,0:0|0:0,0:0:0:0:
104,140,53643,1,4,0:0:0:0:
12,176,53992,1,8,0:0:0:0:
12,176,54166,2,0,P|44:228|136:228,1,150,4|8,0:0|0:0,0:0:0:0:
196,164,55038,5,4,0:0:0:0:
260,240,55387,2,0,P|292:200|292:144,2,100,8|0|8,0:0|0:0|0:0,0:0:0:0:
180,296,56433,2,0,P|219:328|276:328,1,100,4|8,0:0|0:0,0:0:0:0:
364,312,57131,2,0,L|464:312,1,100,0|8,0:0|0:0,0:0:0:0:
508,224,57829,5,4,0:0:0:0:
416,188,58178,2,0,P|392:144|396:92,1,100,8|0,0:0|0:0,0:0:0:0:
460,20,58875,1,8,0:0:0:0:
356,20,59224,2,0,L|252:20,1,100,0|8,0:0|0:0,0:0:0:0:
212,112,59922,2,0,L|108:112,1,100,0|8,0:0|0:0,0:0:0:0:
12,112,60620,5,0,0:0:0:0:
68,192,60968,2,0,L|180:192,1,100,8|0,0:0|0:0,0:0:0:0:
260,232,61666,2,0,L|320:232,1,50,8|0,0:0|0:0,0:0:0:0:
360,232,62015,2,0,P|388:192|384:136,1,100,4|8,0:0|0:0,0:0:0:0:
324,64,62713,1,0,0:0:0:0:
296,160,63061,1,8,0:0:0:0:
228,88,63410,6,0,P|188:64|128:68,1,100,4|8,0:0|0:0,0:0:0:0:
36,80,64108,2,0,P|20:124|32:184,1,100,0|8,0:0|0:0,0:0:0:0:
96,248,64806,1,4,0:0:0:0:
36,328,65154,2,0,P|84:348|136:340,1,100,8|0,0:0|0:0,0:0:0:0:
212,284,65852,2,0,L|264:284,1,50,8|0,0:0|0:0,0:0:0:0:
304,312,66201,6,0,L|408:312,2,100,4|8|0,0:0|0:0|0:0,0:0:0:0:
212,284,67247,1,8,0:0:0:0:
128,228,67596,2,0,P|112:180|124:128,1,100,4|8,0:0|0:0,0:0:0:0:
212,88,68294,2,0,L|328:88,1,100,0|8,0:0|0:0,0:0:0:0:
256,192,68992,12,0,71433,0:0:0:0:
404,160,74573,5,0,0:0:0:0:
344,240,74922,1,2,0:0:0:0:
344,240,75096,2,0,P|308:268|256:264,1,100
208,256,75620,2,0,L|168:212,1,50,2|0,0:0|0:0,0:0:0:0:
140,184,75968,1,0,0:0:0:0:
88,100,76317,1,2,0:0:0:0:
88,100,76492,2,0,P|179:87|216:128,1,150,0|8,0:0|0:0,0:0:0:0:
288,192,77364,6,0,L|348:192,1,50,8|0,0:0|0:0,0:0:0:0:
416,256,77887,2,0,P|380:284|316:280,1,100,2|0,0:0|0:0,0:0:0:0:
296,324,78410,2,0,L|236:320,1,50,2|0,0:0|0:0,0:0:0:0:
196,320,78759,6,0,P|160:280|160:220,1,100,8|0,0:0|0:0,0:0:0:0:
156,184,79282,2,0,L|156:76,1,100,4|0,0:0|0:0,0:0:0:0:
156,32,79806,1,0,0:0:0:0:
248,72,80154,6,0,P|300:92|344:84,1,100,4|0,0:0|0:0,0:0:0:0:
432,36,80852,2,0,L|428:148,1,100,8|0,0:0|0:0,0:0:0:0:
508,196,81550,2,0,L|511:146,2,50,4|0|0,0:0|0:0|0:0,0:0:0:0:
480,236,82073,2,0,P|436:268|352:236,1,150,4|8,0:0|0:0,0:0:0:0:
252,224,82945,5,4,0:0:0:0:
192,304,83294,2,0,P|144:316|92:304,1,100
8,256,83992,2,0,L|4:200,1,50,8|8,0:0|0:0,0:0:0:0:
103,190,84515,2,0,L|99:90,1,100,8|0,0:0|0:0,0:0:0:0:
80,44,85038,2,0,P|132:56|180:44,1,100,8|0,0:0|0:0,0:0:0:0:
220,20,85561,5,4,0:0:0:0:
364,64,86085,2,0,L|468:64,2,100,8|0|8,0:0|0:0|0:0,0:0:0:0:
276,112,87131,2,0,P|260:160|276:212,1,100,0|8,0:0|0:0,0:0:0:0:
364,168,87829,2,0,P|380:216|364:268,1,100,0|8,0:0|0:0,0:0:0:0:
364,364,88526,6,0,P|312:376|268:360,1,100,0|8,0:0|0:0,0:0:0:0:
200,288,89224,2,0,L|100:288,1,100,0|8,0:0|0:0,0:0:0:0:
20,348,89922,2,0,P|0:296|12:248,1,100,0|8,0:0|0:0,0:0:0:0:
40,212,90445,1,0,0:0:0:0:
112,144,90794,2,0,L|156:172,1,50,0|8,0:0|0:0,0:0:0:0:
240,224,91317,6,0,P|308:200|304:80,1,200,4|0,0:0|0:0,0:0:0:0:
220,44,92364,1,8,0:0:0:0:
152,116,92713,2,0,P|196:144|244:140,1,100,0|8,0:0|0:0,0:0:0:0:
336,100,93410,2,0,L|440:100,1,100,0|8,0:0|0:0,0:0:0:0:
508,172,94108,6,0,P|520:216|504:272,1,100,4|8,0:0|0:0,0:0:0:0:
476,308,94631,1,0,0:0:0:0:
384,348,94980,2,0,L|332:348,1,50,0|8,0:0|0:0,0:0:0:0:
284,348,95329,2,0,P|248:284|272:212,1,150,4|8,0:0|0:0,0:0:0:0:
328,136,96201,1,0,0:0:0:0:
372,224,96550,1,8,0:0:0:0:
269,214,96899,6,0,L|168:212,1,100,4|0,0:0|0:0,0:0:0:0:
80,256,97596,2,0,P|72:204|88:156,1,100,8|0,0:0|0:0,0:0:0:0:
12,92,98294,2,0,P|88:148|184:100,1,200,0|8,0:0|0:0,0:0:0:0:
228,24,99340,1,0,0:0:0:0:
280,108,99689,6,0,P|292:156|280:208,1,100,0|0,0:0|0:0,0:0:0:0:
244,296,100387,2,0,L|360:296,2,100,8|0|0,0:0|0:0|0:0,0:0:0:0:
152,336,101433,1,0,0:0:0:0:
56,308,101782,2,0,P|40:256|48:204,1,100,8|0,0:0|0:0,0:0:0:0:
104,128,102480,5,4,0:0:0:0:
180,64,102829,1,8,0:0:0:0:
232,148,103178,2,0,P|284:160|336:144,1,100,0|8,0:0|0:0,0:0:0:0:
408,88,103875,2,0,L|416:196,1,100,0|8,0:0|0:0,0:0:0:0:
512,216,104573,2,0,L|504:324,1,100,0|8,0:0|0:0,0:0:0:0:
424,376,105271,5,4,0:0:0:0:
348,312,105620,2,0,P|296:296|248:304,1,100,8|8,0:0|0:0,0:0:0:0:
164,348,106317,1,8,0:0:0:0:
256,192,106666,12,4,108061,0:0:0:0:
292,120,108585,6,0,P|240:100|156:156,1,150,0|8,0:0|0:0,0:0:0:0:
92,216,109457,5,4,0:0:0:0:
40,300,109806,1,8,0:0:0:0:
140,300,110154,2,0,L|240:300,1,100,0|8,0:0|0:0,0:0:0:0:
328,348,110852,2,0,P|344:296|328:248,1,100,0|8,0:0|0:0,0:0:0:0:
248,196,111550,2,0,P|235:153|251:101,1,100,0|8,0:0|0:0,0:0:0:0:
340,56,112247,6,0,P|352:98|336:150,1,100,0|8,0:0|0:0,0:0:0:0:
248,196,112945,1,0,0:0:0:0:
240,296,113294,2,0,L|272:340,1,50,8|0,0:0|0:0,0:0:0:0:
296,376,113643,2,0,P|344:356|368:312,1,100,4|8,0:0|0:0,0:0:0:0:
408,284,114166,2,0,L|408:128,1,150,4|8,0:0|0:0,0:0:0:0:
404,84,114864,5,0,0:0:0:0:
380,40,115038,2,0,P|356:24|284:20,1,100,0|8,0:0|0:0,0:0:0:0:
232,104,115736,2,0,P|162:99|138:83,1,100,0|8,0:0|0:0,0:0:0:0:
52,32,116433,2,0,L|44:136,1,100,4|8,0:0|0:0,0:0:0:0:
40,180,116957,2,0,P|92:232|164:212,1,150,4|8,0:0|0:0,0:0:0:0:
256,192,117829,5,4,0:0:0:0:
224,288,118178,1,8,0:0:0:0:
160,215,118526,2,0,L|160:108,1,100,0|8,0:0|0:0,0:0:0:0:
204,24,119224,2,0,P|248:8|308:24,1,100,4|8,0:0|0:0,0:0:0:0:
364,96,119922,2,0,P|414:106|458:90,1,100,8|8,0:0|0:0,0:0:0:0:
504,180,120620,6,0,L|500:280,1,100,4|8,0:0|0:0,0:0:0:0:
492,380,121317,1,0,0:0:0:0:
400,340,121666,1,8,0:0:0:0:
300,324,122015,1,0,0:0:0:0:
260,236,122364,2,0,P|228:216|160:216,2,100,8|0|8,0:0|0:0|0:0,0:0:0:0:
196,312,123410,6,0,P|128:324|60:208,1,200
12,140,124457,2,0,L|24:84,1,50,8|0,0:0|0:0,0:0:0:0:
40,44,124806,2,0,P|112:20|176:48,1,150,4|0,0:0|0:0,0:0:0:0:
212,84,125503,2,0,L|316:84,1,100,0|8,0:0|0:0,0:0:0:0:
412,80,126201,5,4,0:0:0:0:
456,168,126550,2,0,P|500:136|512:92,2,100,8|0|8,0:0|0:0|0:0,0:0:0:0:
356,160,127596,1,4,0:0:0:0:
284,232,127945,2,0,L|180:232,2,100,8|0|8,0:0|0:0|0:0,0:0:0:0:
288,332,128992,5,4,0:0:0:0:
376,284,129340,2,0,L|480:284,2,100,8|0|8,0:0|0:0|0:0,0:0:0:0:
300,220,130387,1,4,0:0:0:0:
200,216,130736,2,0,P|184:168|192:112,1,100,8|0,0:0|0:0,0:0:0:0:
244,36,131433,1,0,0:0:0:0:
256,192,131782,12,4,134399,0:0:0:0:
256,192,148526,5,4,0:0:0:0:
168,144,148875,1,0,0:0:0:0:
92,208,149224,2,0,P|64:144|156:48,2,200,8|0|8,0:0|0:0|0:0,0:0:0:0:
144,292,150968,1,0,0:0:0:0:
224,352,151317,6,0,L|424:352,2,200,0|8|0,0:0|0:0|0:0,0:0:0:0:
124,352,153061,1,0,0:0:0:0:
44,292,153410,2,0,P|28:248|40:192,1,100,8|0,0:0|0:0,0:0:0:0:
104,124,154108,5,4,0:0:0:0:
192,72,154457,2,0,L|304:72,2,100,8|0|8,0:0|0:0|0:0,0:0:0:0:
104,124,155503,1,0,0:0:0:0:
196,164,155852,2,0,L|308:164,2,100,8|0|8,0:0|0:0|0:0,0:0:0:0:
116,228,156899,5,4,0:0:0:0:
52,304,157247,2,0,P|92:324|152:316,1,100,8|8,0:0|0:0,0:0:0:0:
232,268,157945,1,8,0:0:0:0:
256,192,158294,12,0,159689,0:0:0:0:
244,324,160910,5,0,0:0:0:0:
244,324,161085,2,0,P|300:336|348:312,1,100
440,292,161782,2,0,L|420:180,1,100
400,96,162480,5,4,0:0:0:0:
324,164,162829,2,0,P|276:176|220:160,1,100,8|0,0:0|0:0,0:0:0:0:
168,84,163526,2,0,L|116:96,1,50,8|0,0:0|0:0,0:0:0:0:
72,112,163875,6,0,P|56:156|64:212,1,100,0|8,0:0|0:0,0:0:0:0:
104,300,164573,1,0,0:0:0:0:
188,356,164922,2,0,L|240:352,1,50,8|0,0:0|0:0,0:0:0:0:
288,344,165271,6,0,P|300:296|284:244,1,100,0|8,0:0|0:0,0:0:0:0:
228,168,165968,1,0,0:0:0:0:
172,248,166317,2,0,L|116:248,1,50,8|0,0:0|0:0,0:0:0:0:
72,248,166666,6,0,P|48:200|52:144,1,100,4|8,0:0|0:0,0:0:0:0:
64,108,167189,2,0,P|124:68|216:96,1,150,4|8,0:0|0:0,0:0:0:0:
268,152,168061,5,0,0:0:0:0:
264,252,168410,1,8,0:0:0:0:
196,324,168759,2,0,P|148:336|96:324,1,100,0|8,0:0|0:0,0:0:0:0:
16,384,169457,2,0,L|8:280,1,100,4|8,0:0|0:0,0:0:0:0:
12,236,169980,2,0,P|76:192|148:216,1,150,4|8,0:0|0:0,0:0:0:0:
220,272,170852,5,4,0:0:0:0:
236,172,171201,2,0,L|232:72,2,100,8|0|8,0:0|0:0|0:0,0:0:0:0:
284,260,172247,2,0,P|344:264|384:240,1,100,4|8,0:0|0:0,0:0:0:0:
472,280,172945,2,0,L|460:180,1,100,8|8,0:0|0:0,0:0:0:0:
444,80,173643,5,4,0:0:0:0:
376,152,173992,2,0,P|332:168|280:148,1,100,8|0,0:0|0:0,0:0:0:0:
256,56,174689,2,0,L|208:80,1,50,8|0,0:0|0:0,0:0:0:0:
172,108,175038,6,0,P|96:120|72:104,1,100,0|8,0:0|0:0,0:0:0:0:
4,44,175736,1,0,0:0:0:0:
0,144,176085,2,0,L|0:208,1,50,8|0,0:0|0:0,0:0:0:0:
0,244,176433,6,0,P|44:268|100:256,1,100,0|8,0:0|0:0,0:0:0:0:
180,212,177131,1,0,0:0:0:0:
268,260,177480,2,0,L|272:320,1,50,8|0,0:0|0:0,0:0:0:0:
276,360,177829,2,0,P|360:372|432:292,1,200,4|0,0:0|0:0,0:0:0:0:
424,192,178875,1,8,0:0:0:0:
372,108,179224,5,4,0:0:0:0:
324,196,179573,2,0,P|272:208|224:192,2,100,8|0|8,0:0|0:0|0:0,0:0:0:0:
404,136,180620,1,4,0:0:0:0:
484,196,180968,2,0,P|492:248|484:300,2,100,8|0|8,0:0|0:0|0:0,0:0:0:0:
404,136,182015,5,4,0:0:0:0:
392,236,182364,2,0,P|344:252|292:232,1,100
208,196,183061,2,0,L|220:92,1,100,0|0,0:0|0:0,0:0:0:0:
416,48,184108,2,0,L|404:148,1,100,0|0,0:0|0:0,0:0:0:0:
504,144,184806,6,0,P|520:192|508:248,1,100,4|8,0:0|0:0,0:0:0:0:
472,332,185503,1,0,0:0:0:0:
376,360,185852,2,0,L|272:360,1,100,8|0,0:0|0:0,0:0:0:0:
184,320,186550,1,8,0:0:0:0:
92,360,186899,2,0,P|76:312|88:256,1,100,0|8,0:0|0:0,0:0:0:0:
128,176,187596,6,0,L|128:76,2,100,0|8|0,0:0|0:0|0:0,0:0:0:0:
208,236,188643,1,8,0:0:0:0:
208,236,188817,2,0,P|256:268|344:248,1,150,4|8,0:0|0:0,0:0:0:0:
388,160,189689,1,0,0:0:0:0:
448,240,190038,1,8,0:0:0:0:
448,240,190213,2,0,P|492:156|464:100,1,150,4|8,0:0|0:0,0:0:0:0:
384,64,191085,1,0,0:0:0:0:
296,108,191433,5,8,0:0:0:0:
296,108,191608,2,0,P|232:152|152:120,1,150,4|8,0:0|0:0,0:0:0:0:
136,92,192306,2,0,L|120:244,1,150,4|8,0:0|0:0,0:0:0:0:
116,292,193003,2,0,P|168:344|240:328,1,150,4|8,0:0|0:0,0:0:0:0:
276,240,193875,6,0,L|380:240,1,100,0|8,0:0|0:0,0:0:0:0:
428,240,194399,2,0,P|452:168|424:104,1,150,4|8,0:0|0:0,0:0:0:0:
321,99,195271,2,0,L|336:52,2,50,0|0|8,0:0|0:0|0:0,0:0:0:0:
280,192,195968,6,0,P|232:200|180:176,1,100,4|8,0:0|0:0,0:0:0:0:
100,128,196666,1,0,0:0:0:0:
140,36,197015,2,0,L|192:36,1,50,8|4,0:0|0:0,0:0:0:0:
268,164,197713,6,0,L|368:164,2,100,8|0|8,0:0|0:0|0:0,0:0:0:0:
168,172,198759,1,4,0:0:0:0:
100,248,199108,1,8,0:0:0:0:
100,248,199282,2,0,P|168:284|232:252,1,150,0|8,0:0|0:0,0:0:0:0:
256,212,199980,6,0,P|336:180|408:212,1,150,4|8,0:0|0:0,0:0:0:0:
436,224,200678,2,4,P|496:188|512:112,1,150,4|8,0:0|0:0,0:0:0:0:
500,68,201375,1,4,0:0:0:0:
356,28,201899,5,8,0:0:0:0:
304,112,202247,2,0,P|256:116|208:92,1,100,8|8,0:0|0:0,0:0:0:0:
132,32,202945,2,0,L|120:132,1,100,8|8,0:0|0:0,0:0:0:0:
104,232,203643,2,0,P|144:256|196:252,1,100,8|8,0:0|0:0,0:0:0:0:
236,220,204166,6,0,L|392:220,1,150,4|8,0:0|0:0,0:0:0:0:
436,308,205038,2,0,P|476:280|488:232,1,100,0|8,0:0|0:0,0:0:0:0:
476,132,205736,1,0,0:0:0:0:
400,64,206085,2,0,L|324:136,1,100,8|0,0:0|0:0,0:0:0:0:
228,128,206782,2,0,L|184:172,1,50,8|4,0:0|0:0,0:0:0:0:
256,192,207131,12,0,212625,0:0:0:0:
