osu file format v12

[General]
AudioFilename: kokuhaku biyori, desu!.mp3
AudioLeadIn: 2000
PreviewTime: 159689
Countdown: 0
SampleSet: Soft
StackLeniency: 0.6
Mode: 0
LetterboxInBreaks: 1

[Editor]
Bookmarks: 104224
DistanceSpacing: 1.2
BeatDivisor: 4
GridSize: 4

[Metadata]
Title:Kokuhaku Biyori, desu!
TitleUnicode:告白日和、です!
Artist:Uchida Aya & Kubo Yurika
ArtistUnicode:内田彩 & 久保ユリカ
Creator:Rare
Version:Insane
Source:Love Live! School idol project
Tags:µ's Album Best Live! collection Disc 2 Minami Kotori Koizumi Hanayo
BeatmapID:231139
BeatmapSetID:83754

[Difficulty]
HPDrainRate:7
CircleSize:4
OverallDifficulty:8
ApproachRate:9
SliderMultiplier:1.6
SliderTickRate:1

[Events]
//Background and Video events
0,0,"moe!!!.jpg",0,0
//Break Periods
2,6401,11182
2,71782,73973
//Storyboard Layer 0 (Background)
//Storyboard Layer 1 (Fail)
//Storyboard Layer 2 (Pass)
//Storyboard Layer 3 (Foreground)
//Storyboard Sound Samples
//Background Colour Transformations
3,100,163,162,255

[TimingPoints]
620,348.837209302326,4,2,1,70,1,0
620,-133.333333333333,4,2,1,70,0,0
6201,-100,4,2,1,70,0,0
34108,-133.333333333333,4,2,1,70,0,0
39689,-100,4,2,1,70,0,0
46317,-100,4,2,1,60,0,0
46666,-100,4,2,1,80,0,1
57131,-100,4,1,1,50,0,1
57829,-100,4,2,1,80,0,1
68992,-100,4,2,1,70,0,0
74922,-133.333333333333,4,2,1,70,0,0
83120,-133.333333333333,4,1,1,30,0,0
83992,-133.333333333333,4,1,1,50,0,0
84515,-133.333333333333,4,1,1,60,0,0
84602,-133.333333333333,4,2,1,30,0,0
85038,-133.333333333333,4,2,1,60,0,0
85561,-100,4,2,1,70,0,0
96899,-133.333333333333,4,2,1,70,0,0
102480,-100,4,2,1,70,0,0
107713,-100,4,1,1,60,0,0
108061,-100,4,2,1,70,0,0
109108,-100,4,1,1,50,0,0
109457,-100,4,2,1,80,0,1
119922,-100,4,1,1,50,0,1
120620,-100,4,2,1,80,0,1
131782,-100,4,2,1,70,0,0
147306,-100,4,1,1,50,0,0
148003,-100,4,2,1,50,0,0
148526,-133.333333333333,4,2,1,70,0,0
153585,-133.333333333333,4,2,1,60,0,0
154108,-100,4,2,1,70,0,0
159864,-100,4,1,1,40,0,0
160213,-100,4,2,1,60,0,0
160387,-100,4,1,1,40,0,0
160736,-100,4,2,1,70,0,0
161085,-100,4,1,1,40,0,0
161607,-100,4,1,1,60,0,0
162480,-100,4,2,1,80,0,1
172945,-100,4,1,1,50,0,1
173643,-100,4,2,1,80,0,1
182015,-100,4,1,1,50,0,1
182713,-100,4,1,1,60,0,1
184544,-100,4,2,1,80,0,1
184806,-100,4,2,1,70,0,0
204689,-100,4,1,1,50,0,0
205736,-100,4,1,1,60,0,0
212625,-100,4,2,1,5,0,0

[Colours]
Combo1 : 255,150,0
Combo2 : 0,128,255
Combo3 : 255,128,128
Combo4 : 196,196,136

[HitObjects]
396,140,620,2,0,P|420:212|364:292,1,180.000006866455,2|0,0:0|0:0,0:0:0:0:
300,324,1317,2,0,P|264:328|232:328,1,60.0000022888184
124,275,1666,2,0,P|148:276|184:280,1,60.0000022888184,2|0,0:0|0:0,0:0:0:0:
64,228,2015,2,0,P|40:148|96:76,1,180.000006866455,2|0,0:0|0:0,0:0:0:0:
160,156,2713,6,0,P|164:128|160:92,1,60.0000022888184
50,33,3061,2,0,P|67:55|92:76,1,60.0000022888184,2|0,0:0|0:0,0:0:0:0:
144,28,3410,2,0,P|204:48|260:24,1,120.000004577637,2|0,0:0|0:0,0:0:0:0:
254,28,3933,1,0,0:0:0:0:
320,56,4108,6,0,L|384:52,1,60.0000022888184,0|0,0:0|0:0,0:0:0:0:
499,95,4457,2,0,L|440:92,1,60.0000022888184,2|0,0:0|0:0,0:0:0:0:
408,200,4806,2,0,P|320:191|303:168,1,120.000004577637,2|0,0:0|0:0,0:0:0:0:
368,136,5329,1,0,0:0:0:0:
268,240,5503,1,2,0:0:0:0:
232,176,5678,5,0,0:0:0:0:
228,164,5765,1,0,0:0:0:0:
224,152,5852,1,8,0:0:0:0:
280,104,6026,1,0,0:0:0:0:
279,91,6114,1,0,0:0:0:0:
278,78,6201,1,4,0:0:0:0:
256,332,11782,6,0,P|160:344|120:292,1,160,4|8,0:0|0:0,0:0:0:0:
92,212,12306,1,0,0:0:0:0:
8,168,12480,2,0,P|0:128|4:84,1,80
146,57,12829,2,0,P|154:97|152:136,1,80,8|0,0:0|0:0,0:0:0:0:
200,220,13178,1,0,0:0:0:0:
288,180,13352,2,0,P|328:168|376:172,1,80,0|8,0:0|0:0,0:0:0:0:
496,344,13701,2,0,P|420:332|384:264,1,160
476,244,14224,2,0,L|480:164,1,80,8|0,0:0|0:0,0:0:0:0:
376,44,14573,6,0,L|372:124,1,80,0|0,0:0|0:0,0:0:0:0:
364,220,14922,1,8,0:0:0:0:
320,304,15096,2,0,P|244:340|168:296,1,160
64,136,15620,2,0,P|103:143|137:169,1,80,8|0,0:0|0:0,0:0:0:0:
80,344,15968,1,0,0:0:0:0:
8,268,16143,2,0,P|40:245|82:239,1,80,0|8,0:0|0:0,0:0:0:0:
296,160,16492,2,0,P|259:236|188:233,1,160,0|0,0:0|0:0,0:0:0:0:
116,184,17015,1,8,0:0:0:0:
200,140,17189,1,0,0:0:0:0:
20,192,17364,6,0,P|8:156|16:108,1,80,4|0,0:0|0:0,0:0:0:0:
76,44,17713,2,0,P|148:16|224:48,1,160,8|0,0:0|0:0,0:0:0:0:
284,120,18236,1,0,0:0:0:0:
348,192,18410,2,0,P|388:196|428:184,1,80,8|0,0:0|0:0,0:0:0:0:
504,132,18759,2,0,P|448:92|360:116,1,160,4|8,0:0|0:0,0:0:0:0:
144,236,19282,2,0,P|200:276|284:256,1,160,4|0,0:0|0:0,0:0:0:0:
348,192,19806,1,8,0:0:0:0:
256,172,19980,5,0,0:0:0:0:
256,172,20154,2,0,P|248:132|256:88,1,80,4|0,0:0|0:0,0:0:0:0:
400,40,20503,2,0,P|408:80|400:124,1,80,8|0,0:0|0:0,0:0:0:0:
348,272,20852,2,0,L|348:192,1,80
156,116,21201,2,0,L|156:196,1,80,8|8,0:0|0:0,0:0:0:0:
156,216,21463,1,8,0:0:0:0:
156,236,21550,2,0,P|184:280|284:272,1,160,4|0,0:0|0:0,0:0:0:0:
481,250,22073,2,0,P|453:206|356:212,1,160,4|0,0:0|0:0,0:0:0:0:
372,308,22596,1,8,0:0:0:0:
288,356,22771,5,0,0:0:0:0:
288,356,22858,1,0,0:0:0:0:
288,356,22945,2,0,P|244:360|208:344,1,80,4|0,0:0|0:0,0:0:0:0:
132,292,23294,2,0,L|48:292,1,80,8|0,0:0|0:0,0:0:0:0:
220,192,23643,2,0,L|304:192,1,80
124,116,23992,2,0,P|116:76|120:32,1,80,8|0,0:0|0:0,0:0:0:0:
208,68,24340,6,0,P|270:109|346:85,1,160,0|8,0:0|0:0,0:0:0:0:
444,76,24864,1,0,0:0:0:0:
476,168,25038,2,0,L|476:256,1,80,0|2,0:0|0:0,0:0:0:0:
476,344,25387,1,10,0:0:0:0:
384,208,25561,1,2,0:0:0:0:
320,328,25736,2,0,P|280:336|240:328,1,80,2|0,0:0|0:0,0:0:0:0:
96,256,26085,6,0,L|176:260,1,80,8|0,0:0|0:0,0:0:0:0:
260,216,26433,2,0,P|268:176|264:132,1,80
136,28,26782,2,0,P|128:68|132:112,1,80,8|0,0:0|0:0,0:0:0:0:
200,180,27131,2,0,P|250:231|330:215,1,160,2|8,0:0|0:0,0:0:0:0:
392,284,27654,2,0,L|323:325,1,80,2|0,0:0|0:0,0:0:0:0:
240,372,28003,1,0,0:0:0:0:
172,304,28178,2,0,P|136:288|96:284,1,80,8|0,0:0|0:0,0:0:0:0:
36,360,28526,6,0,P|72:292|40:216,1,160,4|8,0:0|0:0,0:0:0:0:
4,132,29050,1,0,0:0:0:0:
96,156,29224,2,0,L|148:224,1,80,2|0,0:0|0:0,0:0:0:0:
208,292,29573,1,8,0:0:0:0:
232,200,29747,1,0,0:0:0:0:
384,304,29922,6,0,P|436:260|420:172,1,160,2|8,0:0|0:0,0:0:0:0:
336,216,30445,1,2,0:0:0:0:
456,344,30619,2,0,P|464:308|452:260,1,80,0|8,0:0|0:0,0:0:0:0:
424,176,30968,1,0,0:0:0:0:
424,176,31056,1,8,0:0:0:0:
424,176,31143,1,0,0:0:0:0:
332,128,31317,5,4,0:0:0:0:
213,75,31492,1,2,0:0:0:0:
292,58,31666,1,8,0:0:0:0:
205,154,31840,2,0,L|188:316,2,160,2|2|4,0:0|0:0|0:0,0:0:0:0:
205,154,32887,5,2,0:0:0:0:
256,232,33061,1,8,0:0:0:0:
300,148,33236,1,2,0:0:0:0:
160,240,33410,1,10,0:0:0:0:
160,240,33497,1,0,0:0:0:0:
160,240,33585,1,2,0:0:0:0:
116,88,33759,1,10,0:0:0:0:
4,200,33933,1,2,0:0:0:0:
4,200,34021,1,0,0:0:0:0:
4,200,34108,6,0,P|16:264|72:296,1,120.000004577637,4|0,0:0|0:0,0:0:0:0:
136,320,34631,1,0,0:0:0:0:
160,240,34806,2,0,L|224:236,1,60.0000022888184,8|0,0:0|0:0,0:0:0:0:
256,160,35154,2,0,L|320:164,1,60.0000022888184
400,176,35503,2,0,P|436:128|424:60,1,120.000004577637,0|2,0:0|0:0,0:0:0:0:
368,16,36026,1,2,0:0:0:0:
348,100,36201,2,0,P|312:92|288:72,1,60.0000022888184,10|2,0:0|0:0,0:0:0:0:
224,28,36550,2,0,L|160:24,1,60.0000022888184,2|2,0:0|0:0,0:0:0:0:
44,96,36899,6,0,L|164:108,1,120.000004577637,2|0,0:0|0:0,0:0:0:0:
248,116,37422,1,0,0:0:0:0:
200,184,37596,2,0,L|192:256,1,60.0000022888184,8|0,0:0|0:0,0:0:0:0:
324,76,37945,2,0,L|332:4,1,60.0000022888184
324,160,38294,6,0,P|376:188|444:148,1,120.000004577637,0|0,0:0|0:0,0:0:0:0:
480,100,38817,1,0,0:0:0:0:
432,252,38992,2,0,P|487:233|505:156,1,120.000004577637,8|8,0:0|0:0,0:0:0:0:
508,160,39428,1,8,0:0:0:0:
500,140,39515,1,0,0:0:0:0:
464,64,39689,5,4,0:0:0:0:
404,140,39864,1,0,0:0:0:0:
372,52,40038,2,0,L|292:48,1,80,8|0,0:0|0:0,0:0:0:0:
244,128,40387,1,0,0:0:0:0:
196,44,40561,1,0,0:0:0:0:
324,184,40736,2,0,L|320:268,1,80,8|0,0:0|0:0,0:0:0:0:
312,360,41085,5,0,0:0:0:0:
236,304,41259,1,0,0:0:0:0:
144,328,41433,2,0,L|48:320,1,80,8|0,0:0|0:0,0:0:0:0:
180,228,41782,2,0,L|276:220,1,80
380,128,42131,2,0,L|300:121,1,80,8|0,0:0|0:0,0:0:0:0:
204,108,42480,6,0,P|200:68|216:24,1,80,4|0,0:0|0:0,0:0:0:0:
428,96,42829,2,0,P|432:136|416:180,1,80,8|0,0:0|0:0,0:0:0:0:
188,256,43178,2,0,P|184:216|200:172,1,80,8|0,0:0|0:0,0:0:0:0:
416,244,43526,2,0,P|420:284|404:328,1,80,8|0,0:0|0:0,0:0:0:0:
324,368,43875,6,0,L|240:368,1,80,8|0,0:0|0:0,0:0:0:0:
84,316,44224,2,0,L|164:316,1,80,8|0,0:0|0:0,0:0:0:0:
256,284,44573,1,8,0:0:0:0:
244,188,44747,1,0,0:0:0:0:
244,188,44835,1,0,0:0:0:0:
244,188,44922,1,8,0:0:0:0:
332,152,45096,1,0,0:0:0:0:
332,152,45183,1,0,0:0:0:0:
332,152,45271,5,4,0:0:0:0:
352,304,45445,1,0,0:0:0:0:
352,304,45532,1,0,0:0:0:0:
352,304,45619,1,8,0:0:0:0:
444,284,45794,2,0,P|476:212|436:136,1,160,4|0,0:0|0:0,0:0:0:0:
372,80,46317,1,8,0:0:0:0:
356,88,46404,1,8,0:0:0:0:
336,92,46492,1,8,0:0:0:0:
316,92,46579,1,8,0:0:0:0:
296,92,46666,6,0,P|248:80|224:60,1,80,4|0,0:0|0:0,0:0:0:0:
52,95,47015,2,0,P|92:100|132:88,1,80,8|0,0:0|0:0,0:0:0:0:
225,61,47364,2,0,P|221:113|217:145,1,80
80,268,47713,2,0,P|84:216|88:184,1,80,8|0,0:0|0:0,0:0:0:0:
104,92,48061,6,0,P|224:104|236:132,1,160,0|8,0:0|0:0,0:0:0:0:
252,220,48585,1,0,0:0:0:0:
212,308,48759,1,0,0:0:0:0:
164,172,48933,2,0,P|152:132|156:92,1,80,0|8,0:0|0:0,0:0:0:0:
220,24,49282,1,0,0:0:0:0:
252,220,49457,6,0,P|200:272|112:256,1,160,0|8,0:0|0:0,0:0:0:0:
64,184,49980,1,0,0:0:0:0:
4,260,50154,2,0,L|8:352,1,80
64,184,50503,2,0,L|60:92,1,80,8|0,0:0|0:0,0:0:0:0:
120,28,50852,6,0,P|196:12|252:68,1,160,4|8,0:0|0:0,0:0:0:0:
280,288,51375,2,0,P|214:245|214:166,1,160,4|0,0:0|0:0,0:0:0:0:
308,140,51899,1,8,0:0:0:0:
384,84,52073,5,0,0:0:0:0:
412,176,52247,2,0,L|400:264,1,80
384,348,52596,2,0,P|316:380|224:336,2,160,8|0|8,0:0|0:0|0:0,0:0:0:0:
384,348,53643,1,4,0:0:0:0:
476,316,53817,2,0,L|488:228,1,80,0|8,0:0|0:0,0:0:0:0:
424,20,54166,2,0,L|404:180,1,160,4|0,0:0|0:0,0:0:0:0:
392,276,54689,1,8,0:0:0:0:
336,356,54864,5,0,0:0:0:0:
304,232,55038,2,0,P|272:208|228:200,1,80,4|0,0:0|0:0,0:0:0:0:
80,296,55387,2,0,P|120:288|148:260,1,80,8|0,0:0|0:0,0:0:0:0:
152,164,55736,2,0,P|112:116|52:108,1,120
8,104,56085,2,0,L|12:20,1,80,8|0,0:0|0:0,0:0:0:0:
232,40,56433,2,0,L|228:124,1,80,4|0,0:0|0:0,0:0:0:0:
304,180,56782,2,0,P|344:180|384:160,1,80,8|0,0:0|0:0,0:0:0:0:
444,40,57131,6,0,L|448:88,1,40,0|0,0:0|0:0,0:0:0:0:
512,168,57393,2,0,L|508:120,4,40,0|0|0|0|0,0:0|0:0|0:0|0:0|0:0,0:0:0:0:
512,168,57829,6,0,P|472:204|380:152,1,160,4|8,0:0|0:0,0:0:0:0:
336,84,58352,1,0,0:0:0:0:
292,168,58526,2,0,L|292:248,1,80
344,328,58875,2,0,P|308:344|260:336,1,80,8|0,0:0|0:0,0:0:0:0:
208,268,59224,6,0,P|176:208|84:204,1,160,0|8,0:0|0:0,0:0:0:0:
12,256,59747,1,0,0:0:0:0:
12,160,59922,2,0,L|0:72,1,80
91,200,60271,2,0,L|104:288,1,80,8|0,0:0|0:0,0:0:0:0:
180,340,60619,6,0,P|236:296|324:312,1,160,0|8,0:0|0:0,0:0:0:0:
396,364,61143,1,0,0:0:0:0:
452,288,61317,2,0,P|460:244|456:208,1,80
296,104,61666,2,0,P|288:148|292:184,1,80,8|0,0:0|0:0,0:0:0:0:
488,140,62015,2,0,P|492:60|396:24,1,160,4|8,0:0|0:0,0:0:0:0:
396,108,62538,1,0,0:0:0:0:
292,80,62713,2,0,P|288:160|384:196,1,160,0|8,0:0|0:0,0:0:0:0:
444,204,63236,1,0,0:0:0:0:
436,300,63410,6,0,P|404:324|364:332,1,80,4|0,0:0|0:0,0:0:0:0:
272,348,63759,2,0,P|232:350|194:335,1,80,8|0,0:0|0:0,0:0:0:0:
172,244,64108,1,0,0:0:0:0:
80,272,64282,1,0,0:0:0:0:
32,188,64457,2,0,L|28:104,1,80,8|0,0:0|0:0,0:0:0:0:
48,16,64806,6,0,P|84:12|132:32,1,80,4|0,0:0|0:0,0:0:0:0:
200,96,65154,2,0,L|284:100,1,80,8|0,0:0|0:0,0:0:0:0:
376,104,65503,1,0,0:0:0:0:
320,184,65678,1,0,0:0:0:0:
416,188,65852,2,0,P|424:228|416:276,1,80,8|0,0:0|0:0,0:0:0:0:
224,336,66201,6,0,P|216:296|224:248,1,80,4|0,0:0|0:0,0:0:0:0:
316,104,66550,2,0,P|324:144|319:182,1,80,8|0,0:0|0:0,0:0:0:0:
56,320,66899,2,0,P|48:280|56:232,1,80,0|0,0:0|0:0,0:0:0:0:
148,88,67247,2,0,P|156:128|151:166,1,80,8|0,0:0|0:0,0:0:0:0:
144,196,67509,1,0,0:0:0:0:
128,224,67596,6,0,P|88:236|48:228,1,80,8|0,0:0|0:0,0:0:0:0:
204,296,67945,2,0,L|288:300,1,80,8|0,0:0|0:0,0:0:0:0:
308,300,68207,1,0,0:0:0:0:
334,301,68294,1,8,0:0:0:0:
359,291,68381,1,0,0:0:0:0:
377,272,68468,1,0,0:0:0:0:
504,172,68643,1,8,0:0:0:0:
372,100,68817,1,0,0:0:0:0:
372,100,68904,1,0,0:0:0:0:
372,100,68992,1,4,0:0:0:0:
256,192,69079,12,0,71433,0:0:0:0:
392,328,74573,5,2,0:0:0:0:
340,168,74922,1,0,0:0:0:0:
284,228,75096,2,0,P|228:240|176:200,1,120.000004577637,2|0,0:0|0:0,0:0:0:0:
140,132,75620,2,0,L|148:64,1,60.0000022888184,2|0,0:0|0:0,0:0:0:0:
260,12,75968,2,0,L|252:80,1,60.0000022888184,2|0,0:0|0:0,0:0:0:0:
244,156,76317,1,0,0:0:0:0:
284,228,76492,2,0,P|332:260|396:248,1,120.000004577637,2|0,0:0|0:0,0:0:0:0:
464,208,77015,5,8,0:0:0:0:
368,76,77189,1,0,0:0:0:0:
368,76,77276,1,0,0:0:0:0:
368,76,77364,1,10,0:0:0:0:
284,228,77538,1,10,0:0:0:0:
284,228,77887,6,0,P|216:180|184:188,1,120.000004577637,2|0,0:0|0:0,0:0:0:0:
172,204,78323,1,0,0:0:0:0:
164,224,78410,2,0,L|156:284,1,60.0000022888184,2|0,0:0|0:0,0:0:0:0:
148,368,78759,1,8,0:0:0:0:
40,296,78933,1,2,0:0:0:0:
164,224,79108,1,8,0:0:0:0:
44,156,79282,2,0,P|96:84|136:84,1,120.000004577637,6|0,0:0|0:0,0:0:0:0:
196,120,79806,2,0,L|272:112,1,60.0000022888184,0|8,0:0|0:0,0:0:0:0:
320,60,80154,6,0,P|368:88|428:68,1,120.000004577637,4|0,0:0|0:0,0:0:0:0:
496,116,80678,1,0,0:0:0:0:
496,116,80765,1,0,0:0:0:0:
496,116,80852,2,0,L|492:176,1,60.0000022888184,8|0,0:0|0:0,0:0:0:0:
412,208,81201,2,0,L|416:268,1,60.0000022888184,0|8,0:0|0:0,0:0:0:0:
424,352,81550,5,4,0:0:0:0:
292,296,81724,1,0,0:0:0:0:
412,208,81899,1,8,0:0:0:0:
336,368,82073,2,0,P|261:378|224:344,1,120.000004577637,4|0,0:0|0:0,0:0:0:0:
216,336,82509,1,0,0:0:0:0:
208,316,82596,2,0,P|196:272|196:244,1,60.0000022888184,8|0,0:0|0:0,0:0:0:0:
248,192,82945,6,0,L|248:120,1,60.0000022888184,4|0,0:0|0:0,0:0:0:0:
248,48,83294,1,0,0:0:0:0:
168,24,83468,1,0,0:0:0:0:
12,104,83643,1,0,0:0:0:0:
92,80,83817,1,0,0:0:0:0:
240,184,83992,1,0,0:0:0:0:
160,160,84166,1,0,0:0:0:0:
160,160,84515,6,0,L|168:280,1,120.000004577637,0|0,0:0|0:0,0:0:0:0:
172,364,85038,1,8,0:0:0:0:
352,360,85213,1,0,0:0:0:0:
264,296,85387,1,8,0:0:0:0:
420,312,85561,6,0,P|440:252|376:192,1,160,4|0,0:0|0:0,0:0:0:0:
284,160,86085,2,0,L|204:164,1,80,8|0,0:0|0:0,0:0:0:0:
108,172,86433,1,0,0:0:0:0:
32,112,86608,1,0,0:0:0:0:
124,84,86782,2,0,L|204:80,1,80,8|0,0:0|0:0,0:0:0:0:
264,8,87131,2,0,P|292:36|296:88,1,80
300,172,87480,2,0,P|292:212|304:256,1,80,8|0,0:0|0:0,0:0:0:0:
344,340,87829,5,0,0:0:0:0:
488,248,88003,1,2,0:0:0:0:
462,366,88178,1,10,0:0:0:0:
370,222,88352,1,2,0:0:0:0:
252,324,88526,2,0,P|212:336|172:332,1,80,2|0,0:0|0:0,0:0:0:0:
84,360,88875,6,0,L|96:276,1,80,8|0,0:0|0:0,0:0:0:0:
156,204,89224,2,0,P|124:184|80:184,1,80
244,233,89573,2,0,L|316:189,1,80,8|0,0:0|0:0,0:0:0:0:
125,62,89922,6,0,P|172:120|252:116,1,160,2|8,0:0|0:0,0:0:0:0:
336,160,90445,2,0,L|340:76,1,80,2|0,0:0|0:0,0:0:0:0:
416,20,90794,1,0,0:0:0:0:
512,148,90968,2,0,L|508:228,1,80,8|0,0:0|0:0,0:0:0:0:
448,304,91317,6,0,P|392:248|312:256,1,160,4|8,0:0|0:0,0:0:0:0:
228,292,91840,1,0,0:0:0:0:
176,376,92015,2,0,L|96:372,1,80,2|0,0:0|0:0,0:0:0:0:
228,292,92364,2,0,L|148:288,1,80,8|0,0:0|0:0,0:0:0:0:
52,284,92713,2,0,L|52:116,1,160,2|8,0:0|0:0,0:0:0:0:
52,28,93236,1,2,0:0:0:0:
272,148,93410,2,0,P|196:164|140:112,1,160,0|8,0:0|0:0,0:0:0:0:
136,96,93846,1,8,0:0:0:0:
136,80,93933,1,8,0:0:0:0:
272,148,94108,5,6,0:0:0:0:
136,176,94282,1,2,0:0:0:0:
248,64,94457,1,10,0:0:0:0:
212,204,94631,2,0,L|224:364,2,160,2|2|4,0:0|0:0|0:0,0:0:0:0:
212,204,95678,5,2,0:0:0:0:
320,300,95852,1,10,0:0:0:0:
344,160,96026,1,2,0:0:0:0:
216,308,96201,1,10,0:0:0:0:
216,308,96288,1,0,0:0:0:0:
216,308,96375,1,2,0:0:0:0:
40,368,96550,1,10,0:0:0:0:
80,188,96724,1,2,0:0:0:0:
80,188,96811,1,0,0:0:0:0:
80,188,96899,6,0,P|56:132|76:72,1,120.000004577637,4|0,0:0|0:0,0:0:0:0:
148,44,97422,1,0,0:0:0:0:
148,44,97596,2,0,L|208:52,1,60.0000022888184,8|0,0:0|0:0,0:0:0:0:
324,132,97945,2,0,L|264:124,1,60.0000022888184,0|0,0:0|0:0,0:0:0:0:
69,140,98294,2,0,L|188:160,1,120.000004577637,0|2,0:0|0:0,0:0:0:0:
272,172,98817,1,2,0:0:0:0:
284,256,98992,2,0,P|244:252|216:236,1,60.0000022888184,10|2,0:0|0:0,0:0:0:0:
160,192,99340,2,0,P|131:163|120:132,1,60.0000022888184,2|2,0:0|0:0,0:0:0:0:
204,116,99689,6,0,P|252:84|316:96,1,120.000004577637,2|0,0:0|0:0,0:0:0:0:
364,160,100213,1,0,0:0:0:0:
368,244,100387,2,0,L|372:312,1,60.0000022888184,8|0,0:0|0:0,0:0:0:0:
504,252,100736,2,0,L|500:184,1,60.0000022888184,0|0,0:0|0:0,0:0:0:0:
496,108,101085,1,0,0:0:0:0:
412,92,101259,1,2,0:0:0:0:
352,32,101433,2,0,P|324:24|280:28,1,60.0000022888184,2|2,0:0|0:0,0:0:0:0:
292,160,101782,2,0,P|277:134|255:113,1,60.0000022888184,10|2,0:0|0:0,0:0:0:0:
156,216,102131,2,0,P|164:187|160:144,1,60.0000022888184,10|0,0:0|0:0,0:0:0:0:
160,136,102393,1,0,0:0:0:0:
156,116,102480,6,0,P|144:80|152:32,1,80,4|0,0:0|0:0,0:0:0:0:
400,104,102829,2,0,P|412:140|404:188,1,80,8|0,0:0|0:0,0:0:0:0:
104,264,103178,2,0,P|92:228|100:180,1,80,0|0,0:0|0:0,0:0:0:0:
348,252,103526,2,0,P|360:288|352:336,1,80,8|0,0:0|0:0,0:0:0:0:
276,384,103875,1,0,0:0:0:0:
256,292,104050,1,0,0:0:0:0:
376,160,104224,2,0,P|412:152|452:165,1,80,8|0,0:0|0:0,0:0:0:0:
284,192,104573,2,0,L|268:104,1,80
248,20,104922,2,0,P|204:16|164:32,1,80,8|0,0:0|0:0,0:0:0:0:
92,80,105271,5,4,0:0:0:0:
140,292,105445,1,0,0:0:0:0:
92,208,105620,2,0,P|52:184|8:180,1,80,8|0,0:0|0:0,0:0:0:0:
0,362,105968,2,0,L|44:296,1,80,8|0,0:0|0:0,0:0:0:0:
184,216,106317,2,0,P|240:172|220:84,1,160,8|8,0:0|0:0,0:0:0:0:
140,132,106840,1,0,0:0:0:0:
88,240,107015,1,8,0:0:0:0:
184,312,107189,1,0,0:0:0:0:
184,312,107276,1,0,0:0:0:0:
184,312,107364,1,8,0:0:0:0:
280,240,107538,5,0,0:0:0:0:
306,220,107625,1,0,0:0:0:0:
323,191,107713,1,0,0:0:0:0:
328,159,107800,1,0,0:0:0:0:
321,126,107887,1,0,0:0:0:0:
302,99,107974,1,0,0:0:0:0:
275,81,108061,5,4,0:0:0:0:
152,40,108236,1,0,0:0:0:0:
152,40,108323,1,0,0:0:0:0:
152,40,108410,1,8,0:0:0:0:
16,200,108585,2,0,P|68:228|152:180,1,160,4|0,0:0|0:0,0:0:0:0:
240,48,109108,1,0,0:0:0:0:
248,68,109195,1,0,0:0:0:0:
260,84,109282,1,0,0:0:0:0:
276,100,109370,1,0,0:0:0:0:
292,112,109457,6,0,P|332:128|376:120,1,80,4|0,0:0|0:0,0:0:0:0:
432,192,109806,2,0,L|511:184,1,80,8|0,0:0|0:0,0:0:0:0:
400,276,110154,2,0,P|360:248|344:216,1,80
292,112,110503,2,0,L|256:188,1,80,8|0,0:0|0:0,0:0:0:0:
69,315,110852,6,0,P|92:236|168:220,1,160,0|8,0:0|0:0,0:0:0:0:
244,264,111375,1,0,0:0:0:0:
159,217,111550,2,0,L|156:128,1,80
48,40,111899,2,0,L|51:129,1,80,8|0,0:0|0:0,0:0:0:0:
4,328,112247,6,0,P|76:252|60:200,1,160,0|8,0:0|0:0,0:0:0:0:
4,132,112771,1,0,0:0:0:0:
176,140,112945,2,0,P|165:177|170:217,1,80,0|0,0:0|0:0,0:0:0:0:
232,384,113294,2,0,L|252:304,1,80,8|0,0:0|0:0,0:0:0:0:
280,212,113643,1,4,0:0:0:0:
280,212,113992,1,8,0:0:0:0:
328,336,114166,2,0,P|366:356|455:299,1,160,4|0,0:0|0:0,0:0:0:0:
248,304,114689,2,0,L|168:304,1,80,8|0,0:0|0:0,0:0:0:0:
376,224,115038,6,0,L|456:224,1,80
280,212,115387,2,0,P|244:188|208:184,1,80,8|0,0:0|0:0,0:0:0:0:
128,236,115736,2,0,L|116:156,1,80
104,60,116085,1,8,0:0:0:0:
104,60,116433,5,4,0:0:0:0:
174,128,116608,2,0,P|216:136|251:125,1,80,0|8,0:0|0:0,0:0:0:0:
338,85,116957,2,0,P|304:40|208:40,1,160,4|0,0:0|0:0,0:0:0:0:
336,180,117480,1,8,0:0:0:0:
256,128,117654,1,0,0:0:0:0:
248,220,117829,6,0,L|168:220,1,80,4|0,0:0|0:0,0:0:0:0:
72,224,118178,2,0,P|64:264|72:308,1,80,8|0,0:0|0:0,0:0:0:0:
256,128,118526,2,0,P|264:88|256:44,1,80
168,164,118875,2,0,P|248:232|304:208,1,160,8|4,0:0|0:0,0:0:0:0:
352,144,119399,1,0,0:0:0:0:
440,180,119573,2,0,P|448:136|432:100,1,80,8|0,0:0|0:0,0:0:0:0:
380,28,119922,6,0,L|332:32,3,40,0|0|0|0,0:0|0:0|0:0|0:0,0:0:0:0:
288,88,120271,2,0,L|240:92,1,40
204,32,120445,2,0,L|156:36,1,40
92,32,120620,6,0,L|88:112,1,80,4|0,0:0|0:0,0:0:0:0:
20,176,120968,2,0,P|56:200|100:204,1,80,8|0,0:0|0:0,0:0:0:0:
168,264,121317,2,0,P|188:228|188:180,1,80
272,140,121666,2,0,L|356:140,1,80,8|0,0:0|0:0,0:0:0:0:
488,304,122015,6,0,P|416:324|364:256,1,160,0|8,0:0|0:0,0:0:0:0:
376,172,122538,1,0,0:0:0:0:
304,340,122713,1,0,0:0:0:0:
209,321,122887,2,0,L|228:244,1,80,0|8,0:0|0:0,0:0:0:0:
284,168,123236,1,0,0:0:0:0:
188,164,123410,6,0,P|207:93|284:72,1,160,0|8,0:0|0:0,0:0:0:0:
380,80,123933,1,0,0:0:0:0:
448,228,124108,2,0,P|424:196|420:156,1,80
512,296,124457,2,0,L|492:376,1,80,8|0,0:0|0:0,0:0:0:0:
396,364,124806,2,0,L|436:204,1,160,4|8,0:0|0:0,0:0:0:0:
480,40,125329,1,0,0:0:0:0:
512,128,125503,2,0,P|436:128|392:52,1,160,0|8,0:0|0:0,0:0:0:0:
392,64,126201,6,0,L|352:224,1,160,4|8,0:0|0:0,0:0:0:0:
320,308,126724,1,0,0:0:0:0:
232,348,126899,2,0,P|192:352|152:336,1,80
0,280,127247,2,0,L|80:280,1,80,8|0,0:0|0:0,0:0:0:0:
271,217,127596,2,0,P|228:244|136:204,1,160,4|8,0:0|0:0,0:0:0:0:
120,108,128120,1,0,0:0:0:0:
48,172,128294,2,0,P|26:135|26:94,1,80
76,16,128643,5,8,0:0:0:0:
172,32,128817,1,0,0:0:0:0:
212,120,128992,2,0,L|292:116,1,80,4|0,0:0|0:0,0:0:0:0:
388,104,129340,1,8,0:0:0:0:
291,116,129515,1,0,0:0:0:0:
388,104,129689,2,0,P|392:64|376:24,1,80
136,168,130038,2,0,P|164:196|208:204,1,80,8|0,0:0|0:0,0:0:0:0:
220,192,130300,1,0,0:0:0:0:
236,180,130387,6,0,L|320:180,1,80,4|0,0:0|0:0,0:0:0:0:
412,176,130736,1,12,0:0:0:0:
480,108,130910,1,0,0:0:0:0:
268,56,131085,1,8,0:0:0:0:
268,56,131172,1,0,0:0:0:0:
268,56,131259,1,0,0:0:0:0:
236,180,131433,1,8,0:0:0:0:
255,202,131521,1,0,0:0:0:0:
282,216,131608,1,0,0:0:0:0:
311,221,131695,1,0,0:0:0:0:
340,217,131782,5,4,0:0:0:0:
404,292,131957,2,0,P|415:326|411:374,1,80,0|8,0:0|0:0,0:0:0:0:
340,216,132306,5,0,0:0:0:0:
348,118,132480,2,0,P|364:86|404:60,1,80,8|8,0:0|0:0,0:0:0:0:
340,216,132829,5,4,0:0:0:0:
241,208,133003,2,0,P|209:191|184:148,1,80,0|8,0:0|0:0,0:0:0:0:
80,28,133352,5,0,0:0:0:0:
104,120,133526,2,0,L|100:204,1,80,8|8,0:0|0:0,0:0:0:0:
96,296,133875,5,0,0:0:0:0:
288,280,134050,1,0,0:0:0:0:
130,213,134224,1,8,0:0:0:0:
253,362,134399,6,0,P|304:372|372:296,1,160,4|0,0:0|0:0,0:0:0:0:
356,204,134922,2,0,L|360:120,1,80,8|0,0:0|0:0,0:0:0:0:
368,28,135271,1,0,0:0:0:0:
184,144,135445,2,0,P|224:148|268:132,1,80,0|8,0:0|0:0,0:0:0:0:
360,124,135794,1,0,0:0:0:0:
92,88,135968,2,0,L|96:176,1,80
256,196,136317,2,0,L|252:275,1,80,8|0,0:0|0:0,0:0:0:0:
248,372,136666,5,0,0:0:0:0:
172,316,136840,1,0,0:0:0:0:
344,236,137015,2,0,P|352:200|344:156,1,80,8|0,0:0|0:0,0:0:0:0:
260,108,137364,1,0,0:0:0:0:
172,232,137538,2,0,L|84:220,1,80,0|8,0:0|0:0,0:0:0:0:
33,110,137887,2,0,P|117:131|168:88,1,160
220,8,138410,1,8,0:0:0:0:
308,48,138585,6,0,L|296:216,1,160
288,304,139108,1,8,0:0:0:0:
136,352,139282,1,0,0:0:0:0:
124,192,139457,1,8,0:0:0:0:
124,192,139544,1,0,0:0:0:0:
124,192,139631,1,0,0:0:0:0:
124,192,139718,1,0,0:0:0:0:
124,192,139806,1,8,0:0:0:0:
316,376,139980,6,0,P|240:372|208:284,1,160,4|0,0:0|0:0,0:0:0:0:
300,292,140503,2,0,L|388:284,1,80,8|0,0:0|0:0,0:0:0:0:
476,280,140852,1,0,0:0:0:0:
412,208,141026,2,0,P|448:192|488:192,1,80,0|8,0:0|0:0,0:0:0:0:
300,292,141375,2,0,L|308:132,1,160,4|0,0:0|0:0,0:0:0:0:
364,52,141899,1,8,0:0:0:0:
300,292,142073,2,0,P|228:300|180:236,1,160,4|0,0:0|0:0,0:0:0:0:
176,140,142596,1,8,0:0:0:0:
340,192,142771,2,0,L|252:224,1,80,4|0,0:0|0:0,0:0:0:0:
172,248,143120,5,0,0:0:0:0:
172,248,143207,1,0,0:0:0:0:
172,248,143294,1,8,0:0:0:0:
172,248,143381,1,0,0:0:0:0:
340,192,143643,5,0,0:0:0:0:
340,192,143730,1,0,0:0:0:0:
340,192,143817,1,0,0:0:0:0:
340,192,143904,1,0,0:0:0:0:
340,192,143992,1,8,0:0:0:0:
345,294,144166,5,0,0:0:0:0:
368,312,144253,1,0,0:0:0:0:
396,322,144340,1,0,0:0:0:0:
426,321,144428,1,0,0:0:0:0:
453,310,144515,1,0,0:0:0:0:
200,336,144689,5,8,0:0:0:0:
170,330,144776,1,0,0:0:0:0:
141,324,144864,1,0,0:0:0:0:
111,318,144951,1,0,0:0:0:0:
82,313,145038,1,0,0:0:0:0:
244,200,145213,5,0,0:0:0:0:
86,173,145387,1,8,0:0:0:0:
141,324,145561,2,0,P|212:356|268:300,1,160,4|0,0:0|0:0,0:0:0:0:
284,212,146085,2,0,L|284:160,3,40,8|0|0|0,0:0|0:0|0:0|0:0,0:0:0:0:
244,236,146433,5,0,0:0:0:0:
208,253,146521,1,0,0:0:0:0:
168,253,146608,1,0,0:0:0:0:
133,235,146695,1,0,0:0:0:0:
110,203,146782,1,0,0:0:0:0:
103,164,146870,1,0,0:0:0:0:
115,126,146957,1,4,0:0:0:0:
115,126,147306,5,0,0:0:0:0:
168,253,147480,1,0,0:0:0:0:
284,212,147654,1,0,0:0:0:0:
284,212,148003,5,2,0:0:0:0:
244,124,148178,1,2,0:0:0:0:
304,48,148352,1,2,0:0:0:0:
148,136,148526,6,0,P|91:149|36:115,1,120.000004577637,4|0,0:0|0:0,0:0:0:0:
48,36,149050,1,0,0:0:0:0:
12,236,149224,2,0,L|24:296,1,60.0000022888184,8|0,0:0|0:0,0:0:0:0:
136,352,149573,2,0,L|129:288,1,60.0000022888184,0|0,0:0|0:0,0:0:0:0:
248,336,149922,2,0,P|314:343|357:310,1,120.000004577637,0|2,0:0|0:0,0:0:0:0:
376,232,150445,1,0,0:0:0:0:
288,260,150620,2,0,P|292:228|288:192,1,60.0000022888184,8|2,0:0|0:0,0:0:0:0:
176,208,150968,2,0,P|169:176|153:143,1,60.0000022888184,2|2,0:0|0:0,0:0:0:0:
36,116,151317,6,0,P|100:76|108:36,1,120.000004577637,2|0,0:0|0:0,0:0:0:0:
28,36,151840,1,0,0:0:0:0:
176,88,152015,2,0,P|189:56|191:31,1,60.0000022888184,8|0,0:0|0:0,0:0:0:0:
276,140,152364,2,0,L|272:80,1,60.0000022888184,0|0,0:0|0:0,0:0:0:0:
336,212,152713,1,0,0:0:0:0:
364,132,152887,5,2,0:0:0:0:
352,308,153061,2,0,L|292:298,1,60.0000022888184,2|2,0:0|0:0,0:0:0:0:
244,224,153410,2,0,L|172:212,1,60.0000022888184,10|0,0:0|0:0,0:0:0:0:
168,208,153672,1,0,0:0:0:0:
152,204,153759,1,0,0:0:0:0:
104,128,153933,1,0,0:0:0:0:
28,172,154108,5,4,0:0:0:0:
44,316,154282,2,0,P|88:308|116:280,1,80,0|8,0:0|0:0,0:0:0:0:
0,248,154631,1,0,0:0:0:0:
113,284,154806,1,0,0:0:0:0:
176,356,154980,2,0,P|201:319|201:279,1,80,0|8,0:0|0:0,0:0:0:0:
160,196,155329,5,0,0:0:0:0:
240,144,155503,2,0,L|236:64,1,80,0|0,0:0|0:0,0:0:0:0:
440,140,155852,2,0,L|444:220,1,80,8|0,0:0|0:0,0:0:0:0:
424,312,156201,2,0,P|384:320|344:308,1,80
232,216,156550,2,0,L|312:220,1,80,8|0,0:0|0:0,0:0:0:0:
160,284,156899,6,0,P|133:247|131:206,1,80,4|0,0:0|0:0,0:0:0:0:
368,68,157247,2,0,P|360:112|333:142,1,80,8|0,0:0|0:0,0:0:0:0:
244,140,157596,2,0,L|160:120,1,80,8|0,0:0|0:0,0:0:0:0:
244,304,157945,2,0,L|328:324,1,80,8|0,0:0|0:0,0:0:0:0:
400,268,158294,6,0,P|412:228|404:188,1,80,8|0,0:0|0:0,0:0:0:0:
216,92,158643,2,0,P|204:132|212:172,1,80,8|0,0:0|0:0,0:0:0:0:
224,188,158904,1,0,0:0:0:0:
240,208,158992,2,0,P|252:248|245:284,1,80,8|0,0:0|0:0,0:0:0:0:
232,304,159253,1,0,0:0:0:0:
212,316,159340,1,8,0:0:0:0:
32,248,159602,5,0,0:0:0:0:
32,248,159689,1,8,0:0:0:0:
224,188,159864,2,0,L|264:180,2,40,0|0|0,0:0|0:0|0:0,0:0:0:0:
132,216,160213,1,8,0:0:0:0:
352,156,160387,2,0,L|392:148,2,40
156,128,160736,2,0,P|144:92|152:48,1,80,8|0,0:0|0:0,0:0:0:0:
236,8,161085,5,0,0:0:0:0:
352,156,161259,1,0,0:0:0:0:
336,0,161433,1,0,0:0:0:0:
251,165,161608,1,0,0:0:0:0:
176,228,161782,2,0,P|136:232|100:216,1,80
24,160,162131,1,0,0:0:0:0:
24,160,162218,1,0,0:0:0:0:
24,160,162306,1,0,0:0:0:0:
24,160,162393,1,0,0:0:0:0:
24,160,162480,6,0,L|20:80,1,80,4|0,0:0|0:0,0:0:0:0:
48,264,162829,2,0,P|84:249|110:218,1,80,8|0,0:0|0:0,0:0:0:0:
148,132,163178,1,0,0:0:0:0:
96,344,163352,1,0,0:0:0:0:
172,288,163526,2,0,L|203:214,1,80,8|0,0:0|0:0,0:0:0:0:
268,304,163875,6,0,P|324:236|396:252,1,160,0|8,0:0|0:0,0:0:0:0:
356,336,164399,1,0,0:0:0:0:
204,364,164573,2,0,L|112:356,1,80
280,208,164922,2,0,L|188:216,1,80,8|0,0:0|0:0,0:0:0:0:
16,105,165271,6,0,P|84:140|160:84,1,160,0|8,0:0|0:0,0:0:0:0:
184,12,165794,1,0,0:0:0:0:
252,92,165968,1,0,0:0:0:0:
348,136,166143,2,0,P|388:144|440:132,1,80,0|8,0:0|0:0,0:0:0:0:
504,80,166492,1,0,0:0:0:0:
400,248,166666,5,4,0:0:0:0:
400,248,167015,1,8,0:0:0:0:
484,292,167189,2,0,P|428:351|360:331,1,160,4|0,0:0|0:0,0:0:0:0:
280,192,167713,2,0,L|272:272,1,80,8|0,0:0|0:0,0:0:0:0:
232,352,168061,6,0,P|156:352|116:284,2,160,0|8|0,0:0|0:0|0:0,0:0:0:0:
232,352,169108,2,0,L|312:344,1,80,8|0,0:0|0:0,0:0:0:0:
408,328,169457,1,4,0:0:0:0:
344,256,169631,2,0,P|336:220|340:172,1,80,0|8,0:0|0:0,0:0:0:0:
206,28,169980,2,0,P|260:60|248:148,1,160,4|0,0:0|0:0,0:0:0:0:
60,248,170503,2,0,L|160:244,1,80,8|0,0:0|0:0,0:0:0:0:
232,224,170852,5,4,0:0:0:0:
323,194,171026,1,0,0:0:0:0:
231,68,171201,1,8,0:0:0:0:
323,98,171375,1,0,0:0:0:0:
175,146,171550,2,0,L|96:140,1,80
44,60,171899,2,0,P|16:84|4:124,1,80,8|0,0:0|0:0,0:0:0:0:
156,316,172247,2,0,P|179:245|131:184,1,160,4|8,0:0|0:0,0:0:0:0:
76,264,172771,1,0,0:0:0:0:
156,316,172945,6,0,L|195:319,1,40
296,276,173119,2,0,L|257:273,1,40,0|0,0:0|0:0,0:0:0:0:
324,352,173294,2,0,L|363:355,1,40
464,312,173468,2,0,L|425:309,1,40,0|0,0:0|0:0,0:0:0:0:
488,236,173643,6,0,L|500:152,1,80,4|0,0:0|0:0,0:0:0:0:
424,44,173992,2,0,L|412:124,1,80,8|0,0:0|0:0,0:0:0:0:
396,216,174340,1,0,0:0:0:0:
316,160,174515,2,0,P|280:140|236:140,1,80,0|8,0:0|0:0,0:0:0:0:
156,184,174864,1,0,0:0:0:0:
202,378,175038,6,0,P|246:334|232:244,1,160,0|8,0:0|0:0,0:0:0:0:
68,156,175561,1,0,0:0:0:0:
156,184,175736,2,0,P|160:144|148:104,1,80
20,276,176085,2,0,L|104:264,1,80,8|0,0:0|0:0,0:0:0:0:
196,260,176433,6,0,P|244:240|252:140,1,160,0|8,0:0|0:0,0:0:0:0:
200,64,176957,1,0,0:0:0:0:
348,200,177131,2,0,L|344:108,1,80
284,44,177480,2,0,P|248:24|204:24,1,80,8|0,0:0|0:0,0:0:0:0:
216,188,177829,2,0,P|312:228|348:200,1,160,4|8,0:0|0:0,0:0:0:0:
364,104,178352,1,0,0:0:0:0:
216,188,178526,2,0,L|136:176,1,80
272,268,178875,2,0,P|304:236|312:203,1,80,8|0,0:0|0:0,0:0:0:0:
472,280,179224,6,0,P|412:264|348:344,1,160,4|8,0:0|0:0,0:0:0:0:
440,372,179747,1,0,0:0:0:0:
472,280,179922,2,0,P|488:240|484:200,1,80
304,256,180271,2,0,L|392:240,1,80,8|0,0:0|0:0,0:0:0:0:
408,148,180620,2,0,P|432:96|368:8,1,160,4|8,0:0|0:0,0:0:0:0:
300,60,181143,1,0,0:0:0:0:
149,120,181317,2,0,P|184:128|228:120,1,80
68,160,181666,2,0,L|60:240,1,80,8|0,0:0|0:0,0:0:0:0:
56,264,181928,1,0,0:0:0:0:
52,288,182015,6,0,P|88:308|128:308,1,80,0|0,0:0|0:0,0:0:0:0:
328,160,182364,2,0,P|292:140|252:140,1,80
108,196,182713,2,0,P|144:216|184:216,1,80
384,68,183061,2,0,P|348:48|308:48,1,80
220,80,183410,1,0,0:0:0:0:
184,104,184282,1,0,0:0:0:0:
184,104,184370,1,0,0:0:0:0:
184,104,184457,2,0,L|184:184,1,80
280,192,184806,6,0,P|212:184|160:260,1,160,4|8,0:0|0:0,0:0:0:0:
260,300,185329,1,0,0:0:0:0:
76,240,185503,2,0,L|79:319,1,80
180,368,185852,1,8,0:0:0:0:
324,308,186026,2,0,P|388:252|376:184,1,160
392,376,186550,2,0,L|472:380,1,80,8|0,0:0|0:0,0:0:0:0:
323,308,186899,2,0,L|240:304,1,80
96,364,187247,2,0,P|120:332|124:288,1,80,8|0,0:0|0:0,0:0:0:0:
128,212,187596,6,0,L|120:44,2,160,0|8|0,0:0|0:0|0:0,0:0:0:0:
240,320,188468,2,0,P|261:283|258:241,1,80,0|8,0:0|0:0,0:0:0:0:
72,168,188817,2,0,P|129:262|172:262,1,160,4|0,0:0|0:0,0:0:0:0:
248,208,189340,2,0,L|336:200,1,80,8|0,0:0|0:0,0:0:0:0:
424,188,189689,1,0,0:0:0:0:
327,200,189864,1,0,0:0:0:0:
327,200,189951,1,0,0:0:0:0:
327,200,190038,1,8,0:0:0:0:
484,352,190213,6,0,P|508:280|456:216,1,160,4|0,0:0|0:0,0:0:0:0:
384,276,190736,2,0,L|288:288,1,80,8|0,0:0|0:0,0:0:0:0:
208,296,191085,1,0,0:0:0:0:
72,152,191259,2,0,P|108:168|136:200,1,80,0|8,0:0|0:0,0:0:0:0:
112,292,191608,6,0,P|144:224|232:220,1,160,4|0,0:0|0:0,0:0:0:0:
212,312,192131,1,8,0:0:0:0:
80,256,192306,2,0,P|112:188|200:184,1,160,4|0,0:0|0:0,0:0:0:0:
212,312,192829,1,8,0:0:0:0:
44,220,193003,2,0,P|76:152|164:148,1,160,4|0,0:0|0:0,0:0:0:0:
236,196,193526,1,8,0:0:0:0:
292,280,193701,5,0,0:0:0:0:
296,108,193875,1,0,0:0:0:0:
344,200,194050,2,0,P|384:224|428:228,1,80,0|8,0:0|0:0,0:0:0:0:
436,46,194399,2,0,L|392:112,1,80,4|0,0:0|0:0,0:0:0:0:
328,184,194747,2,0,P|280:188|244:172,1,80,0|8,0:0|0:0,0:0:0:0:
168,136,195096,1,0,0:0:0:0:
168,136,195183,1,0,0:0:0:0:
168,136,195271,1,0,0:0:0:0:
20,256,195445,2,0,L|116:252,1,80,8|8,0:0|0:0,0:0:0:0:
196,252,195794,5,0,0:0:0:0:
196,252,195881,1,0,0:0:0:0:
196,252,195968,2,0,P|276:240|296:172,2,160,4|8|0,0:0|0:0|0:0,0:0:0:0:
44,200,196840,2,0,L|52:280,1,80,0|8,0:0|0:0,0:0:0:0:
136,328,197189,2,0,P|240:348|272:304,1,160,4|0,0:0|0:0,0:0:0:0:
440,168,197713,2,0,P|403:180|375:210,1,80,8|0,0:0|0:0,0:0:0:0:
352,356,198061,2,0,L|328:276,1,80
304,184,198410,1,8,0:0:0:0:
112,240,198585,1,0,0:0:0:0:
112,240,198672,1,0,0:0:0:0:
112,240,198759,6,0,P|168:288|248:256,2,160,4|8|0,0:0|0:0|0:0,0:0:0:0:
24,280,199631,2,0,L|80:348,1,80,0|8,0:0|0:0,0:0:0:0:
273,305,199980,2,0,P|204:252|144:276,1,160,4|0,0:0|0:0,0:0:0:0:
196,364,200503,1,8,0:0:0:0:
273,305,200678,2,0,L|316:144,1,160,4|0,0:0|0:0,0:0:0:0:
396,104,201201,1,8,0:0:0:0:
372,196,201375,6,0,P|296:132|308:80,1,160,4|0,0:0|0:0,0:0:0:0:
216,44,201899,2,0,L|204:128,1,80,8|0,0:0|0:0,0:0:0:0:
104,196,202247,2,0,P|144:192|184:208,1,80,8|0,0:0|0:0,0:0:0:0:
200,220,202509,1,0,0:0:0:0:
216,236,202596,6,0,P|256:252|300:244,1,80,8|0,0:0|0:0,0:0:0:0:
360,300,202945,2,0,L|448:292,1,80,8|0,0:0|0:0,0:0:0:0:
328,384,203294,2,0,P|288:356|272:324,1,80,8|0,0:0|0:0,0:0:0:0:
220,220,203643,2,0,L|184:296,1,80,8|0,0:0|0:0,0:0:0:0:
172,312,203904,1,0,0:0:0:0:
160,332,203992,1,8,0:0:0:0:
24,224,204166,6,0,P|72:164|160:184,1,160,4|0,0:0|0:0,0:0:0:0:
240,200,204689,2,0,P|268:164|272:120,1,80,0|0,0:0|0:0,0:0:0:0:
308,260,205038,2,0,L|304:344,1,80
400,360,205387,2,0,P|440:368|484:360,1,80
500,268,205736,5,0,0:0:0:0:
436,196,205910,1,0,0:0:0:0:
436,196,205997,1,0,0:0:0:0:
436,196,206085,1,0,0:0:0:0:
308,340,206259,1,0,0:0:0:0:
268,184,206433,5,0,0:0:0:0:
268,184,206521,1,0,0:0:0:0:
268,184,206608,1,0,0:0:0:0:
236,92,206782,1,0,0:0:0:0:
328,112,206957,1,4,0:0:0:0:
256,192,207044,12,0,212625,0:0:0:0:
