osu file format v12

[General]
AudioFilename: kokuhaku biyori, desu!.mp3
AudioLeadIn: 2000
PreviewTime: 159689
Countdown: 0
SampleSet: Soft
StackLeniency: 0.6
Mode: 0
LetterboxInBreaks: 1

[Editor]
DistanceSpacing: 1.2
BeatDivisor: 4
GridSize: 4

[Metadata]
Title:Kokuhaku Biyori, desu!
TitleUnicode:告白日和、です!
Artist:Uchida Aya & Kubo Yurika
ArtistUnicode:内田彩 & 久保ユリカ
Creator:Rare
Version:Hard
Source:Love Live! School idol project
Tags:µ's Album Best Live! collection Disc 2 Minami Kotori Koizumi Hanayo
BeatmapID:231573
BeatmapSetID:83754

[Difficulty]
HPDrainRate:6
CircleSize:4
OverallDifficulty:6
ApproachRate:7
SliderMultiplier:1.4
SliderTickRate:1

[Events]
//Background and Video events
0,0,"moe!!!.jpg",0,0
//Break Periods
2,6401,10882
2,71782,73673
2,134424,147626
//Storyboard Layer 0 (Background)
//Storyboard Layer 1 (Fail)
//Storyboard Layer 2 (Pass)
//Storyboard Layer 3 (Foreground)
//Storyboard Sound Samples
//Background Colour Transformations
3,100,163,162,255

[TimingPoints]
620,348.837209302326,4,2,1,70,1,0
620,-133.333333333333,4,2,1,70,0,0
11782,-100,4,2,1,70,0,0
34108,-133.333333333333,4,2,1,70,0,0
39689,-100,4,2,1,70,0,0
45794,-100,4,1,1,50,0,0
46666,-100,4,2,1,80,0,1
68992,-100,4,2,1,70,0,0
74573,-133.333333333333,4,2,1,70,0,0
78759,-133.333333333333,4,2,1,60,0,0
79282,-133.333333333333,4,2,1,70,0,0
82945,-133.333333333333,4,1,1,50,0,0
84864,-133.333333333333,4,2,1,70,0,0
85561,-100,4,2,1,70,0,0
96899,-133.333333333333,4,2,1,70,0,0
102480,-100,4,2,1,70,0,0
108585,-100,4,1,1,50,0,0
109457,-100,4,2,1,80,0,1
119922,-100,4,1,1,50,0,1
120620,-100,4,2,1,80,0,1
131782,-100,4,2,1,70,0,0
148526,-133.333333333333,4,2,1,70,0,0
154108,-100,4,2,1,70,0,0
162131,-100,4,1,1,50,0,0
162480,-100,4,2,1,80,0,1
172945,-100,4,1,1,50,0,1
173643,-100,4,2,1,80,0,1
182015,-100,4,1,1,40,0,1
183410,-200,4,1,1,50,0,1
183759,-200,4,1,1,10,0,1
184108,-200,4,1,1,20,0,1
184282,-200,4,1,1,40,0,1
184457,-100,4,2,1,80,0,1
184806,-100,4,2,1,70,0,0
204689,-100,4,1,1,50,0,0
205736,-100,4,1,1,60,0,0
212625,-100,4,2,1,5,0,0

[Colours]
Combo1 : 255,150,0
Combo2 : 0,128,255
Combo3 : 255,128,128
Combo4 : 196,196,136

[HitObjects]
392,332,620,2,0,P|432:272|404:192,1,157.500006008148,2|0,0:0|0:0,0:0:0:0:
360,132,1317,2,0,L|372:76,2,52.5000020027161,0|0|2,0:0|0:0|0:0,0:0:0:0:
332,208,1840,1,0,0:0:0:0:
304,284,2015,2,0,P|252:316|156:284,1,157.500006008148,2|0,0:0|0:0,0:0:0:0:
84,292,2713,2,0,L|80:232,1,52.5000020027161
32,176,3061,2,0,L|28:116,1,52.5000020027161,2|0,0:0|0:0,0:0:0:0:
20,44,3410,2,0,P|76:88|152:64,1,157.500006008148,2|0,0:0|0:0,0:0:0:0:
216,16,4108,5,2,0:0:0:0:
236,92,4282,1,0,0:0:0:0:
292,36,4457,2,0,P|320:28|356:28,1,52.5000020027161
424,32,4806,2,0,P|452:100|400:168,1,157.500006008148,2|0,0:0|0:0,0:0:0:0:
348,216,5503,2,0,L|240:216,1,105.000004005432,2|8,0:0|0:0,0:0:0:0:
164,220,6026,1,0,0:0:0:0:
164,220,6114,1,0,0:0:0:0:
164,220,6201,1,4,0:0:0:0:
252,288,11782,5,4,0:0:0:0:
176,324,11957,2,0,L|92:324,1,70,0|8,0:0|0:0,0:0:0:0:
32,284,12306,2,0,P|12:216|40:156,1,140
88,88,12829,2,0,P|112:112|124:148,1,70,8|0,0:0|0:0,0:0:0:0:
148,228,13178,2,0,P|240:220|260:176,1,140,0|8,0:0|0:0,0:0:0:0:
148,228,13701,2,0,L|284:284,1,140
356,308,14224,2,0,P|380:284|392:244,1,70,8|0,0:0|0:0,0:0:0:0:
476,264,14573,2,0,P|476:230|456:193,1,70
380,168,14922,5,8,0:0:0:0:
312,120,15096,2,0,P|296:88|296:54,2,70
304,204,15620,2,0,L|304:280,1,70,8|0,0:0|0:0,0:0:0:0:
304,356,15968,1,0,0:0:0:0:
154,335,16143,2,0,L|224:328,1,70,0|8,0:0|0:0,0:0:0:0:
212,244,16492,2,0,L|68:260,1,140
40,336,17015,1,8,0:0:0:0:
12,196,17189,5,0,0:0:0:0:
0,112,17364,2,0,P|36:116|72:136,1,70,4|0,0:0|0:0,0:0:0:0:
100,208,17713,2,0,P|160:188|180:112,2,140,8|0|8,0:0|0:0|0:0,0:0:0:0:
44,272,18585,1,0,0:0:0:0:
124,292,18759,2,0,P|180:292|224:356,1,140,4|8,0:0|0:0,0:0:0:0:
152,360,19282,2,0,L|296:352,1,140,4|0,0:0|0:0,0:0:0:0:
376,348,19806,1,8,0:0:0:0:
436,288,19980,5,0,0:0:0:0:
504,240,20154,2,0,P|512:204|508:168,1,70,4|0,0:0|0:0,0:0:0:0:
436,67,20503,2,0,P|428:103|432:136,1,70,8|0,0:0|0:0,0:0:0:0:
408,216,20852,1,0,0:0:0:0:
340,264,21026,2,0,P|300:268|264:256,1,70,0|8,0:0|0:0,0:0:0:0:
232,184,21375,5,0,0:0:0:0:
232,184,21463,1,0,0:0:0:0:
232,184,21550,2,0,P|183:138|112:140,1,140,4|8,0:0|0:0,0:0:0:0:
84,220,22073,2,0,P|132:265|204:264,1,140,4|0,0:0|0:0,0:0:0:0:
288,252,22596,1,8,0:0:0:0:
336,324,22771,1,0,0:0:0:0:
376,252,22945,6,0,P|408:240|448:244,1,70,4|0,0:0|0:0,0:0:0:0:
496,176,23294,2,0,L|496:104,1,70,8|0,0:0|0:0,0:0:0:0:
412,124,23643,2,0,L|412:44,1,70
328,44,23992,2,0,P|296:28|256:28,1,70,8|0,0:0|0:0,0:0:0:0:
268,112,24340,6,0,P|200:92|176:24,1,140,0|8,0:0|0:0,0:0:0:0:
175,32,24864,2,0,L|152:104,1,70
128,180,25213,1,2,0:0:0:0:
76,116,25387,2,0,P|52:100|12:92,1,70,10|2,0:0|0:0,0:0:0:0:
60,228,25736,2,0,P|128:268|180:244,1,140,2|8,0:0|0:0,0:0:0:0:
212,168,26259,5,0,0:0:0:0:
268,232,26433,2,0,L|344:232,1,70
416,264,26782,2,0,P|424:228|416:196,1,70,8|0,0:0|0:0,0:0:0:0:
352,144,27131,2,0,P|344:108|352:76,1,70,2|0,0:0|0:0,0:0:0:0:
428,108,27480,1,8,0:0:0:0:
416,192,27654,2,0,L|416:304,1,105,2|0,0:0|0:0,0:0:0:0:
364,364,28178,2,0,P|328:372|292:368,1,70,8|0,0:0|0:0,0:0:0:0:
228,316,28526,6,0,L|84:316,1,140,4|8,0:0|0:0,0:0:0:0:
4,316,29050,1,0,0:0:0:0:
52,248,29224,2,0,P|64:216|60:176,1,70,2|0,0:0|0:0,0:0:0:0:
3,45,29573,2,0,P|17:76|44:100,1,70,8|0,0:0|0:0,0:0:0:0:
124,124,29922,2,0,P|200:120|232:60,1,140,2|8,0:0|0:0,0:0:0:0:
152,48,30445,1,2,0:0:0:0:
124,124,30620,2,0,L|124:208,1,70
124,276,30968,1,8,0:0:0:0:
124,276,31056,1,0,0:0:0:0:
124,276,31143,1,0,0:0:0:0:
160,352,31317,5,4,0:0:0:0:
244,368,31492,2,0,P|276:376|320:368,1,70,0|8,0:0|0:0,0:0:0:0:
396,345,31840,2,0,P|348:292|284:292,2,140,2|2|4,0:0|0:0|0:0,0:0:0:0:
396,344,32887,5,0,0:0:0:0:
440,272,33061,2,0,L|428:200,1,70,8|0,0:0|0:0,0:0:0:0:
412,120,33410,2,0,L|404:80,2,35,8|0|0,0:0|0:0|0:0,0:0:0:0:
348,176,33759,2,0,P|316:188|280:184,1,70,8|0,0:0|0:0,0:0:0:0:
264,168,34021,1,0,0:0:0:0:
248,148,34108,6,0,L|140:148,1,105.000004005432,4|0,0:0|0:0,0:0:0:0:
64,148,34631,1,0,0:0:0:0:
20,216,34806,2,0,L|16:276,1,52.5000020027161,8|0,0:0|0:0,0:0:0:0:
96,280,35154,2,0,L|102:339,1,52.5000020027161
176,352,35503,2,0,P|216:324|272:328,1,105.000004005432,0|2,0:0|0:0,0:0:0:0:
340,360,36026,1,2,0:0:0:0:
404,312,36201,2,0,L|400:259,1,52.5000020027161,8|2,0:0|0:0,0:0:0:0:
480,248,36550,2,0,L|476:195,1,52.5000020027161,2|2,0:0|0:0,0:0:0:0:
476,116,36899,6,0,P|428:92|376:100,1,105.000004005432,2|0,0:0|0:0,0:0:0:0:
332,160,37422,1,0,0:0:0:0:
292,228,37596,2,0,L|232:220,1,52.5000020027161,8|0,0:0|0:0,0:0:0:0:
172,272,37945,2,0,L|152:224,1,52.5000020027161
68,212,38294,2,0,P|84:168|140:144,1,105.000004005432
220,136,38817,1,0,0:0:0:0:
292,180,38992,2,0,P|344:188|392:152,1,105.000004005432,8|8,0:0|0:0,0:0:0:0:
396,140,39428,1,0,0:0:0:0:
396,120,39515,1,0,0:0:0:0:
348,52,39689,5,4,0:0:0:0:
268,72,39864,1,0,0:0:0:0:
276,156,40038,2,0,L|276:236,1,70,8|0,0:0|0:0,0:0:0:0:
272,312,40387,2,0,P|240:324|192:320,1,70
70,268,40736,2,0,L|140:268,1,70,8|0,0:0|0:0,0:0:0:0:
24,192,41085,2,0,P|12:160|16:112,1,70
96,140,41433,2,0,P|164:152|212:104,2,140,8|0|8,0:0|0:0|0:0,0:0:0:0:
56,64,42306,5,0,0:0:0:0:
140,68,42480,2,0,P|168:40|200:32,1,70,4|0,0:0|0:0,0:0:0:0:
276,56,42829,2,0,L|348:56,1,70,8|0,0:0|0:0,0:0:0:0:
412,112,43178,2,0,P|420:148|412:188,1,70,8|0,0:0|0:0,0:0:0:0:
352,236,43526,2,0,P|344:272|352:312,1,70,8|0,0:0|0:0,0:0:0:0:
256,192,43875,12,4,45271,0:0:0:0:
260,360,45794,6,0,P|208:384|140:344,1,140,0|0,0:0|0:0,0:0:0:0:
80,288,46317,2,0,L|56:252,3,35
80,288,46666,6,0,P|132:236|120:172,1,140,4|8,0:0|0:0,0:0:0:0:
72,108,47189,1,0,0:0:0:0:
140,60,47364,2,0,P|176:48|212:52,1,70
260,116,47713,2,0,L|296:52,1,70,8|0,0:0|0:0,0:0:0:0:
356,112,48061,2,0,P|432:120|472:64,2,140,0|8|0,0:0|0:0|0:0,0:0:0:0:
312,184,48933,1,0,0:0:0:0:
392,212,49108,2,0,L|396:284,1,70,8|0,0:0|0:0,0:0:0:0:
400,364,49457,6,0,P|336:384|272:336,1,140,0|8,0:0|0:0,0:0:0:0:
236,272,49980,1,0,0:0:0:0:
96,260,50154,1,0,0:0:0:0:
164,212,50329,1,0,0:0:0:0:
192,132,50503,1,8,0:0:0:0:
160,56,50678,1,0,0:0:0:0:
112,124,50852,6,0,P|196:133|232:96,1,140,4|8,0:0|0:0,0:0:0:0:
292,40,51375,2,0,L|436:40,1,140,4|0,0:0|0:0,0:0:0:0:
460,120,51899,2,0,L|384:120,1,70,8|0,0:0|0:0,0:0:0:0:
308,120,52247,6,0,P|300:160|304:196,1,70
360,248,52596,2,0,L|364:328,1,70,8|0,0:0|0:0,0:0:0:0:
272,356,52945,2,0,L|268:276,1,70
216,220,53294,2,0,P|184:200|152:196,1,70,8|0,0:0|0:0,0:0:0:0:
68,212,53643,5,4,0:0:0:0:
64,296,53817,2,0,P|100:288|132:264,1,70,0|8,0:0|0:0,0:0:0:0:
180,204,54166,2,0,L|184:60,1,140,4|0,0:0|0:0,0:0:0:0:
260,32,54689,2,0,L|260:108,1,70,8|0,0:0|0:0,0:0:0:0:
264,188,55038,6,0,P|296:200|336:196,1,70,4|0,0:0|0:0,0:0:0:0:
412,176,55387,2,0,P|445:170|478:146,1,70,8|0,0:0|0:0,0:0:0:0:
420,88,55736,2,0,L|420:12,1,70
308,46,56085,2,0,L|308:116,1,70,8|0,0:0|0:0,0:0:0:0:
308,200,56433,6,0,P|260:228|184:204,1,140,4|8,0:0|0:0,0:0:0:0:
124,144,56957,1,0,0:0:0:0:
124,144,57044,1,0,0:0:0:0:
124,144,57131,1,8,0:0:0:0:
52,188,57306,2,0,P|44:224|48:256,1,70,0|8,0:0|0:0,0:0:0:0:
104,320,57654,1,0,0:0:0:0:
180,360,57829,6,0,P|244:376|304:328,1,140,4|8,0:0|0:0,0:0:0:0:
232,288,58352,1,0,0:0:0:0:
300,240,58526,1,0,0:0:0:0:
376,276,58701,2,0,L|448:276,2,70,0|8|0,0:0|0:0|0:0,0:0:0:0:
224,204,59224,6,0,P|192:144|236:68,1,140,0|8,0:0|0:0,0:0:0:0:
300,64,59747,1,0,0:0:0:0:
288,148,59922,1,0,0:0:0:0:
224,204,60096,2,0,L|148:204,2,70,0|8|0,0:0|0:0|0:0,0:0:0:0:
296,332,60620,6,0,P|368:340|416:288,1,140,0|8,0:0|0:0,0:0:0:0:
412,212,61143,1,0,0:0:0:0:
480,260,61317,2,0,P|492:212|488:184,1,70
432,62,61666,2,0,L|432:132,1,70,8|0,0:0|0:0,0:0:0:0:
412,212,62015,2,0,P|348:240|280:204,1,140,4|8,0:0|0:0,0:0:0:0:
232,148,62538,1,0,0:0:0:0:
184,216,62713,2,0,P|140:224|104:216,1,70
40,184,63061,2,0,L|40:256,1,70,8|0,0:0|0:0,0:0:0:0:
36,340,63410,6,0,P|128:376|168:356,1,140,4|8,0:0|0:0,0:0:0:0:
212,296,63933,1,0,0:0:0:0:
284,340,64108,2,0,P|320:348|368:340,1,70
360,260,64457,2,0,P|404:272|436:360,2,140,8|4|8,0:0|0:0|0:0,0:0:0:0:
280,232,65329,1,0,0:0:0:0:
200,208,65503,2,0,L|128:208,1,70
52,244,65852,2,0,P|44:208|52:172,1,70,8|0,0:0|0:0,0:0:0:0:
116,124,66201,6,0,P|124:88|116:52,1,70,4|0,0:0|0:0,0:0:0:0:
44,16,66550,2,0,P|36:52|44:88,1,70,8|0,0:0|0:0,0:0:0:0:
116,124,66899,2,0,P|152:132|192:124,1,70
252,76,67247,2,0,L|332:76,1,70,8|0,0:0|0:0,0:0:0:0:
348,156,67596,6,0,P|400:120|400:48,2,140,4|4|0,0:0|0:0|0:0,0:0:0:0:
276,204,68468,1,0,0:0:0:0:
352,240,68643,2,0,L|352:312,1,70,8|0,0:0|0:0,0:0:0:0:
288,364,68992,2,0,P|220:376|172:328,1,140,4|8,0:0|0:0,0:0:0:0:
200,252,69515,1,0,0:0:0:0:
256,192,69689,12,0,71433,0:0:0:0:
256,192,74573,5,2,0:0:0:0:
184,296,74922,1,2,0:0:0:0:
184,296,75096,2,0,P|144:268|88:268,1,105.000004005432,0|0,0:0|0:0,0:0:0:0:
32,216,75620,2,0,L|28:164,1,52.5000020027161,2|0,0:0|0:0,0:0:0:0:
24,84,75968,2,0,P|72:60|128:72,1,105.000004005432,0|2,0:0|0:0,0:0:0:0:
196,96,76492,2,0,P|244:104|292:80,1,105.000004005432,0|8,0:0|0:0,0:0:0:0:
336,12,77015,5,8,0:0:0:0:
376,88,77189,1,0,0:0:0:0:
376,88,77276,1,0,0:0:0:0:
376,88,77364,2,0,L|376:152,1,52.5000020027161,8|8,0:0|0:0,0:0:0:0:
376,140,77887,6,0,P|424:160|480:144,1,105.000004005432,2|0,0:0|0:0,0:0:0:0:
472,164,78323,1,0,0:0:0:0:
472,180,78410,2,0,L|472:232,1,52.5000020027161,2|0,0:0|0:0,0:0:0:0:
452,308,78759,1,8,0:0:0:0:
396,360,78933,2,0,P|364:368|336:364,1,52.5000020027161,0|8,0:0|0:0,0:0:0:0:
200,285,79282,2,0,P|244:276|292:308,1,105.000004005432,4|0,0:0|0:0,0:0:0:0:
228,356,79806,2,0,L|172:360,1,52.5000020027161
96,364,80154,6,0,P|72:316|84:268,1,105.000004005432,4|0,0:0|0:0,0:0:0:0:
128,200,80678,1,0,0:0:0:0:
128,200,80765,1,0,0:0:0:0:
128,200,80852,2,0,P|132:164|132:144,1,52.5000020027161,8|0,0:0|0:0,0:0:0:0:
60,59,81201,2,0,L|60:112,1,52.5000020027161,0|8,0:0|0:0,0:0:0:0:
48,192,81550,5,4,0:0:0:0:
80,264,81724,2,0,P|112:276|140:276,1,52.5000020027161,0|8,0:0|0:0,0:0:0:0:
208,276,82073,2,0,P|256:268|288:220,1,105.000004005432,4|0,0:0|0:0,0:0:0:0:
216,196,82596,2,0,L|216:140,1,52.5000020027161,8|0,0:0|0:0,0:0:0:0:
216,64,82945,5,0,0:0:0:0:
216,64,83120,1,0,0:0:0:0:
288,36,83294,1,0,0:0:0:0:
288,36,83468,1,0,0:0:0:0:
360,68,83643,2,0,L|424:72,1,52.5000020027161
484,144,83992,2,0,L|432:148,1,52.5000020027161
320,72,84515,6,0,P|267:69|224:117,1,105.000004005432
292,148,85038,1,0,0:0:0:0:
220,260,85213,1,0,0:0:0:0:
164,140,85387,1,0,0:0:0:0:
312,240,85561,6,0,P|308:312|252:348,1,140,4|0,0:0|0:0,0:0:0:0:
168,332,86085,2,0,L|92:332,1,70,8|0,0:0|0:0,0:0:0:0:
24,296,86433,2,0,P|16:256|24:224,1,70
92,110,86782,2,0,L|92:180,1,70,8|0,0:0|0:0,0:0:0:0:
160,232,87131,2,0,P|232:244|276:196,1,140,0|8,0:0|0:0,0:0:0:0:
204,156,87654,1,0,0:0:0:0:
276,200,87829,2,0,L|356:200,1,70,0|2,0:0|0:0,0:0:0:0:
478,256,88178,2,0,L|408:256,1,70,8|2,0:0|0:0,0:0:0:0:
328,280,88526,5,2,0:0:0:0:
244,276,88701,1,0,0:0:0:0:
212,352,88875,2,0,L|136:352,1,70,8|0,0:0|0:0,0:0:0:0:
56,352,89224,2,0,P|48:316|56:276,1,70
8,212,89573,2,0,L|16:132,1,70,8|0,0:0|0:0,0:0:0:0:
28,60,89922,2,0,P|80:24|152:36,1,140,2|8,0:0|0:0,0:0:0:0:
216,92,90445,2,0,P|288:104|340:68,1,140,2|0,0:0|0:0,0:0:0:0:
412,24,90968,2,0,P|420:56|412:100,1,70,8|0,0:0|0:0,0:0:0:0:
360,156,91317,6,0,P|442:175|480:137,2,140,4|8|2,0:0|0:0|0:0,0:0:0:0:
328,76,92189,1,0,0:0:0:0:
276,144,92364,2,0,L|272:216,1,70,8|0,0:0|0:0,0:0:0:0:
268,300,92713,2,0,P|232:256|152:248,1,140,2|8,0:0|0:0,0:0:0:0:
72,272,93236,1,2,0:0:0:0:
24,340,93410,2,0,L|16:200,1,140,0|8,0:0|0:0,0:0:0:0:
16,176,93846,1,0,0:0:0:0:
16,152,93933,1,0,0:0:0:0:
8,68,94108,6,0,P|48:48|80:48,1,70,4|0,0:0|0:0,0:0:0:0:
156,64,94457,1,8,0:0:0:0:
224,116,94631,2,0,L|364:108,2,140,2|2|4,0:0|0:0|0:0,0:0:0:0:
224,116,95678,5,0,0:0:0:0:
148,152,95852,2,0,L|148:224,1,70,8|0,0:0|0:0,0:0:0:0:
148,308,96201,2,0,L|148:344,2,35,8|0|0,0:0|0:0|0:0,0:0:0:0:
220,260,96550,2,0,P|260:248|300:256,1,70,8|0,0:0|0:0,0:0:0:0:
312,264,96811,1,0,0:0:0:0:
332,284,96899,6,0,P|376:296|428:268,1,105.000004005432,4|0,0:0|0:0,0:0:0:0:
440,192,97422,1,0,0:0:0:0:
364,208,97596,2,0,L|352:156,1,52.5000020027161,8|0,0:0|0:0,0:0:0:0:
283,66,97945,2,0,L|284:120,1,52.5000020027161
280,200,98294,2,0,P|228:216|176:188,1,105.000004005432,0|2,0:0|0:0,0:0:0:0:
140,128,98817,1,2,0:0:0:0:
72,88,98992,2,0,L|16:80,1,52.5000020027161,8|2,0:0|0:0,0:0:0:0:
20,179,99340,2,0,L|72:172,1,52.5000020027161,2|0,0:0|0:0,0:0:0:0:
140,128,99689,6,0,P|188:104|244:116,1,105.000004005432,2|0,0:0|0:0,0:0:0:0:
276,180,100213,1,0,0:0:0:0:
200,196,100387,2,0,L|200:248,1,52.5000020027161,8|0,0:0|0:0,0:0:0:0:
328,260,100736,2,0,L|328:312,1,52.5000020027161
260,352,101085,2,0,L|148:352,1,105.000004005432
155,352,101608,1,0,0:0:0:0:
224,260,101782,2,0,L|336:260,1,105.000004005432,8|8,0:0|0:0,0:0:0:0:
352,260,102218,1,0,0:0:0:0:
372,260,102306,1,0,0:0:0:0:
424,324,102480,5,4,0:0:0:0:
452,244,102654,1,0,0:0:0:0:
512,184,102829,2,0,L|512:108,1,70,8|0,0:0|0:0,0:0:0:0:
512,28,103178,2,0,P|468:32|440:24,1,70
396,92,103526,2,0,P|332:64|268:92,1,140,8|0,0:0|0:0,0:0:0:0:
248,172,104050,1,0,0:0:0:0:
332,164,104224,2,0,L|332:236,1,70,8|0,0:0|0:0,0:0:0:0:
168,274,104573,2,0,L|168:204,1,70
252,188,104922,2,0,L|252:260,1,70,8|0,0:0|0:0,0:0:0:0:
88,298,105271,6,0,L|88:228,1,70,4|0,0:0|0:0,0:0:0:0:
88,144,105620,2,0,P|60:132|16:132,1,70,8|0,0:0|0:0,0:0:0:0:
156,192,105968,2,0,P|186:190|225:171,1,70,8|0,0:0|0:0,0:0:0:0:
160,42,106317,2,0,L|164:112,1,70,8|0,0:0|0:0,0:0:0:0:
256,192,106666,12,4,108061,0:0:0:0:
256,80,108585,6,0,P|308:56|376:96,1,140
436,152,109108,2,0,L|460:188,3,35
436,152,109457,6,0,L|424:296,1,140,4|8,0:0|0:0,0:0:0:0:
416,376,109980,1,0,0:0:0:0:
352,320,110154,2,0,P|320:304|284:304,1,70
164,376,110503,2,0,P|189:350|200:316,1,70,8|0,0:0|0:0,0:0:0:0:
156,248,110852,6,0,P|88:192|40:200,1,140,0|8,0:0|0:0,0:0:0:0:
12,276,111375,1,0,0:0:0:0:
92,244,111550,2,0,L|112:176,1,70
36,144,111899,2,0,L|16:76,1,70,8|0,0:0|0:0,0:0:0:0:
96,56,112247,6,0,P|156:84|224:60,1,140,0|8,0:0|0:0,0:0:0:0:
292,16,112771,1,0,0:0:0:0:
340,84,112945,2,0,L|424:80,1,70
284,168,113294,2,0,L|368:164,1,70,8|0,0:0|0:0,0:0:0:0:
440,160,113643,6,0,P|480:212|460:280,1,140,4|8,0:0|0:0,0:0:0:0:
356,368,114166,2,0,P|316:316|336:248,1,140,4|0,0:0|0:0,0:0:0:0:
408,296,114689,1,8,0:0:0:0:
356,368,114864,1,0,0:0:0:0:
284,328,115038,6,0,L|204:320,1,70
136,352,115387,2,0,P|176:300|152:224,1,140,8|0,0:0|0:0,0:0:0:0:
84,196,115910,1,0,0:0:0:0:
88,280,116085,2,0,L|12:272,1,70,8|0,0:0|0:0,0:0:0:0:
136,352,116433,6,0,L|212:360,1,70,4|0,0:0|0:0,0:0:0:0:
268,296,116782,1,8,0:0:0:0:
340,352,116957,2,0,P|424:336|448:288,1,140,4|0,0:0|0:0,0:0:0:0:
460,208,117480,1,8,0:0:0:0:
396,152,117654,1,0,0:0:0:0:
316,172,117829,6,0,P|308:132|312:100,1,70,4|0,0:0|0:0,0:0:0:0:
212,24,118178,2,0,P|220:64|216:96,1,70,8|0,0:0|0:0,0:0:0:0:
164,156,118526,2,0,P|96:172|44:128,2,140,0|8|4,0:0|0:0|0:0,0:0:0:0:
224,96,119399,1,0,0:0:0:0:
308,88,119573,2,0,P|320:120|316:164,1,70,8|0,0:0|0:0,0:0:0:0:
264,220,119922,6,0,L|240:248,3,35
312,272,120271,2,0,L|334:298,3,35,0|0|0|0,0:0|0:0|0:0|0:0,0:0:0:0:
312,272,120620,6,0,P|368:232|440:252,1,140,4|8,0:0|0:0,0:0:0:0:
476,320,121143,1,0,0:0:0:0:
508,244,121317,2,0,L|496:172,1,70
412,160,121666,2,0,L|424:88,1,70,8|0,0:0|0:0,0:0:0:0:
508,36,122015,6,0,P|478:67|387:53,1,140,0|8,0:0|0:0,0:0:0:0:
320,12,122538,1,0,0:0:0:0:
248,56,122713,2,0,L|244:132,1,70
160,224,123061,2,0,L|156:148,1,70,8|0,0:0|0:0,0:0:0:0:
156,68,123410,6,0,P|104:32|24:48,1,140,0|8,0:0|0:0,0:0:0:0:
12,124,123933,1,0,0:0:0:0:
12,208,124108,2,0,P|48:200|76:176,1,70
152,152,124457,2,0,P|180:172|196:212,1,70,8|0,0:0|0:0,0:0:0:0:
160,280,124806,6,0,P|257:347|268:341,1,140,4|8,0:0|0:0,0:0:0:0:
240,268,125329,1,0,0:0:0:0:
316,300,125503,2,0,L|388:300,1,70
464,336,125852,2,0,P|472:300|464:264,1,70,8|0,0:0|0:0,0:0:0:0:
396,220,126201,6,0,P|388:184|396:148,1,70,4|0,0:0|0:0,0:0:0:0:
444,84,126550,2,0,P|376:128|328:108,1,140,8|0,0:0|0:0,0:0:0:0:
244,120,127073,1,0,0:0:0:0:
296,188,127247,2,0,L|296:260,1,70,8|0,0:0|0:0,0:0:0:0:
296,344,127596,6,0,P|232:364|168:320,1,140,4|8,0:0|0:0,0:0:0:0:
140,248,128120,1,0,0:0:0:0:
88,316,128294,2,0,L|16:316,1,70
8,192,128643,2,0,L|80:192,1,70,8|0,0:0|0:0,0:0:0:0:
152,232,128992,6,0,P|164:192|160:160,1,70,4|0,0:0|0:0,0:0:0:0:
112,96,129340,2,0,P|160:132|240:104,1,140,8|0,0:0|0:0,0:0:0:0:
280,40,129864,1,0,0:0:0:0:
356,4,130038,2,0,P|396:4|428:16,1,70,8|0,0:0|0:0,0:0:0:0:
476,80,130387,6,0,L|468:156,1,70,4|0,0:0|0:0,0:0:0:0:
444,232,130736,1,4,0:0:0:0:
376,284,130910,1,0,0:0:0:0:
408,364,131085,1,8,0:0:0:0:
408,364,131172,1,0,0:0:0:0:
408,364,131259,1,0,0:0:0:0:
324,348,131433,2,0,L|244:360,1,70,8|0,0:0|0:0,0:0:0:0:
256,192,131782,12,0,134224,0:0:0:0:
336,172,148526,5,4,0:0:0:0:
244,300,148875,2,0,L|188:300,1,52.5000020027161
148,364,149224,2,0,P|116:320|120:264,1,105.000004005432,8|0,0:0|0:0,0:0:0:0:
172,212,149747,1,0,0:0:0:0:
252,220,149922,2,0,L|360:220,1,105.000004005432,0|2,0:0|0:0,0:0:0:0:
436,220,150445,5,2,0:0:0:0:
496,272,150620,2,0,L|496:328,1,52.5000020027161,8|2,0:0|0:0,0:0:0:0:
436,220,150968,2,0,L|436:164,1,52.5000020027161,2|2,0:0|0:0,0:0:0:0:
464,92,151317,2,0,P|424:120|368:112,1,105.000004005432,2|0,0:0|0:0,0:0:0:0:
320,52,151840,5,0,0:0:0:0:
296,128,152015,1,8,0:0:0:0:
244,68,152189,1,0,0:0:0:0:
220,144,152364,2,0,L|220:200,1,52.5000020027161
220,276,152713,2,0,P|268:304|320:296,1,105.000004005432
380,252,153236,1,0,0:0:0:0:
452,288,153410,2,0,P|464:240|436:192,1,105.000004005432,8|8,0:0|0:0,0:0:0:0:
424,180,153846,1,0,0:0:0:0:
404,168,153933,1,0,0:0:0:0:
372,92,154108,6,0,L|296:96,1,70,4|0,0:0|0:0,0:0:0:0:
256,168,154457,2,0,P|224:172|184:156,1,70,8|0,0:0|0:0,0:0:0:0:
108,136,154806,2,0,L|112:212,1,70
176,260,155154,2,0,P|140:288|48:264,2,140,8|0|8,0:0|0:0|0:0,0:0:0:0:
224,192,156026,1,0,0:0:0:0:
268,264,156201,2,0,L|268:344,1,70
384,384,156550,2,0,L|384:304,1,70,8|0,0:0|0:0,0:0:0:0:
392,232,156899,6,0,P|424:220|472:220,1,70,4|0,0:0|0:0,0:0:0:0:
320,268,157247,2,0,L|244:260,1,70,8|0,0:0|0:0,0:0:0:0:
167,275,157596,2,0,P|168:244|180:208,1,70,8|0,0:0|0:0,0:0:0:0:
132,352,157945,2,0,L|52:352,1,70,8|0,0:0|0:0,0:0:0:0:
256,192,158294,12,0,159689,0:0:0:0:
148,272,160910,5,0,0:0:0:0:
148,272,161085,2,0,P|212:304|280:264,1,140
416,120,161782,2,0,P|376:124|351:138,1,70
288,192,162131,2,0,L|296:232,3,35
288,192,162480,6,0,P|256:160|160:160,1,140,4|8,0:0|0:0,0:0:0:0:
92,200,163003,1,0,0:0:0:0:
40,264,163178,2,0,P|76:280|108:280,1,70
184,316,163526,2,0,L|180:244,1,70,8|0,0:0|0:0,0:0:0:0:
180,160,163875,6,0,P|140:108|64:112,1,140,0|8,0:0|0:0,0:0:0:0:
100,188,164399,1,0,0:0:0:0:
160,244,164573,2,0,P|192:252|232:244,1,70
304,208,164922,2,0,P|336:200|376:208,1,70,8|0,0:0|0:0,0:0:0:0:
396,288,165271,6,0,P|452:240|444:168,2,140,0|8|0,0:0|0:0|0:0,0:0:0:0:
312,296,166143,1,0,0:0:0:0:
256,232,166317,2,0,P|224:216|184:216,1,70,8|0,0:0|0:0,0:0:0:0:
128,272,166666,6,0,P|172:212|160:144,1,140,4|8,0:0|0:0,0:0:0:0:
84,124,167189,2,0,P|40:184|52:252,1,140,4|0,0:0|0:0,0:0:0:0:
64,328,167713,1,8,0:0:0:0:
128,272,167887,1,0,0:0:0:0:
148,352,168061,6,0,P|184:360|220:352,1,70
296,324,168410,2,0,P|336:276|312:200,2,140,8|0|8,0:0|0:0|0:0,0:0:0:0:
296,324,169457,5,4,0:0:0:0:
251,253,169631,2,0,P|219:241|183:241,1,70,0|8,0:0|0:0,0:0:0:0:
296,324,169980,2,0,P|356:348|416:308,1,140,4|0,0:0|0:0,0:0:0:0:
424,228,170503,1,8,0:0:0:0:
376,160,170678,5,0,0:0:0:0:
464,152,170852,2,0,P|452:112|428:88,1,70,4|0,0:0|0:0,0:0:0:0:
348,76,171201,2,0,P|312:97|294:126,1,70,8|0,0:0|0:0,0:0:0:0:
288,204,171550,2,0,P|224:232|160:192,2,140,0|8|4,0:0|0:0|0:0,0:0:0:0:
228,144,172422,1,0,0:0:0:0:
152,112,172596,2,0,L|76:112,1,70,8|0,0:0|0:0,0:0:0:0:
24,176,172945,6,0,L|8:212,3,35
84,212,173294,2,0,L|100:248,3,35
84,212,173643,6,0,P|128:180|212:196,1,140,4|8,0:0|0:0,0:0:0:0:
240,272,174166,1,0,0:0:0:0:
268,352,174340,1,0,0:0:0:0:
320,288,174515,2,0,P|352:280|388:284,2,70,0|8|0,0:0|0:0|0:0,0:0:0:0:
268,352,175038,6,0,P|208:368|148:320,1,140,0|8,0:0|0:0,0:0:0:0:
120,244,175561,1,0,0:0:0:0:
72,312,175736,2,0,L|68:388,1,70
40,236,176085,2,0,L|36:160,1,70,8|0,0:0|0:0,0:0:0:0:
0,92,176433,6,0,P|60:132|124:116,1,140,0|8,0:0|0:0,0:0:0:0:
192,72,176957,2,0,L|264:80,1,70
344,96,177306,1,0,0:0:0:0:
380,172,177480,2,0,P|420:140|428:112,1,70,8|0,0:0|0:0,0:0:0:0:
468,52,177829,6,0,L|480:196,1,140,4|8,0:0|0:0,0:0:0:0:
488,276,178352,1,0,0:0:0:0:
496,360,178526,2,0,P|464:368|424:360,1,70
288,272,178875,2,0,P|324:275|352:292,1,70,8|0,0:0|0:0,0:0:0:0:
224,356,179224,6,0,P|148:348|116:296,1,140,4|8,0:0|0:0,0:0:0:0:
136,216,179747,1,0,0:0:0:0:
68,168,179922,2,0,L|68:92,2,70,0|0|8,0:0|0:0|0:0,0:0:0:0:
44,248,180445,1,0,0:0:0:0:
112,300,180620,6,0,P|168:344|232:324,1,140,4|8,0:0|0:0,0:0:0:0:
252,240,181143,1,0,0:0:0:0:
268,156,181317,2,0,P|304:166|327:188,1,70
328,272,181666,2,0,L|328:344,1,70,8|0,0:0|0:0,0:0:0:0:
252,380,182015,5,0,0:0:0:0:
204,312,182189,1,0,0:0:0:0:
124,280,182364,1,0,0:0:0:0:
44,308,182538,1,0,0:0:0:0:
108,364,182713,6,0,P|128:332|132:300,1,70
136,208,183061,2,0,P|113:177|84:162,1,70
52,240,183410,6,0,P|-4:172|16:116,1,140
92,56,184283,1,0,0:0:0:0:
92,56,184370,1,0,0:0:0:0:
92,56,184457,2,0,P|133:50|168:56,1,70
256,104,184806,6,0,P|324:104|360:44,2,140,4|8|0,0:0|0:0|0:0,0:0:0:0:
256,104,185678,2,0,L|256:184,1,70,0|8,0:0|0:0,0:0:0:0:
256,256,186026,1,0,0:0:0:0:
184,212,186201,2,0,P|152:200|112:204,1,70
60,264,186550,2,0,P|28:203|60:143,1,140,8|0,0:0|0:0,0:0:0:0:
136,112,187073,1,0,0:0:0:0:
216,136,187247,2,0,L|288:136,1,70,8|0,0:0|0:0,0:0:0:0:
360,100,187596,2,0,P|368:136|360:176,1,70
336,248,187945,2,0,P|404:276|456:240,2,140,8|0|8,0:0|0:0|0:0,0:0:0:0:
267,140,188817,6,0,L|256:280,1,140,4|0,0:0|0:0,0:0:0:0:
252,364,189340,2,0,P|292:348|328:348,1,70,8|0,0:0|0:0,0:0:0:0:
400,368,189689,1,0,0:0:0:0:
472,324,189864,1,0,0:0:0:0:
472,324,189951,1,0,0:0:0:0:
472,324,190038,1,8,0:0:0:0:
396,284,190213,6,4,L|407:144,1,140,4|0,0:0|0:0,0:0:0:0:
404,64,190736,2,0,P|376:44|336:40,1,70,8|0,0:0|0:0,0:0:0:0:
256,48,191085,1,0,0:0:0:0:
212,120,191259,2,0,P|176:128|140:120,1,70,0|8,0:0|0:0,0:0:0:0:
92,56,191608,6,0,L|100:196,1,140,4|0,0:0|0:0,0:0:0:0:
108,280,192131,1,8,0:0:0:0:
176,232,192306,2,0,P|248:212|296:248,1,140,4|0,0:0|0:0,0:0:0:0:
228,296,192829,1,8,0:0:0:0:
308,324,193003,2,0,P|356:360|428:340,1,140,4|0,0:0|0:0,0:0:0:0:
376,276,193526,1,8,0:0:0:0:
460,260,193701,2,0,L|460:184,1,70
376,192,194050,2,0,L|376:116,1,70,0|8,0:0|0:0,0:0:0:0:
300,84,194399,6,0,P|248:40|176:52,1,140,4|0,0:0|0:0,0:0:0:0:
136,120,194922,1,8,0:0:0:0:
216,144,195096,1,0,0:0:0:0:
216,144,195183,1,0,0:0:0:0:
216,144,195271,1,0,0:0:0:0:
156,204,195445,2,0,L|156:280,1,70,8|8,0:0|0:0,0:0:0:0:
156,360,195794,5,0,0:0:0:0:
156,360,195881,1,0,0:0:0:0:
156,360,195968,2,0,L|296:360,2,140,4|8|0,0:0|0:0|0:0,0:0:0:0:
88,308,196840,2,0,L|16:308,1,70,0|8,0:0|0:0,0:0:0:0:
164,280,197189,2,0,P|250:246|254:204,1,140,4|0,0:0|0:0,0:0:0:0:
332,248,197713,2,0,L|332:176,1,70,8|0,0:0|0:0,0:0:0:0:
384,112,198061,1,0,0:0:0:0:
420,188,198236,2,0,P|452:168|464:124,1,70,0|8,0:0|0:0,0:0:0:0:
448,56,198585,1,0,0:0:0:0:
384,112,198759,6,0,P|332:60|268:72,2,140,4|8|0,0:0|0:0|0:0,0:0:0:0:
420,188,199631,2,0,L|420:264,1,70,0|8,0:0|0:0,0:0:0:0:
440,340,199980,2,0,P|360:284|324:296,1,140,4|0,0:0|0:0,0:0:0:0:
260,348,200503,1,8,0:0:0:0:
180,328,200678,2,0,L|104:328,1,70,4|0,0:0|0:0,0:0:0:0:
26,244,201026,2,0,L|96:244,1,70,0|8,0:0|0:0,0:0:0:0:
180,244,201375,6,0,P|216:184|184:120,1,140,4|0,0:0|0:0,0:0:0:0:
124,180,201899,2,0,P|108:136|108:100,1,70,8|0,0:0|0:0,0:0:0:0:
144,40,202247,2,0,P|172:28|212:32,1,70,8|0,0:0|0:0,0:0:0:0:
284,72,202596,2,0,P|280:108|292:144,1,70,8|0,0:0|0:0,0:0:0:0:
356,192,202945,2,0,P|365:223|361:259,1,70,8|0,0:0|0:0,0:0:0:0:
288,300,203294,2,0,P|278:268|282:232,1,70,8|0,0:0|0:0,0:0:0:0:
356,192,203643,2,0,L|356:120,1,70,8|0,0:0|0:0,0:0:0:0:
356,36,203992,1,8,0:0:0:0:
419,95,204166,6,0,P|352:120|288:76,1,140,4|0,0:0|0:0,0:0:0:0:
236,28,204689,2,0,L|160:32,1,70,0|0,0:0|0:0,0:0:0:0:
168,116,205038,2,0,L|92:120,1,70
20,84,205387,2,8,P|16:120|24:160,1,70,0|0,0:0|0:0,0:0:0:0:
76,216,205736,5,0,0:0:0:0:
96,296,205910,2,0,L|96:340,2,35
156,240,206259,1,0,0:0:0:0:
176,320,206433,1,0,0:0:0:0:
176,320,206521,1,0,0:0:0:0:
176,320,206608,2,0,P|216:328|248:320,1,70
316,276,206957,1,4,0:0:0:0:
256,192,207044,12,0,212625,0:0:0:0:
