osu file format v14

[General]
AudioFilename: Uverworld - - Tv.mp3
AudioLeadIn: 0
PreviewTime: 65669
Countdown: 0
SampleSet: Normal
StackLeniency: 0.7
Mode: 0
LetterboxInBreaks: 0
WidescreenStoryboard: 0

[Editor]
Bookmarks: 31553,76233
DistanceSpacing: 0.9
BeatDivisor: 4
GridSize: 8
TimelineZoom: 1.8

[Metadata]
Title:Hakanaku mo Towa no Kanashi (Anime ver.)
TitleUnicode:儚くも永久のカナシ (アニメver.)
Artist:UVERworld
ArtistUnicode:UVERworld
Creator:Adol Christin
Version:Insane
Source:機動戦士ガンダム00
Tags:Mobile Suit Gundam 00 sunrise tv size opening TAKUYA KATSUYA AKIRA NOBUTO SHINTARO zj0924 A_Mystery
BeatmapID:719185
BeatmapSetID:310968

[Difficulty]
HPDrainRate:6
CircleSize:4
OverallDifficulty:7
ApproachRate:9
SliderMultiplier:1.6
SliderTickRate:1

[Events]
//Background and Video events
0,0,"0509_23.jpg",0,0
Video,0,"optc.flv"
//Break Periods
//Storyboard Layer 0 (Background)
//Storyboard Layer 1 (Fail)
//Storyboard Layer 2 (Pass)
//Storyboard Layer 3 (Foreground)
//Storyboard Sound Samples

[TimingPoints]
-15,315.789473684211,4,2,2,50,1,0
774,-200,4,2,2,40,0,0
7563,-133.333333333333,4,1,1,40,0,0
8827,-133.333333333333,4,2,1,50,0,0
10248,-111.111111111111,4,2,1,50,0,0
11195,-83.3333333333333,4,1,1,60,0,1
11511,-100,4,1,1,60,0,1
15774,-100,4,1,1,60,0,1
16248,-100,4,1,1,60,0,1
16721,-100,4,1,1,60,0,1
18932,-125,4,1,1,60,0,1
20195,-100,4,1,1,60,0,1
21300,-83.3333333333333,4,1,1,60,0,1
21616,-100,4,1,1,60,0,1
26511,-83.3333333333333,4,1,1,60,0,1
27458,-100,4,1,1,60,0,1
29037,-133.333333333333,4,1,1,40,0,0
31090,-200,4,1,1,40,0,0
31563,-133.333333333333,4,1,1,40,0,0
34090,-133.333333333333,4,1,1,30,0,0
53037,-117.647058823529,4,1,1,30,0,0
54300,-117.647058823529,4,1,1,50,0,0
65669,-117.647058823529,4,2,1,50,0,0
65827,-133.333333333333,4,2,1,50,0,0
66774,-100,4,2,1,50,0,0
66932,-83.3333333333333,4,1,1,60,0,1
67248,-100,4,1,1,60,0,1
71037,-83.3333333333333,4,1,1,60,0,1
72300,-100,4,1,1,60,0,1
74511,-125,4,1,1,60,0,1
75458,-100,4,1,1,60,0,1
76879,-83.3333333333333,4,1,1,60,0,1
77195,-100,4,1,1,60,0,1
84616,-133.333333333333,4,1,1,40,0,0

[Colours]
Combo1 : 207,56,228
Combo2 : 50,111,252
Combo3 : 4,227,38
Combo4 : 253,194,17

[HitObjects]
174,245,1248,6,0,L|136:268,3,40,4|0|0|0,0:1|0:0|0:0|0:0,0:0:0:0:
338,139,2511,2,0,L|375:117,3,40,0|0|0|0,0:0|0:0|0:0|0:0,0:0:0:0:
309,274,3774,6,0,L|332:312,3,40,0|0|0|0,0:0|0:0|0:0|0:0,0:0:0:0:
203,110,5037,2,0,L|180:72,3,40,0|0|0|0,0:0|0:0|0:0|0:0,0:0:0:0:
165,285,6300,5,2,0:0:0:0:
231,263,6616,1,2,0:0:0:0:
296,237,6932,1,2,0:0:0:0:
361,211,7248,1,2,0:0:0:0:
232,112,7563,6,0,L|180:128,12,30.0000011444092,0|0|0|0|8|0|0|0|0|0|0|0|8,0:0|0:0|0:0|0:0|0:0|0:0|0:0|0:0|0:0|0:0|0:0|0:0|0:0,0:0:0:0:
78,320,8827,6,0,L|146:302,1,60.0000022888184,2|0,0:1|0:0,0:0:0:0:
78,196,9142,1,2,0:0:0:0:
231,212,9300,2,0,L|171:229,1,60.0000022888184,0|0,0:0|0:0,0:0:0:0:
248,349,9616,1,2,0:0:0:0:
377,254,9774,2,0,L|315:273,2,60.0000022888184,0|2|2,0:0|0:0|0:0,0:0:0:0:
373,103,10248,2,0,L|442:80,1,71.9999978027344,0|2,0:0|0:0,0:0:0:0:
282,57,10563,1,2,0:0:0:0:
189,217,10721,1,2,0:0:0:0:
193,208,10800,1,0,0:0:0:0:
195,198,10879,1,0,0:0:0:0:
196,188,10958,1,2,0:0:0:0:
197,178,11037,1,0,0:0:0:0:
196,168,11116,1,0,0:0:0:0:
192,157,11195,6,0,B|199:130|199:130|123:191|46:125,1,191.999994140625,6|2,0:0|0:0,0:0:0:0:
205,49,11669,2,0,P|245:45|287:61,1,80,8|0,0:0|0:0,0:0:0:0:
432,113,11985,1,2,0:0:0:0:
394,226,12142,1,2,0:0:0:0:
391,215,12221,1,0,0:0:0:0:
390,204,12300,1,8,0:0:0:0:
282,57,12458,1,0,0:0:0:0:
294,153,12616,6,0,L|287:237,1,80,2|2,0:0|0:0,0:0:0:0:
146,343,12932,2,0,L|159:257,1,80,8|0,0:0|0:0,0:0:0:0:
74,131,13248,1,2,0:0:0:0:
218,205,13406,1,2,0:0:0:0:
67,227,13563,1,8,0:0:0:0:
184,117,13721,1,0,0:0:0:0:
184,117,13800,1,0,0:0:0:0:
183,116,13879,6,0,P|264:89|340:109,1,160,2|8,0:0|0:0,0:0:0:0:
270,237,14353,2,0,L|356:257,1,80,0|2,0:0|0:0,0:0:0:0:
152,306,14669,2,0,L|68:324,1,80,2|8,0:0|0:0,0:0:0:0:
392,358,14985,1,0,0:0:0:0:
386,339,15063,1,0,0:0:0:0:
382,319,15142,6,0,L|353:161,1,160,2|8,0:0|0:0,0:0:0:0:
395,57,15616,1,0,0:0:0:0:
166,38,15774,2,0,L|184:115,1,80,2|2,0:0|0:0,0:0:0:0:
165,265,16090,2,0,L|191:184,1,80,8|0,0:0|0:0,0:0:0:0:
407,154,16406,6,0,P|332:132|249:149,1,160,6|0,0:0|0:0,0:0:0:0:
329,311,16879,2,0,L|415:336,1,80,0|2,0:0|0:0,0:0:0:0:
195,355,17195,1,2,0:0:0:0:
195,355,17274,1,0,0:0:0:0:
195,355,17353,1,8,0:0:0:0:
251,220,17511,1,0,0:0:0:0:
76,161,17669,6,0,L|151:131,1,80,2|2,0:0|0:0,0:0:0:0:
222,63,17985,1,8,0:0:0:0:
326,192,18142,6,0,L|251:220,1,80,0|2,0:0|0:0,0:0:0:0:
47,329,18458,2,0,L|122:301,1,80,2|8,0:0|0:0,0:0:0:0:
148,196,18774,1,0,0:0:0:0:
250,342,18932,6,0,P|267:277|235:198,1,128,6|8,0:0|0:0,0:0:0:0:
327,69,19563,2,0,P|343:130|325:191,1,128,2|8,0:0|0:0,0:0:0:0:
326,192,20037,1,0,0:0:0:0:
157,297,20195,6,0,B|158:250|158:250|195:184,1,120,2|0,0:0|0:0,0:0:0:0:
249,160,20511,2,0,L|150:119,1,80,8|0,0:0|0:0,0:0:0:0:
54,70,20827,2,0,L|68:31,1,40,2|0,0:0|0:0,0:0:0:0:
137,53,20985,2,0,L|152:10,1,40,2|0,0:0|0:0,0:0:0:0:
220,36,21142,2,0,L|235:-2,1,40,8|0,0:0|0:0,0:0:0:0:
306,18,21300,6,0,B|306:96|306:96|306:148|368:187,1,191.999994140625,6|2,0:0|0:0,0:0:0:0:
495,102,21774,2,0,L|408:75,1,80,8|0,0:0|0:0,0:0:0:0:
485,270,22090,1,2,0:0:0:0:
361,222,22248,1,2,0:0:0:0:
288,343,22406,1,8,0:0:0:0:
157,297,22563,1,0,0:0:0:0:
272,160,22721,6,0,P|278:210|262:250,1,80,2|2,0:0|0:0,0:0:0:0:
185,192,23037,1,8,0:0:0:0:
207,91,23195,2,0,P|237:71|353:122,1,160,0|2,0:0|0:0,0:0:0:0:
176,259,23669,2,0,L|102:289,1,80,8|0,0:0|0:0,0:0:0:0:
272,160,23985,6,0,P|301:215|304:258,1,80,6|0,0:0|0:0,0:0:0:0:
265,314,24300,1,8,0:0:0:0:
272,160,24458,2,0,P|309:96|397:75,1,160,0|2,0:0|0:0,0:0:0:0:
453,205,24932,2,0,L|378:176,1,80,8|0,0:0|0:0,0:0:0:0:
212,92,25248,5,2,0:0:0:0:
294,256,25406,1,2,0:0:0:0:
321,76,25563,1,8,0:0:0:0:
202,205,25721,1,0,0:0:0:0:
117,89,25879,2,0,P|137:145|101:201,1,120,2|0,0:0|0:0,0:0:0:0:
57,138,26195,2,0,L|24:234,1,80,8|0,0:0|0:0,0:0:0:0:
272,341,26511,6,0,P|201:300|93:318,1,191.999994140625,6|8,0:0|0:0,0:0:0:0:
302,215,26985,2,0,P|379:250|443:339,1,191.999994140625,2|2,0:0|0:0,0:0:0:0:
213,240,27458,2,0,P|210:197|234:158,1,80,8|0,0:0|0:0,0:0:0:0:
353,59,27774,5,2,0:0:0:0:
384,227,27932,1,8,0:3:0:0:
377,210,28011,1,8,0:3:0:0:
370,193,28090,1,8,0:0:0:0:
259,108,28248,1,2,0:0:0:0:
425,135,28406,1,2,0:0:0:0:
275,209,28563,1,2,0:0:0:0:
134,200,28721,1,2,0:0:0:0:
103,95,28879,1,2,0:0:0:0:
163,23,29037,6,0,P|194:78|183:136,1,120.000004577637,6|0,0:0|0:0,0:0:0:0:
99,293,29511,2,0,P|150:291|217:252,1,120.000004577637,2|0,0:0|0:0,0:0:0:0:
321,131,29985,6,0,P|346:179|347:243,1,120.000004577637,0|0,0:0|0:0,0:0:0:0:
233,371,30458,2,0,P|208:323|210:256,1,120.000004577637,2|2,0:0|0:0,0:0:0:0:
275,201,30932,1,8,0:0:0:0:
391,227,31090,1,0,0:0:0:0:
338,64,31248,1,0,0:0:0:0:
194,120,31406,1,0,0:0:0:0:
234,376,31563,6,0,P|253:337|260:260,1,120.000004577637,6|0,0:0|0:0,0:0:0:0:
194,120,32037,2,0,P|175:159|173:237,1,120.000004577637,2|0,0:0|0:0,0:0:0:0:
331,179,32511,2,0,L|273:201,1,60.0000022888184,0|2,0:0|0:0,0:0:0:0:
109,300,32827,2,0,L|179:327,1,60.0000022888184,2|8,0:0|0:0,0:0:0:0:
223,60,33300,5,0,0:0:0:0:
345,37,33458,1,0,0:0:0:0:
305,111,33616,1,8,0:3:0:0:
305,195,33774,1,8,0:3:0:0:
339,271,33932,1,4,0:3:0:0:
229,242,34090,5,6,0:0:0:0:
229,242,34248,2,0,P|179:255|105:233,1,120.000004577637,2|0,0:0|0:0,0:0:0:0:
54,179,34721,2,0,L|18:256,1,60.0000022888184,8|0,0:0|0:0,0:0:0:0:
172,166,35037,1,0,0:0:0:0:
100,73,35195,1,2,0:0:0:0:
283,83,35353,6,0,P|309:140|303:204,1,120.000004577637,0|2,0:0|0:0,0:0:0:0:
214,273,35827,1,0,0:0:0:0:
329,333,35985,2,0,L|293:268,1,60.0000022888184,8|0,0:0|0:0,0:0:0:0:
207,166,36300,1,0,0:0:0:0:
94,192,36458,1,0,0:0:0:0:
207,166,36616,6,0,P|185:113|128:78,1,120.000004577637,2|0,0:0|0:0,0:0:0:0:
47,58,37090,1,0,0:0:0:0:
94,192,37248,2,0,L|69:252,1,60.0000022888184,8|0,0:0|0:0,0:0:0:0:
176,263,37563,2,0,L|195:324,1,60.0000022888184,0|2,0:0|0:0,0:0:0:0:
285,250,37879,6,0,L|307:182,1,60.0000022888184,0|0,0:0|0:0,0:0:0:0:
294,106,38195,1,2,0:0:0:0:
383,178,38353,1,0,0:0:0:0:
391,63,38511,1,8,0:0:0:0:
291,5,38669,1,0,0:0:0:0:
203,72,38827,1,0,0:0:0:0:
203,72,38906,1,0,0:0:0:0:
203,72,38985,1,0,0:0:0:0:
203,72,39063,1,0,0:0:0:0:
203,72,39142,5,6,0:0:0:0:
144,168,39300,2,0,P|155:235|202:280,1,120.000004577637,2|0,0:0|0:0,0:0:0:0:
250,181,39774,1,8,0:0:0:0:
288,278,39932,1,0,0:0:0:0:
386,242,40090,1,0,0:0:0:0:
350,143,40248,1,2,0:0:0:0:
215,87,40406,6,0,L|154:113,1,60.0000022888184,0|0,0:0|0:0,0:0:0:0:
122,198,40721,2,0,L|61:224,1,60.0000022888184,2|0,0:0|0:0,0:0:0:0:
157,315,41037,2,0,L|218:341,1,60.0000022888184,8|0,0:0|0:0,0:0:0:0:
288,278,41353,2,0,L|349:304,1,60.0000022888184,0|0,0:0|0:0,0:0:0:0:
440,215,41669,5,2,0:0:0:0:
440,215,41827,2,0,P|467:303|429:390,1,180.000006866455,2|8,0:0|0:0,0:0:0:0:
343,301,42458,2,0,L|323:360,1,60.0000022888184,0|0,0:0|0:0,0:0:0:0:
259,208,42774,6,0,P|187:186|237:118,1,180.000006866455,2|2,0:0|0:0,0:0:0:0:
306,144,43406,1,0,0:0:0:0:
376,85,43563,2,0,L|435:64,1,60.0000022888184,0|0,0:0|0:0,0:0:0:0:
383,194,43879,2,0,L|454:220,1,60.0000022888184,2|0,0:0|0:0,0:0:0:0:
327,255,44195,5,6,0:0:0:0:
327,255,44353,2,0,P|353:314|332:372,1,120.000004577637,2|0,0:0|0:0,0:0:0:0:
201,337,44827,2,0,L|266:314,1,60.0000022888184,8|0,0:0|0:0,0:0:0:0:
66,287,45142,2,0,L|131:264,1,60.0000022888184,0|2,0:0|0:0,0:0:0:0:
199,139,45458,6,0,P|225:195|211:257,1,120.000004577637,0|2,0:0|0:0,0:0:0:0:
276,186,45932,2,0,L|335:175,1,60.0000022888184,0|8,0:0|0:0,0:0:0:0:
426,86,46248,2,0,L|356:103,1,60.0000022888184
376,253,46563,1,0,0:0:0:0:
201,324,46721,6,0,P|229:285|313:263,1,120.000004577637,2|0,0:0|0:0,0:0:0:0:
201,324,47195,1,0,0:0:0:0:
83,359,47353,2,0,L|104:300,1,60.0000022888184,8|0,0:0|0:0,0:0:0:0:
54,190,47669,2,0,L|109:167,1,60.0000022888184,0|2,0:0|0:0,0:0:0:0:
176,80,47985,5,0,0:0:0:0:
263,204,48142,1,0,0:0:0:0:
143,158,48300,1,2,0:0:0:0:
262,36,48458,1,0,0:0:0:0:
387,150,48616,1,8,0:0:0:0:
311,270,48774,1,0,0:0:0:0:
312,141,48932,1,0,0:0:0:0:
312,141,49011,1,0,0:0:0:0:
312,141,49090,1,0,0:0:0:0:
312,141,49169,1,0,0:0:0:0:
312,141,49248,5,6,0:0:0:0:
211,324,49406,2,0,P|249:284|319:270,1,120.000004577637,2|0,0:0|0:0,0:0:0:0:
467,318,49879,1,8,0:0:0:0:
343,354,50037,1,0,0:0:0:0:
424,235,50195,1,0,0:0:0:0:
308,168,50353,6,0,L|247:192,1,60.0000022888184,2|0,0:0|0:0,0:0:0:0:
280,38,50669,2,0,L|258:100,1,60.0000022888184,0|2,0:0|0:0,0:0:0:0:
142,0,50985,2,0,L|176:55,1,60.0000022888184,0|8,0:0|0:0,0:0:0:0:
38,94,51300,2,0,L|107:100,1,60.0000022888184,0|0,0:0|0:0,0:0:0:0:
183,149,51616,1,0,0:0:0:0:
327,114,51774,5,2,0:0:0:0:
327,114,51932,2,0,P|349:170|335:232,1,120.000004577637,2|0,0:0|0:0,0:0:0:0:
303,309,52406,2,0,L|370:309,1,60.0000022888184,8|0,0:0|0:0,0:0:0:0:
251,235,52721,2,0,L|190:235,1,60.0000022888184,0|2,0:0|0:0,0:0:0:0:
71,287,53037,6,0,P|60:232|71:186,1,102.000001945496,0|0,0:0|0:0,0:0:0:0:
149,164,53353,2,0,P|158:113|146:60,1,102.000001945496,2|0,0:0|0:0,0:0:0:0:
72,25,53669,1,8,0:0:0:0:
72,25,53827,1,8,0:0:0:0:
232,26,53985,1,8,0:0:0:0:
232,26,54142,1,8,0:0:0:0:
414,91,54300,6,0,L|352:124,1,68.0000012969971,6|0,0:0|0:0,0:0:0:0:
361,276,54616,2,0,L|426:242,1,68.0000012969971,8|0,0:0|0:0,0:0:0:0:
251,235,54932,2,0,L|126:295,1,136.000002593994,8|2,0:0|0:0,0:0:0:0:
251,235,55406,1,8,0:0:0:0:
255,99,55563,6,0,P|275:130|281:164,1,68.0000012969971,2|8,0:0|0:0,0:0:0:0:
178,55,55879,1,0,0:0:0:0:
347,156,56037,2,0,P|315:163|272:157,1,68.0000012969971,2|8,0:0|0:0,0:0:0:0:
389,79,56353,1,8,0:0:0:0:
436,158,56511,1,2,0:0:0:0:
389,238,56669,1,0,0:0:0:0:
195,256,56827,6,0,L|259:231,1,68.0000012969971,2|0,0:0|0:0,0:0:0:0:
50,232,57142,2,0,L|122:203,1,68.0000012969971,8|0,0:0|0:0,0:0:0:0:
140,372,57458,2,0,L|275:315,1,136.000002593994,8|0,0:0|0:0,0:0:0:0:
336,108,57932,6,0,L|211:162,1,136.000002593994,0|0,0:0|0:0,0:0:0:0:
120,118,58406,1,2,0:0:0:0:
120,118,58563,1,0,0:0:0:0:
185,246,58721,1,8,0:0:0:0:
328,245,58879,1,8,0:0:0:0:
387,127,59037,1,2,0:0:0:0:
387,127,59116,1,0,0:0:0:0:
387,127,59195,1,0,0:0:0:0:
387,127,59274,1,0,0:0:0:0:
387,127,59353,6,0,L|412:194,1,68.0000012969971,6|0,0:0|0:0,0:0:0:0:
328,245,59669,2,0,L|353:312,1,68.0000012969971,8|0,0:0|0:0,0:0:0:0:
191,167,59985,2,0,L|238:297,1,136.000002593994,8|2,0:0|0:0,0:0:0:0:
48,163,60458,1,8,0:0:0:0:
110,95,60616,6,0,P|138:72|175:62,1,68.0000012969971,0|8,0:0|0:0,0:0:0:0:
191,167,60932,1,2,0:0:0:0:
118,275,61090,2,0,P|111:237|122:206,1,68.0000012969971,0|8,0:0|0:0,0:0:0:0:
275,190,61406,1,8,3:0:0:0:
211,248,61563,1,8,3:0:0:0:
257,94,61721,1,4,3:0:0:0:
257,94,61800,1,0,0:0:0:0:
257,94,61879,6,0,L|180:123,1,68.0000012969971,2|0,0:0|0:0,0:0:0:0:
329,126,62195,2,0,L|294:186,1,68.0000012969971,0|2,0:0|0:0,0:0:0:0:
412,110,62511,2,0,L|409:187,1,68.0000012969971,8|0,0:0|0:0,0:0:0:0:
452,43,62827,2,0,L|508:87,1,68.0000012969971,2|2,0:0|0:0,0:0:0:0:
396,232,63142,6,0,L|473:203,1,68.0000012969971,2|8,0:0|0:0,0:0:0:0:
317,197,63458,2,0,L|352:137,1,68.0000012969971,2|2,0:0|0:0,0:0:0:0:
237,227,63774,2,0,L|240:150,1,68.0000012969971,8|0,0:0|0:0,0:0:0:0:
199,303,64090,2,0,L|143:259,1,68.0000012969971,2|8,0:0|0:0,0:0:0:0:
440,246,64406,5,2,0:0:0:0:
387,114,64563,1,8,0:0:0:0:
253,166,64721,1,0,0:0:0:0:
309,298,64879,1,2,0:0:0:0:
448,166,65037,1,8,0:0:0:0:
303,108,65195,1,8,0:0:0:0:
239,248,65353,1,8,0:0:0:0:
385,306,65511,1,2,0:0:0:0:
123,184,65827,6,0,P|105:249|128:308,1,120.000004577637,2|2,0:0|0:0,0:0:0:0:
208,245,66300,2,0,P|220:207|210:142,1,90.0000034332277,2|2,0:0|0:0,0:0:0:0:
145,118,66616,2,0,P|164:94|192:80,1,60.0000022888184,0|2,0:0|0:0,0:0:0:0:
365,134,66932,6,0,P|271:132|177:64,1,191.999994140625,6|8,0:0|0:0,0:0:0:0:
463,111,67406,2,0,L|441:196,1,80,0|2,0:0|0:0,0:0:0:0:
296,206,67721,1,2,0:0:0:0:
291,215,67800,1,0,0:0:0:0:
286,224,67879,2,0,L|306:304,1,80,8|0,0:0|0:0,0:0:0:0:
366,132,68195,5,2,0:0:0:0:
192,175,68353,1,2,0:0:0:0:
375,220,68511,1,8,0:0:0:0:
235,98,68669,2,0,L|249:184,1,80,0|2,0:0|0:0,0:0:0:0:
158,254,68985,1,2,0:0:0:0:
131,115,69142,1,8,0:0:0:0:
27,205,69300,1,0,0:0:0:0:
27,205,69458,6,0,L|34:298,1,80,2|0,0:0|0:0,0:0:0:0:
131,115,69774,2,0,L|103:196,1,80,8|0,0:0|0:0,0:0:0:0:
296,75,70090,1,2,0:0:0:0:
299,258,70248,1,2,0:0:0:0:
212,168,70406,1,8,0:0:0:0:
381,174,70563,1,0,0:0:0:0:
381,174,70642,1,0,0:0:0:0:
381,174,70721,6,0,L|468:174,1,80,2|2,0:0|0:0,0:0:0:0:
299,258,71037,2,0,L|155:259,1,143.999995605469,8|0,0:0|0:0,0:0:0:0:
208,334,71353,2,0,L|360:334,1,143.999995605469,2|0,0:0|0:0,0:0:0:0:
419,259,71669,1,8,0:0:0:0:
447,362,71827,1,0,0:0:0:0:
155,258,71985,6,0,P|208:205|332:189,1,191.999994140625,6|8,0:0|0:0,0:0:0:0:
319,185,72458,2,0,L|291:268,1,80,0|2,0:0|0:0,0:0:0:0:
194,143,72774,1,2,0:0:0:0:
239,48,72932,1,8,0:0:0:0:
144,3,73090,1,0,0:0:0:0:
331,90,73248,6,0,L|351:170,1,80,2|2,0:0|0:0,0:0:0:0:
378,327,73563,1,8,0:0:0:0:
238,206,73721,2,0,L|222:284,1,80,0|2,0:0|0:0,0:0:0:0:
175,94,74037,2,0,L|132:165,1,80,2|8,0:0|0:0,0:0:0:0:
144,3,74353,1,0,0:0:0:0:
273,122,74511,6,0,P|329:88|401:90,1,128,6|8,0:0|0:0,0:0:0:0:
296,325,75142,2,0,P|241:326|169:279,1,128,2|8,0:0|0:0,0:0:0:0:
104,208,75616,1,0,0:0:0:0:
104,208,75774,6,0,L|95:259,1,40,2|0,0:0|0:0,0:0:0:0:
188,203,75932,2,0,L|196:160,1,40,2|0,0:0|0:0,0:0:0:0:
269,196,76090,2,0,L|259:235,1,40,8|0,0:0|0:0,0:0:0:0:
347,185,76248,2,0,L|355:142,1,40,0|0,0:0|0:0,0:0:0:0:
425,176,76406,1,2,0:0:0:0:
423,196,76485,1,0,0:0:0:0:
421,216,76563,1,2,0:0:0:0:
420,237,76642,1,0,0:0:0:0:
417,257,76721,1,8,0:0:0:0:
414,277,76800,1,0,0:0:0:0:
411,295,76879,6,0,P|319:268|230:300,1,191.999994140625,6|2,0:0|0:0,0:0:0:0:
349,144,77353,2,0,L|327:66,1,80,8|0,0:0|0:0,0:0:0:0:
264,187,77669,1,2,0:0:0:0:
424,105,77827,1,2,0:0:0:0:
252,75,77985,1,8,0:0:0:0:
179,221,78142,1,0,0:0:0:0:
179,221,78221,1,0,0:0:0:0:
179,221,78300,6,0,P|199:269|197:313,1,80,2|2,0:0|0:0,0:0:0:0:
171,373,78616,1,8,0:0:0:0:
264,187,78774,2,0,P|256:122|304:39,1,160,0|2,0:0|0:0,0:0:0:0:
346,224,79248,2,0,P|353:271|342:307,1,80,8|0,0:0|0:0,0:0:0:0:
179,221,79563,6,0,P|133:224|91:239,1,80,2|0,0:0|0:0,0:0:0:0:
21,281,79879,1,8,0:0:0:0:
195,341,80037,2,0,P|273:338|351:295,1,160,0|2,0:0|0:0,0:0:0:0:
276,107,80511,2,0,L|263:192,1,80,8|0,0:0|0:0,0:0:0:0:
374,88,80827,5,2,0:0:0:0:
262,268,80985,1,2,0:0:0:0:
184,122,81142,1,8,0:0:0:0:
375,177,81300,1,0,0:0:0:0:
185,216,81458,2,0,P|113:214|68:172,1,120,2|0,0:0|0:0,0:0:0:0:
151,138,81774,2,0,P|153:105|131:59,1,80,8|0,0:0|0:0,0:0:0:0:
134,62,82090,6,0,P|196:102|293:95,1,160,6|8,0:0|0:0,0:0:0:0:
404,32,82563,1,0,0:0:0:0:
374,176,82721,2,0,L|390:255,1,80,2|2,0:0|0:0,0:0:0:0:
253,273,83037,2,0,L|234:357,1,80,8|0,0:0|0:0,0:0:0:0:
199,124,83353,5,2,0:0:0:0:
106,243,83511,1,2,0:0:0:0:
126,237,83590,1,0,0:0:0:0:
146,232,83669,1,8,0:0:0:0:
285,162,83827,1,0,0:0:0:0:
392,263,83985,1,0,0:0:0:0:
405,123,84142,1,0,0:0:0:0:
324,33,84300,1,0,0:0:0:0:
238,52,84458,1,0,0:0:0:0:
199,124,84616,6,0,P|223:171|219:244,1,120.000004577637,6|0,0:0|0:0,0:0:0:0:
281,366,85090,2,0,P|283:313|317:252,1,120.000004577637,2|0,0:0|0:0,0:0:0:0:
445,323,85563,2,0,P|469:276|469:208,1,120.000004577637,2|0,0:0|0:0,0:0:0:0:
506,107,86037,6,0,P|459:83|383:80,1,120.000004577637,8|0,0:0|0:0,0:0:0:0:
235,189,86511,1,8,0:0:0:0:
405,161,86669,1,2,0:0:0:0:
225,205,86827,1,0,0:0:0:0:
403,138,86985,1,0,0:0:0:0:
207,218,87142,6,0,P|156:240|89:238,1,120.000004577637,2|0,0:0|0:0,0:0:0:0:
204,327,87616,2,0,P|255:305|321:304,1,120.000004577637,2|0,0:0|0:0,0:0:0:0:
440,268,88090,2,0,L|374:248,1,60.0000022888184,0|2,0:0|0:0,0:0:0:0:
207,218,88406,2,0,L|275:197,1,60.0000022888184,0|0,0:0|0:0,0:0:0:0:
207,218,88879,5,0,0:0:0:0:
378,244,89037,1,0,0:0:0:0:
211,306,89195,1,0,0:0:0:0:
341,176,89353,1,0,0:0:0:0:
341,176,89432,1,0,0:0:0:0:
341,176,89511,1,0,0:0:0:0:
341,176,89590,1,0,0:0:0:0:
341,176,89669,1,4,0:0:0:0:
