osu file format v14

[General]
AudioFilename: Uverworld - - Tv.mp3
AudioLeadIn: 0
PreviewTime: 65669
Countdown: 0
SampleSet: Normal
StackLeniency: 0.7
Mode: 0
LetterboxInBreaks: 0
WidescreenStoryboard: 0

[Editor]
Bookmarks: 31553,90275
DistanceSpacing: 0.6
BeatDivisor: 4
GridSize: 8
TimelineZoom: 1.5

[Metadata]
Title:Hakanaku mo Towa no Kanashi (Anime ver.)
TitleUnicode:儚くも永久のカナシ (アニメver.)
Artist:UVERworld
ArtistUnicode:UVERworld
Creator:Adol Christin
Version:Extra
Source:機動戦士ガンダム00
Tags:Mobile Suit Gundam 00 sunrise tv size opening TAKUYA KATSUYA AKIRA NOBUTO SHINTARO zj0924 A_Mystery
BeatmapID:694799
BeatmapSetID:310968

[Difficulty]
HPDrainRate:7
CircleSize:4.5
OverallDifficulty:8.5
ApproachRate:9.4
SliderMultiplier:1.9
SliderTickRate:1

[Events]
//Background and Video events
0,0,"BG.jpg",0,0
Video,0,"optc.flv"
//Break Periods
//Storyboard Layer 0 (Background)
//Storyboard Layer 1 (Fail)
//Storyboard Layer 2 (Pass)
//Storyboard Layer 3 (Foreground)
//Storyboard Sound Samples

[TimingPoints]
-15,315.789473684211,4,2,2,50,1,0
774,-133.333333333333,4,2,2,40,0,0
7563,-100,4,1,1,40,0,0
8827,-133.333333333333,4,2,1,50,0,0
10721,-100,4,2,1,50,0,0
11195,-76.9230769230769,4,1,1,60,0,1
11511,-100,4,1,1,60,0,1
15774,-76.9230769230769,4,1,1,60,0,1
16721,-100,4,1,1,60,0,1
21300,-76.9230769230769,4,1,1,60,0,1
21616,-100,4,1,1,60,0,1
23985,-76.9230769230769,4,1,1,60,0,1
24300,-100,4,1,1,60,0,1
26511,-76.9230769230769,4,1,1,60,0,1
27458,-100,4,1,1,60,0,1
29037,-133.333333333333,4,1,1,40,0,0
34090,-133.333333333333,4,1,1,30,0,0
54300,-133.333333333333,4,1,1,50,0,0
65669,-100,4,2,1,50,0,0
66932,-76.9230769230769,4,1,1,60,0,1
67245,-100,4,1,1,60,0,1
71037,-76.9230769230769,4,1,1,60,0,1
72300,-100,4,1,1,60,0,1
76874,-76.9230769230769,4,1,1,60,0,1
77195,-100,4,1,1,60,0,1
79563,-76.9230769230769,4,1,1,60,0,1
79879,-100,4,1,1,60,0,1
84616,-133.333333333333,4,1,1,40,0,0

[Colours]
Combo1 : 207,56,228
Combo2 : 50,111,252
Combo3 : 4,227,38
Combo4 : 253,194,17

[HitObjects]
162,321,774,6,0,P|183:279|187:248,1,71.2500027179719
150,102,1090,1,0,0:0:0:0:
313,139,1248,6,0,B|331:154|331:154|286:178|206:160,1,142.500005435944,4|0,0:1|0:0,0:0:0:0:
150,102,1721,2,0,B|135:84|135:84|111:129|129:209,1,142.500005435944
313,298,2195,2,0,P|342:297|388:281,1,71.2500027179719
257,205,2511,6,0,B|239:190|239:190|284:166|364:184,1,142.500005435944
188,275,2985,2,0,B|173:293|173:293|149:248|167:168,1,142.500005435944
278,100,3458,1,0,0:0:0:0:
257,205,3616,6,0,B|312:211|357:168|357:168|360:211,1,142.500005435944
237,302,4090,1,0,0:0:0:0:
157,180,4248,2,0,B|137:147|137:147|120:200|147:250,1,142.500005435944
234,124,4721,1,0,0:0:0:0:
234,124,4879,6,0,B|200:78|200:78|106:65,1,142.500005435944
157,180,5353,2,0,L|110:234,1,71.2500027179719
222,252,5669,2,0,L|282:307,1,71.2500027179719
371,165,5985,2,0,L|324:219,1,71.2500027179719
302,103,6300,5,2,0:0:0:0:
367,299,6616,1,2,0:0:0:0:
168,347,6932,1,2,0:0:0:0:
109,143,7248,1,2,0:0:0:0:
231,186,7405,1,2,0:0:0:0:
168,39,7563,6,0,L|126:75,3,47.5
228,92,7879,2,0,L|267:121,3,47.5,8|0|0|0,0:0|0:0|0:0|0:0,0:0:0:0:
277,40,8195,1,0,0:0:0:0:
277,40,8274,1,0,0:0:0:0:
277,40,8353,1,0,0:0:0:0:
277,40,8432,1,0,0:0:0:0:
277,40,8511,1,8,0:0:0:0:
124,317,8827,6,0,L|195:342,1,71.2500027179719,2|0,0:1|0:0,0:0:0:0:
285,373,9142,1,2,0:0:0:0:
416,216,9300,2,0,L|346:239,1,71.2500027179719
252,269,9616,1,2,0:0:0:0:
156,238,9774,2,0,L|80:215,2,71.2500027179719,0|2|2,0:0|0:0|0:0,0:0:0:0:
347,236,10248,6,0,L|421:214,2,71.2500027179719,0|2|2,0:0|0:0|0:0,0:0:0:0:
71,276,10721,1,2,0:0:0:0:
81,244,10800,1,0,0:0:0:0:
94,213,10879,1,0,0:0:0:0:
105,181,10958,1,2,0:0:0:0:
115,149,11037,1,0,0:0:0:0:
127,118,11116,1,0,0:0:0:0:
138,87,11195,6,0,B|167:139|167:139|225:137|270:78|270:78|292:145,1,246.999988693238,6|2,0:0|0:0,0:0:0:0:
404,272,11669,2,0,P|410:316|427:370,1,95,8|0,0:0|0:0,0:0:0:0:
496,155,11985,1,2,0:0:0:0:
336,106,12142,1,2,0:0:0:0:
265,335,12300,1,8,0:0:0:0:
137,236,12458,1,0,0:0:0:0:
132,209,12537,1,0,0:0:0:0:
127,181,12616,6,0,P|129:133|138:87,1,95,2|2,0:0|0:0,0:0:0:0:
296,109,12932,1,8,0:0:0:0:
267,269,13090,2,0,P|296:324|342:357,1,95,0|2,0:0|0:0,0:0:0:0:
388,98,13406,2,0,P|329:97|287:113,1,95,2|8,0:0|0:0,0:0:0:0:
446,181,13721,1,0,0:0:0:0:
207,311,13879,6,0,P|186:260|184:218,1,95,2|2,0:0|0:0,0:0:0:0:
272,18,14195,2,0,P|293:69|294:114,1,95,8|0,0:0|0:0,0:0:0:0:
128,104,14511,1,2,0:0:0:0:
385,182,14669,1,2,0:0:0:0:
207,311,14827,1,8,0:0:0:0:
321,69,14985,1,0,0:0:0:0:
385,182,15142,6,0,P|279:178|203:111,1,190,2|8,0:0|0:0,0:0:0:0:
251,260,15616,1,0,0:0:0:0:
106,315,15774,6,0,P|153:288|132:230,1,123.499994346619,2|2,0:0|0:0,0:0:0:0:
126,227,16011,1,2,0:0:0:0:
134,231,16090,2,0,P|174:232|291:295,1,123.499994346619,8|0,0:0|0:0,0:0:0:0:
233,342,16406,6,0,P|314:320|284:186,1,246.999988693238,6|0,0:0|0:0,0:0:0:0:
221,218,16879,1,0,0:0:0:0:
429,164,17037,1,2,0:0:0:0:
335,97,17195,2,0,P|282:90|233:110,1,95,2|8,0:0|0:0,0:0:0:0:
60,184,17511,1,0,0:0:0:0:
134,107,17669,5,2,0:0:0:0:
186,280,17827,1,2,0:0:0:0:
186,280,17985,1,8,0:0:0:0:
166,77,18142,1,0,0:0:0:0:
226,296,18300,1,2,0:0:0:0:
439,275,18458,1,2,0:0:0:0:
276,138,18616,1,8,0:0:0:0:
248,296,18774,1,0,0:0:0:0:
292,274,18853,1,0,0:0:0:0:
325,250,18932,6,0,P|380:175|403:70,1,190,6|8,0:0|0:0,0:0:0:0:
37,166,19563,1,2,0:0:0:0:
87,329,19721,1,2,0:0:0:0:
252,286,19879,1,8,0:0:0:0:
207,120,20037,1,0,0:0:0:0:
312,36,20195,5,2,0:0:0:0:
324,64,20274,1,0,0:0:0:0:
332,94,20353,1,2,0:0:0:0:
340,124,20432,1,0,0:0:0:0:
343,155,20511,1,8,0:0:0:0:
345,186,20590,1,0,0:0:0:0:
345,217,20669,1,0,0:0:0:0:
345,248,20748,1,0,0:0:0:0:
346,279,20827,2,0,L|342:332,1,47.5,2|0,0:0|0:0,0:0:0:0:
187,341,20985,2,0,L|189:286,1,47.5,2|0,0:0|0:0,0:0:0:0:
257,166,21142,2,0,L|256:222,1,47.5,8|0,0:0|0:0,0:0:0:0:
85,295,21300,6,0,B|75:238|46:214|46:214|93:179|102:124|102:124|74:62,1,246.999988693238,6|2,0:0|0:0,0:0:0:0:
203,248,21774,2,0,P|200:296|183:352,1,95,8|0,0:0|0:0,0:0:0:0:
96,371,22090,1,2,0:0:0:0:
257,166,22248,1,2,0:0:0:0:
272,343,22406,1,8,0:0:0:0:
150,120,22563,1,0,0:0:0:0:
87,226,22721,6,0,P|151:243|191:239,1,95,2|2,0:0|0:0,0:0:0:0:
413,217,23037,1,8,0:0:0:0:
265,50,23195,2,0,P|243:93|236:140,1,95,0|2,0:0|0:0,0:0:0:0:
422,123,23511,1,2,0:0:0:0:
298,294,23669,1,8,0:0:0:0:
169,113,23827,1,0,0:0:0:0:
194,127,23906,1,0,0:0:0:0:
218,142,23985,6,0,B|269:179|328:190|328:190|286:226|267:309,1,246.999988693238,6|8,0:0|0:0,0:0:0:0:
108,348,24458,2,0,P|154:357|201:350,1,95,0|2,0:0|0:0,0:0:0:0:
412,210,24774,1,2,0:0:0:0:
301,102,24932,2,0,P|249:82|197:78,1,95,8|0,0:0|0:0,0:0:0:0:
323,227,25248,5,2,0:0:0:0:
454,52,25406,1,2,0:0:0:0:
493,286,25563,1,8,0:0:0:0:
305,147,25721,1,0,0:0:0:0:
454,52,25879,2,0,P|479:111|481:150,1,95,2|2,0:0|0:0,0:0:0:0:
351,96,26195,1,8,0:0:0:0:
351,96,26274,1,0,0:0:0:0:
351,96,26353,1,0,0:0:0:0:
351,96,26432,1,0,0:0:0:0:
353,103,26511,6,0,B|299:149|299:149|260:118|220:132|220:132|154:60,1,246.999988693238,6|8,0:0|0:0,0:0:0:0:
258,128,26985,2,0,B|279:132|300:143|300:143|282:201|366:243|366:243|356:336,1,246.999988693238,2|2,0:0|0:0,0:0:0:0:
210,339,27458,2,0,P|228:295|231:248,1,95,8|0,0:0|0:0,0:0:0:0:
121,160,27774,5,2,0:0:0:0:
315,160,27932,1,8,0:3:0:0:
315,160,28011,1,8,0:3:0:0:
315,160,28090,1,8,0:0:0:0:
229,69,28248,1,2,0:0:0:0:
289,290,28406,1,2,0:0:0:0:
456,137,28563,1,2,0:0:0:0:
263,157,28721,1,2,0:0:0:0:
226,164,28800,1,0,0:0:0:0:
192,182,28879,1,2,0:0:0:0:
162,206,28958,1,0,0:0:0:0:
138,236,29037,6,0,P|105:286|93:374,1,142.500005435944,6|0,0:0|0:0,0:0:0:0:
332,334,29511,1,2,0:0:0:0:
332,334,29669,2,0,P|365:284|377:196,1,142.500005435944,8|0,0:0|0:0,0:0:0:0:
249,79,30142,6,0,L|278:166,1,71.2500027179719,2|0,0:0|0:0,0:0:0:0:
151,296,30458,2,0,L|179:231,1,71.2500027179719,2|0,0:0|0:0,0:0:0:0:
168,94,30774,1,2,0:0:0:0:
293,216,30932,1,8,0:0:0:0:
308,39,31090,1,0,0:0:0:0:
289,49,31169,1,0,0:0:0:0:
270,59,31248,1,0,0:0:0:0:
359,156,31406,1,0,0:0:0:0:
359,156,31563,6,0,B|394:202|400:233,1,71.2500027179719,6|2,0:0|0:0,0:0:0:0:
412,316,31879,1,0,0:0:0:0:
242,213,32037,2,0,B|207:259|201:290,1,71.2500027179719,2|8,0:0|0:0,0:0:0:0:
185,372,32353,1,0,0:0:0:0:
372,360,32511,2,0,P|415:361|452:366,1,71.2500027179719,0|2,0:0|0:0,0:0:0:0:
302,307,32827,1,2,0:0:0:0:
369,110,32985,1,8,0:0:0:0:
369,110,33300,5,0,0:0:0:0:
383,273,33458,1,2,0:0:0:0:
118,293,33616,1,8,0:3:0:0:
279,189,33774,1,8,0:3:0:0:
88,95,33932,1,4,0:3:0:0:
129,223,34090,6,0,L|117:300,1,71.2500027179719,6|2,0:0|0:0,0:0:0:0:
184,371,34406,1,0,0:0:0:0:
184,371,34563,1,0,0:0:0:0:
367,330,34721,2,0,L|307:293,1,71.2500027179719,8|0,0:0|0:0,0:0:0:0:
243,220,35037,1,0,0:0:0:0:
120,246,35195,1,2,0:0:0:0:
43,128,35353,6,0,L|108:168,1,71.2500027179719
120,246,35669,1,2,0:0:0:0:
120,246,35827,2,0,L|185:286,1,71.2500027179719,0|8,0:0|0:0,0:0:0:0:
236,357,36142,1,0,0:0:0:0:
370,295,36300,1,0,0:0:0:0:
137,290,36458,6,0,L|60:254,2,71.2500027179719,0|2|2,0:0|0:0|0:0,0:0:0:0:
243,220,36932,1,0,0:0:0:0:
243,220,37090,1,0,0:0:0:0:
320,119,37248,2,0,L|395:98,1,71.2500027179719,8|0,0:0|0:0,0:0:0:0:
243,220,37563,1,0,0:0:0:0:
243,220,37721,1,2,0:0:0:0:
363,215,37879,6,0,L|442:234,1,71.2500027179719
243,220,38195,1,2,0:0:0:0:
174,301,38353,1,0,0:0:0:0:
108,216,38511,1,8,0:0:0:0:
108,216,38669,1,0,0:0:0:0:
174,301,38827,1,0,0:0:0:0:
243,220,38985,1,0,0:0:0:0:
243,220,39063,1,0,0:0:0:0:
243,220,39142,6,0,L|263:293,1,71.2500027179719,6|2,0:0|0:0,0:0:0:0:
342,180,39458,2,0,L|388:259,1,71.2500027179719
405,108,39774,1,8,0:0:0:0:
341,50,39932,1,0,0:0:0:0:
255,52,40090,1,0,0:0:0:0:
195,113,40248,6,0,L|176:187,2,71.2500027179719,2|0|0,0:0|0:0|0:0,0:0:0:0:
295,210,40721,1,2,0:0:0:0:
295,210,40879,2,0,L|314:284,2,71.2500027179719,0|8|0,0:0|0:0|0:0,0:0:0:0:
240,340,41353,1,0,0:0:0:0:
140,347,41511,1,0,0:0:0:0:
66,279,41669,5,2,0:0:0:0:
66,279,41827,1,2,0:0:0:0:
150,213,41985,2,0,L|110:131,2,71.2500027179719,0|0|8,0:0|0:0|0:0,0:0:0:0:
190,88,42458,1,0,0:0:0:0:
190,88,42616,1,0,0:0:0:0:
268,138,42774,6,0,L|343:120,1,71.2500027179719,2|0,0:0|0:0,0:0:0:0:
457,44,43090,1,0,0:0:0:0:
457,44,43248,2,0,L|442:128,1,71.2500027179719,2|0,0:0|0:0,0:0:0:0:
498,349,43563,2,0,L|513:271,1,71.2500027179719
401,199,43879,2,0,L|432:264,1,71.2500027179719,2|0,0:0|0:0,0:0:0:0:
338,256,44195,6,0,L|250:239,1,71.2500027179719,6|2,0:0|0:0,0:0:0:0:
184,186,44511,1,0,0:0:0:0:
200,310,44669,1,0,0:0:0:0:
123,236,44827,2,0,L|95:166,1,71.2500027179719,8|0,0:0|0:0,0:0:0:0:
144,33,45142,1,0,0:0:0:0:
233,57,45300,1,2,0:0:0:0:
254,212,45458,6,0,L|282:141,1,71.2500027179719
371,56,45774,1,2,0:0:0:0:
371,56,45932,2,0,L|397:122,1,71.2500027179719,0|8,0:0|0:0,0:0:0:0:
428,301,46248,1,0,0:0:0:0:
393,215,46406,1,0,0:0:0:0:
333,286,46563,6,0,L|256:326,2,71.2500027179719,0|2|2,0:0|0:0|0:0,0:0:0:0:
296,151,47037,1,0,0:0:0:0:
296,151,47195,1,0,0:0:0:0:
194,241,47353,2,0,L|113:211,1,71.2500027179719,8|0,0:0|0:0,0:0:0:0:
296,151,47669,1,0,0:0:0:0:
296,151,47827,1,2,0:0:0:0:
171,102,47985,6,0,L|137:24,1,71.2500027179719
296,151,48300,1,2,0:0:0:0:
296,151,48458,1,0,0:0:0:0:
371,56,48616,2,0,L|435:22,2,71.2500027179719,8|0|0,0:0|0:0|0:0,0:0:0:0:
433,158,49090,1,0,0:0:0:0:
370,272,49248,6,0,B|354:253|354:253|361:204,1,71.2500027179719,6|2,0:0|0:0,0:0:0:0:
439,331,49563,1,0,0:0:0:0:
439,331,49721,2,0,B|423:347|423:347|362:360,1,71.2500027179719,0|8,0:0|0:0,0:0:0:0:
245,283,50037,1,0,0:0:0:0:
189,358,50195,1,0,0:0:0:0:
161,220,50353,6,0,L|207:153,1,71.2500027179719,2|0,0:0|0:0,0:0:0:0:
39,140,50669,2,0,L|116:120,1,71.2500027179719,0|2,0:0|0:0,0:0:0:0:
151,38,50985,2,0,L|225:58,1,71.2500027179719,0|8,0:0|0:0,0:0:0:0:
291,172,51300,2,0,L|367:151,1,71.2500027179719
317,273,51616,6,0,L|338:360,2,71.2500027179719,0|2|2,0:0|0:0|0:0,0:0:0:0:
230,202,52090,1,0,0:0:0:0:
230,202,52248,2,0,L|201:277,1,71.2500027179719,0|8,0:0|0:0,0:0:0:0:
45,161,52563,2,0,L|114:140,1,71.2500027179719
299,139,52879,1,2,0:0:0:0:
299,139,52958,1,0,0:0:0:0:
299,139,53037,6,0,B|292:211|292:211|314:241,1,106.875004076958
373,285,53353,2,0,B|307:319|307:319|270:303,1,106.875004076958,2|0,0:0|0:0,0:0:0:0:
238,238,53669,1,8,0:0:0:0:
299,139,53827,1,8,0:0:0:0:
375,285,53985,1,8,0:0:0:0:
148,296,54142,1,8,0:0:0:0:
76,107,54300,6,0,P|129:106|176:132,1,106.875004076958,6|0,0:0|2:0,0:0:0:0:
129,209,54616,2,0,P|185:215|250:194,1,106.875004076958,8|0,0:0|2:0,0:0:0:0:
325,203,54932,2,0,P|299:144|242:86,1,142.500005435944,8|2,0:0|0:0,0:0:0:0:
272,290,55406,1,8,0:0:0:0:
272,290,55485,1,0,0:0:0:0:
272,290,55563,6,0,L|294:371,1,71.2500027179719,2|8,0:0|0:0,0:0:0:0:
92,226,55879,1,0,0:0:0:0:
216,193,56037,2,0,L|163:266,1,71.2500027179719,2|8,0:0|0:0,0:0:0:0:
150,59,56353,1,8,0:0:0:0:
241,84,56511,2,0,P|281:149|280:194,1,106.875004076958,2|0,0:0|2:0,0:0:0:0:
248,261,56827,6,0,P|308:248|357:218,1,106.875004076958,2|0,0:0|2:0,0:0:0:0:
365,139,57142,2,0,P|408:182|479:214,1,106.875004076958,8|0,0:0|0:0,0:0:0:0:
512,149,57458,6,0,P|505:198|510:266,2,106.875004076958,8|0|0,0:0|0:0|0:0,0:0:0:0:
378,77,58090,6,0,P|325:64|241:84,1,142.500005435944,0|2,0:0|0:0,0:0:0:0:
352,195,58563,1,0,0:0:0:0:
277,333,58721,1,8,0:0:0:0:
140,261,58879,1,8,0:0:0:0:
207,197,59037,1,2,0:0:0:0:
229,208,59116,1,0,0:0:0:0:
246,225,59195,1,0,0:0:0:0:
262,244,59274,1,0,0:0:0:0:
276,264,59353,6,0,P|292:312|293:370,1,106.875004076958,6|0,0:0|2:0,0:0:0:0:
232,301,59669,2,0,P|290:278|358:274,1,106.875004076958,8|0,0:0|2:0,0:0:0:0:
424,283,59985,2,0,P|400:238|308:196,1,142.500005435944,8|2,0:0|0:0,0:0:0:0:
154,254,60458,1,8,0:0:0:0:
154,254,60537,1,0,0:0:0:0:
152,252,60616,5,0,0:0:0:0:
267,220,60774,2,0,P|283:182|280:148,1,71.2500027179719,8|2,0:0|0:0,0:0:0:0:
430,24,61090,2,0,P|414:62|417:96,1,71.2500027179719,0|8,0:0|0:0,0:0:0:0:
255,64,61406,1,8,3:0:0:0:
416,92,61563,1,8,3:0:0:0:
429,112,61642,1,0,0:0:0:0:
436,135,61721,1,4,3:0:0:0:
441,159,61800,1,0,0:0:0:0:
443,183,61879,6,0,L|432:266,1,71.2500027179719,2|0,0:0|0:0,0:0:0:0:
293,325,62195,2,0,L|302:254,1,71.2500027179719,0|2,0:0|0:0,0:0:0:0:
185,71,62511,2,0,L|200:147,1,71.2500027179719,8|0,0:0|0:0,0:0:0:0:
116,234,62827,2,0,L|99:324,1,71.2500027179719,2|2,0:0|0:0,0:0:0:0:
286,264,63142,6,0,L|373:238,1,71.2500027179719,2|8,0:0|0:0,0:0:0:0:
117,100,63458,2,0,L|191:124,1,71.2500027179719,2|2,0:0|0:0,0:0:0:0:
311,330,63774,2,0,L|281:251,1,71.2500027179719,8|0,0:0|0:0,0:0:0:0:
211,56,64090,2,0,L|181:135,1,71.2500027179719,2|8,0:0|0:0,0:0:0:0:
285,263,64406,5,2,0:0:0:0:
294,128,64563,1,8,0:0:0:0:
171,185,64721,1,0,0:0:0:0:
378,158,64879,1,2,0:0:0:0:
193,51,65037,1,8,0:0:0:0:
185,272,65195,1,8,0:0:0:0:
338,57,65353,1,8,0:0:0:0:
332,321,65511,1,2,0:0:0:0:
211,166,65827,6,0,P|192:218|190:268,1,95,2|0,0:0|0:0,0:0:0:0:
332,321,66142,1,2,0:0:0:0:
371,174,66300,1,2,0:0:0:0:
351,147,66379,1,0,0:0:0:0:
326,124,66458,1,0,0:0:0:0:
301,101,66537,1,2,0:0:0:0:
271,84,66616,1,0,0:0:0:0:
239,72,66695,1,0,0:0:0:0:
200,65,66774,2,0,L|146:119,1,47.5,2|0,0:0|0:0,0:0:0:0:
134,172,66932,6,0,B|92:234|48:257|48:257|92:277|108:294,1,185.249991519928,6|0,0:0|0:0,0:0:0:0:
171,334,67248,2,0,P|215:314|278:306,1,95,8|0,0:0|0:0,0:0:0:0:
351,366,67563,1,2,0:0:0:0:
273,214,67721,1,2,0:0:0:0:
344,75,67879,1,8,0:0:0:0:
273,214,68037,1,0,0:0:0:0:
247,227,68116,1,0,0:0:0:0:
220,237,68195,6,0,P|168:251|122:245,1,95,2|2,0:0|0:0,0:0:0:0:
211,63,68511,1,8,0:0:0:0:
384,107,68669,2,0,P|408:154|417:211,1,95,0|2,0:0|0:0,0:0:0:0:
308,320,68985,2,0,P|284:273|275:216,1,95,2|8,0:0|0:0,0:0:0:0:
314,69,69300,1,0,0:0:0:0:
314,69,69379,1,0,0:0:0:0:
314,69,69458,6,0,P|263:102|175:87,1,142.5,2|0,0:0|0:0,0:0:0:0:
274,136,69774,2,0,P|306:171|317:234,1,95,8|0,0:0|0:0,0:0:0:0:
308,320,70090,1,2,0:0:0:0:
418,200,70248,1,2,0:0:0:0:
157,137,70406,1,8,0:0:0:0:
308,320,70563,1,0,0:0:0:0:
314,292,70642,1,0,0:0:0:0:
320,264,70721,2,0,P|311:182|284:138,1,95,2|2,0:0|0:0,0:0:0:0:
101,245,71037,6,0,P|50:267|38:159,1,185.249991519928,8|0,0:0|0:0,0:0:0:0:
18,170,71353,2,0,P|-18:238|35:329,1,185.249991519928,2|0,0:0|0:0,0:0:0:0:
118,347,71669,1,8,0:0:0:0:
270,271,71827,1,0,0:0:0:0:
181,194,71985,6,0,P|238:237|418:229,1,246.999988693238,6|8,0:0|0:0,0:0:0:0:
367,46,72458,1,0,0:0:0:0:
425,217,72616,1,2,0:0:0:0:
342,54,72774,2,0,P|301:73|268:111,2,95,2|8|0,0:0|0:0|0:0,0:0:0:0:
361,270,73248,5,2,0:0:0:0:
179,190,73406,1,2,0:0:0:0:
179,190,73563,1,8,0:0:0:0:
357,303,73721,1,0,0:0:0:0:
148,221,73879,1,2,0:0:0:0:
343,163,74037,1,2,0:0:0:0:
144,114,74195,1,8,0:0:0:0:
272,36,74353,1,0,0:0:0:0:
291,56,74432,1,0,0:0:0:0:
305,80,74511,6,0,P|337:149|340:269,1,190,6|8,0:0|0:0,0:0:0:0:
39,137,75142,1,2,0:0:0:0:
207,108,75300,1,2,0:0:0:0:
241,275,75458,1,8,0:0:0:0:
73,307,75616,1,0,0:0:0:0:
193,62,75774,6,0,L|209:115,1,47.5,2|0,0:0|0:0,0:0:0:0:
354,184,75932,2,0,L|340:138,1,47.5,2|0,0:0|0:0,0:0:0:0:
453,30,76090,2,0,L|470:95,1,47.5,8|0,0:0|0:0,0:0:0:0:
468,221,76248,2,0,L|454:175,1,47.5
340,136,76406,1,2,0:0:0:0:
328,172,76485,1,0,0:0:0:0:
317,207,76563,1,2,0:0:0:0:
306,243,76642,1,0,0:0:0:0:
293,279,76721,1,8,0:0:0:0:
281,315,76800,1,0,0:0:0:0:
268,349,76879,6,0,B|255:376|255:376|220:347|211:311|211:311|144:357|56:333,1,246.999988693238,6|2,0:0|0:0,0:0:0:0:
28,145,77353,2,0,P|74:145|127:173,1,95,8|0,0:0|0:0,0:0:0:0:
64,272,77669,1,2,0:0:0:0:
262,175,77827,1,2,0:0:0:0:
268,349,77985,1,8,0:0:0:0:
145,185,78142,1,0,0:0:0:0:
138,157,78221,1,0,0:0:0:0:
132,128,78300,6,0,P|135:71|162:30,1,95,2|2,0:0|0:0,0:0:0:0:
362,162,78616,1,8,0:0:0:0:
330,257,78774,2,0,P|272:283|219:289,1,95,0|2,0:0|0:0,0:0:0:0:
307,97,79090,1,2,0:0:0:0:
430,260,79248,1,8,0:0:0:0:
185,152,79406,1,0,0:0:0:0:
106,293,79563,6,0,B|128:281|149:249|149:249|161:296|196:332|196:332|225:283|289:289,1,246.999988693238,2|8,0:0|0:0,0:0:0:0:
479,344,80037,1,0,0:0:0:0:
512,218,80195,2,0,P|495:173|465:137,1,95,2|2,0:0|0:0,0:0:0:0:
230,81,80511,1,8,0:0:0:0:
248,103,80590,1,0,0:0:0:0:
259,129,80669,1,0,0:0:0:0:
266,156,80748,1,0,0:0:0:0:
269,184,80827,6,0,P|277:240|264:292,1,95,2|2,0:0|0:0,0:0:0:0:
73,174,81142,2,0,P|65:118|78:66,1,95,8|0,0:0|0:0,0:0:0:0:
164,33,81458,1,2,0:0:0:0:
327,254,81616,1,2,0:0:0:0:
336,87,81774,1,8,0:0:0:0:
226,205,81932,1,0,0:0:0:0:
462,203,82090,6,0,P|456:156|432:115,1,95,6|2,0:0|0:0,0:0:0:0:
384,325,82406,1,8,0:0:0:0:
132,217,82563,2,0,P|177:202|225:204,1,95,0|2,0:0|0:0,0:0:0:0:
189,286,82879,1,2,0:0:0:0:
276,70,83037,1,8,0:0:0:0:
104,116,83195,1,0,0:0:0:0:
104,116,83274,1,0,0:0:0:0:
104,116,83353,6,0,P|152:132|211:128,1,95,2|2,0:0|0:0,0:0:0:0:
344,36,83669,2,8,L|369:80,1,47.5
286,229,83827,2,0,L|263:188,1,47.5
437,185,83985,2,0,L|462:229,1,47.5
279,379,84142,2,0,L|255:337,1,47.5
225,160,84300,1,0,0:0:0:0:
204,191,84379,1,0,0:0:0:0:
185,223,84458,1,0,0:0:0:0:
167,256,84537,1,0,0:0:0:0:
146,287,84616,6,0,P|103:212|102:153,1,142.500005435944,6|0,0:0|0:0,0:0:0:0:
268,54,85090,1,2,0:0:0:0:
268,54,85248,2,0,P|311:129|312:188,1,142.500005435944,8|2,0:0|0:0,0:0:0:0:
145,288,85721,6,0,L|161:210,1,71.2500027179719,2|0,0:0|0:0,0:0:0:0:
268,54,86037,2,0,L|284:132,1,71.2500027179719,8|2,0:0|0:0,0:0:0:0:
303,219,86353,1,0,0:0:0:0:
175,125,86511,1,8,0:0:0:0:
352,26,86669,1,2,0:0:0:0:
345,53,86748,1,0,0:0:0:0:
337,80,86827,1,0,0:0:0:0:
182,218,86985,1,0,0:0:0:0:
182,218,87142,6,0,B|172:179|178:141,1,71.2500027179719,2|0,0:0|0:0,0:0:0:0:
225,46,87458,1,0,0:0:0:0:
371,208,87616,2,0,P|338:220|303:219,1,71.2500027179719,2|8,0:0|0:0,0:0:0:0:
460,137,87932,1,0,0:0:0:0:
308,45,88090,2,0,P|295:82|292:115,1,71.2500027179719,0|2,0:0|0:0,0:0:0:0:
345,250,88406,5,0,0:0:0:0:
127,158,88563,1,0,0:0:0:0:
127,158,88879,1,0,0:0:0:0:
223,96,89037,2,0,P|258:99|291:113,1,71.2500027179719
267,264,89353,1,0,0:0:0:0:
267,264,89432,1,0,0:0:0:0:
267,264,89511,1,0,0:0:0:0:
267,264,89590,1,0,0:0:0:0:
267,264,89669,1,4,0:0:0:0:
