osu file format v9

[General]
AudioFilename: gekiwhat.mp3
AudioLeadIn: 0
PreviewTime: 52883
Countdown: 0
SampleSet: Normal
StackLeniency: 0.7
Mode: 0
LetterboxInBreaks: 1

[Editor]
DistanceSpacing: 0.8
BeatDivisor: 4
GridSize: 8

[Metadata]
Title:Gekidou (TV Size)
Artist:UVERworld
Creator:arien666
Version:Kantan
Source:D.Gray-man
Tags:taiko taikosu arken1015 Awakeve opening kanpakyin KDS

[Difficulty]
HPDrainRate:2
CircleSize:3
OverallDifficulty:1
ApproachRate:2
SliderMultiplier:0.72
SliderTickRate:1

[Events]
//Background and Video events
Video,-120,"gekiwhat.avi"
0,0,"gekikasu.JPG"
//Break Periods
//Storyboard Layer 0 (Background)
//Storyboard Layer 1 (Fail)
//Storyboard Layer 2 (Pass)
//Storyboard Layer 3 (Foreground)
//Storyboard Sound Samples
//Background Colour Transformations
3,100,163,162,255

[TimingPoints]
4440,530.973451327434,4,1,1,80,1,0
44793,530.973451327434,3,1,1,80,1,0
49571,530.973451327434,4,1,1,80,1,0
53818,-100,4,1,1,80,0,1
85677,-100,4,1,1,80,0,0

[Colours]
Combo1 : 112,196,193
Combo2 : 243,89,34

[HitObjects]
256,192,4440,1,4
0,192,8687,6,0,B|152:192,1,144
200,192,10280,1,4
256,192,10811,6,0,B|312:136,1,72,0|2
364,141,11873,2,0,B|419:196,1,72
472,352,13997,1,0
368,301,15059,6,0,B|308:358,1,72,0|2
258,350,16121,2,0,B|176:328,1,72
256,56,19307,5,0
160,120,20369,1,0
256,192,21431,2,0,B|336:192,1,72
384,192,22493,1,0
472,264,23555,5,0
352,264,24616,1,0
256,192,25678,2,0,B|176:192,1,72
128,192,26740,1,0
16,192,27802,6,0,B|72:136,1,72,0|2
107,100,28864,1,0
176,192,29926,2,0,B|232:248,1,72,0|2
267,284,30988,1,0
336,192,32050,6,0,B|280:136,1,72,0|2
245,100,33112,1,0
176,192,34174,2,0,B|120:248,2,72,0|2|0
214,149,35767,1,4
256,112,36298,6,0,B|328:112,1,72
384,112,37360,1,0
456,192,38422,2,0,B|376:192,1,72
328,192,39484,1,0
256,272,40546,6,0,B|176:272,1,72
128,272,41608,1,0
56,192,42670,2,0,B|136:192,1,72
184,192,43732,1,0
256,104,44793,5,2
408,192,46385,1,2
256,280,47978,1,2
104,192,49571,6,2,B|104:112,1,72
144,80,50632,2,2,B|240:80,1,72
272,80,51694,2,0,B|312:80|352:120,2,72,0|2|4
256,192,53818,6,0,B|256:280,1,72,0|2
256,320,54880,1,0
144,320,55942,2,0,B|59:314,1,72,0|2
16,312,57004,1,0
16,192,58066,6,0,B|16:104,1,72,0|2
16,64,59128,1,0
128,64,60190,2,0,B|212:68,1,72,0|2
256,72,61252,1,0
256,192,62314,5,0
488,192,64438,1,0
448,232,64969,1,0
408,272,65500,1,0
336,192,66562,5,0
296,152,67093,1,0
256,112,67624,1,0
176,192,68686,2,0,B|136:280|56:256,1,144
16,224,70278,1,4
8,168,70809,6,0,B|72:104,1,72,0|2
99,76,71871,1,0
216,56,72933,1,0
328,72,73995,2,0,B|392:136,1,72
424,160,75057,6,0,B|424:243,1,72,0|2
424,289,76119,1,0
320,336,77181,1,0
256,240,78243,1,0
205,213,78774,1,0
152,192,79305,5,0
96,192,79836,1,2
40,192,80367,1,0
104,96,81429,1,0
200,32,82491,1,0
256,32,83022,1,0
312,48,83553,5,0
344,96,84084,1,2
360,152,84615,1,0
256,192,87668,5,4
