osu file format v9

[General]
AudioFilename: gekiwhat.mp3
AudioLeadIn: 0
PreviewTime: 52883
Countdown: 0
SampleSet: Normal
StackLeniency: 0.7
Mode: 1
LetterboxInBreaks: 0

[Editor]
DistanceSpacing: 1.34
BeatDivisor: 4
GridSize: 8

[Metadata]
Title:Gekidou (TV Size)
Artist:UVERworld
Creator:arien666
Version:Kanpakyin's Taiko Oni
Source:D.Gray-man
Tags:taiko taikosu arken1015 Awakeve opening kanpakyin KDS

[Difficulty]
HPDrainRate:5
CircleSize:5
OverallDifficulty:5
ApproachRate:5
SliderMultiplier:1.4
SliderTickRate:1

[Events]
//Background and Video events
0,0,"Taiko BG.jpg"
//Break Periods
//Storyboard Layer 0 (Background)
//Storyboard Layer 1 (Fail)
//Storyboard Layer 2 (Pass)
//Storyboard Layer 3 (Foreground)
//Storyboard Sound Samples
//Background Colour Transformations
3,100,163,162,255

[TimingPoints]
4440,530.973451327434,4,1,1,90,1,0
44793,530.973451327434,3,1,1,90,1,0
49571,530.973451327434,4,1,1,90,1,0
53818,-100,4,1,1,90,0,1
85677,-100,4,1,1,90,0,0

[Colours]
Combo1 : 112,196,193
Combo2 : 243,89,34

[HitObjects]
400,88,4440,1,4
400,88,4838,1,0
400,88,4970,1,8
400,88,5236,1,0
400,88,5369,1,0
400,88,5501,1,8
400,88,6032,1,8
400,88,7094,1,8
400,88,7493,1,0
400,88,7625,1,8
400,88,7758,1,0
400,88,8024,1,0
400,88,8289,1,0
400,88,8422,1,0
400,88,8555,1,0
400,88,8687,1,8
256,192,8953,12,0,10015
400,88,10280,5,4
400,88,10811,1,4
400,88,11077,1,0
400,88,11209,1,8
400,88,11475,1,0
400,88,11608,1,8
400,88,11873,1,8
400,88,12006,1,0
400,88,12271,1,8
400,88,12404,1,0
400,88,12670,1,8
400,88,12802,1,8
400,88,12935,1,0
400,88,13068,1,8
400,88,13201,1,0
400,88,13466,1,8
400,88,13732,1,8
400,88,13864,1,0
400,88,14130,1,0
400,88,14395,1,0
400,88,14528,1,0
400,88,14661,1,0
400,88,14793,1,8
400,88,14926,1,0
400,88,15059,1,8
400,88,15324,1,0
400,88,15457,1,8
400,88,15723,1,0
400,88,15855,1,8
400,88,16121,1,8
400,88,16254,1,0
400,88,16519,1,8
400,88,16652,1,0
400,88,16917,1,8
400,88,17183,1,0
400,88,17316,1,0
400,88,17448,1,0
400,88,17581,1,8
400,88,17847,1,0
400,88,17979,1,8
400,88,18378,1,0
400,88,18510,1,0
400,88,18643,1,0
400,88,18776,1,0
400,88,19307,1,4
400,88,19705,1,0
400,88,19838,1,8
400,88,20103,1,0
400,88,20236,1,0
400,88,20369,1,8
400,88,20501,1,0
400,88,20767,1,0
400,88,20900,1,8
400,88,21165,1,0
400,88,21431,1,8
400,88,21563,1,0
400,88,21829,1,0
400,88,21962,1,8
400,88,22227,1,0
400,88,22360,1,0
400,88,22493,1,8
400,88,22758,1,0
400,88,23024,1,8
400,88,23422,1,0
400,88,23555,1,8
400,88,23687,1,0
400,88,23953,1,0
400,88,24086,1,8
400,88,24218,1,0
400,88,24484,1,0
400,88,24749,1,0
400,88,24882,1,0
400,88,25015,1,0
400,88,25280,1,0
400,88,25413,1,8
400,88,25546,1,0
400,88,25811,1,0
400,88,25944,1,8
400,88,26077,1,0
400,88,26342,1,0
400,88,26608,1,0
400,88,26740,1,8
400,88,27006,1,0
400,88,27271,1,8
400,88,27670,5,0
400,88,27802,1,8
400,88,28068,1,0
400,88,28201,1,0
400,88,28333,1,8
400,88,28599,1,0
400,88,28864,1,0
400,88,28997,1,8
400,88,29263,1,0
400,88,29395,1,8
400,88,29661,1,0
400,88,29793,1,0
400,88,29926,1,8
400,88,30059,1,0
400,88,30324,1,0
400,88,30457,1,8
400,88,30723,1,0
400,88,30855,1,0
400,88,30988,1,8
400,88,31121,1,8
400,88,31254,1,0
400,88,31386,1,0
400,88,31519,1,8
400,88,31652,1,0
400,88,31917,1,0
400,88,32050,1,0
400,88,32183,1,0
400,88,32316,1,8
400,88,32581,1,8
400,88,32847,1,0
400,88,33112,1,8
400,88,33245,1,0
400,88,33510,1,0
400,88,33643,1,8
400,88,33776,1,0
400,88,33909,1,8
400,88,34174,1,0
400,88,34439,1,0
400,88,34572,1,0
400,88,34705,1,8
400,88,34838,1,0
400,88,35103,1,0
400,88,35236,1,0
400,88,35501,5,0
400,88,35634,1,0
400,88,35767,1,8
400,88,36032,1,0
400,88,36298,1,4
400,88,36563,1,0
400,88,36696,1,0
400,88,36829,1,8
400,88,37094,1,0
400,88,37227,1,0
400,88,37360,1,8
400,88,37493,1,8
400,88,37625,1,8
400,88,37758,1,0
400,88,37891,1,8
400,88,38156,1,8
400,88,38289,1,0
400,88,38422,1,8
400,88,38687,1,8
400,88,38820,1,8
400,88,38953,1,0
400,88,39218,1,0
400,88,39351,1,0
400,88,39484,1,8
400,88,39882,1,0
400,88,40015,1,8
400,88,40147,1,0
400,88,40280,1,0
400,88,40413,1,0
400,88,40546,1,8
400,88,40811,1,0
400,88,40944,1,0
400,88,41077,1,8
400,88,41342,1,8
400,88,41475,1,0
400,88,41740,1,0
400,88,41873,1,8
400,88,42139,1,0
400,88,42404,1,0
400,88,42537,1,0
400,88,42670,1,8
400,88,42935,1,0
400,88,43201,1,8
400,88,43466,1,0
400,88,43599,1,8
400,88,43864,1,0
400,88,43997,1,0
400,88,44130,1,0
400,88,44263,1,8
400,88,44661,1,0
400,88,44793,1,8
400,88,45058,1,0
400,88,45323,1,8
400,88,45589,1,0
400,88,45854,1,0
400,88,46120,1,0
400,88,46385,1,8
400,88,46916,1,0
400,88,47182,1,8
400,88,47713,1,0
400,88,47978,1,8
400,88,48244,1,8
400,88,48509,1,0
400,88,48775,1,0
400,88,49040,1,8
400,88,49306,1,8
400,88,49439,1,0
400,88,49571,1,0
400,88,50101,1,0
400,88,50367,1,0
400,88,50500,1,0
400,88,50632,1,0
400,88,50765,1,0
400,88,50898,1,0
400,88,51031,1,0
400,88,51163,1,0
400,88,51296,1,0
400,88,51429,1,0
400,88,51562,1,0
256,192,51694,12,0,53553
416,152,53818,5,8
416,152,53951,1,0
416,152,54217,1,8
416,152,54349,1,0
416,152,54615,1,8
416,152,54747,1,8
416,152,54880,1,0
416,152,55013,1,0
416,152,55146,1,8
416,152,55411,1,8
416,152,55677,1,0
416,152,55809,1,0
416,152,55942,1,8
416,152,56075,1,0
416,152,56340,1,0
416,152,56473,1,8
416,152,56606,1,0
416,152,56871,1,0
416,152,57004,1,8
416,152,57270,1,0
416,152,57402,1,0
416,152,57535,1,8
416,152,57668,1,0
416,152,57801,1,8
416,152,57933,1,0
416,152,58066,1,8
416,152,58464,1,0
416,152,58597,1,8
416,152,58863,1,0
416,152,58995,1,8
416,152,59261,1,0
416,152,59394,1,8
416,152,59659,1,0
416,152,59792,1,0
416,152,59924,1,8
416,152,60057,1,8
416,152,60190,1,0
416,152,60455,1,0
416,152,60588,1,8
416,152,60721,1,0
416,152,60854,1,8
416,152,61119,1,0
416,152,61252,1,8
416,152,61385,1,0
416,152,61517,1,0
416,152,61650,1,0
416,152,61783,1,8
416,152,62048,1,8
416,152,62181,1,8
416,152,62314,1,0
416,152,62712,1,0
416,152,62845,1,8
416,152,63110,1,0
416,152,63243,1,0
416,152,63376,1,8
416,152,63641,1,0
416,152,63774,1,0
416,152,63907,1,8
416,152,64040,1,0
416,152,64305,1,0
416,152,64438,1,8
416,152,64703,1,8
416,152,64836,1,8
416,152,64969,1,0
416,152,65101,1,8
416,152,65234,1,0
416,152,65367,1,8
416,152,65632,1,0
416,152,65765,1,8
416,152,66031,1,8
416,152,66429,1,0
416,152,66562,1,0
416,152,66827,1,8
416,152,66960,1,8
416,152,67093,1,0
416,152,67225,1,8
416,152,67491,1,0
416,152,67756,1,0
416,152,68022,1,0
416,152,68155,1,8
416,152,68420,1,0
416,152,68553,1,8
416,152,68686,1,0
256,192,68951,12,0,70278
416,152,70544,5,8
416,152,70677,1,0
416,152,70809,1,8
416,152,71075,1,0
416,152,71208,1,8
416,152,71340,1,0
416,152,71606,1,0
416,152,71739,1,0
416,152,71871,1,8
416,152,72004,1,0
416,152,72137,1,0
416,152,72270,1,8
416,152,72402,1,0
416,152,72668,1,0
416,152,72801,1,8
416,152,72933,1,8
416,152,73199,1,0
416,152,73464,1,8
416,152,73597,1,8
416,152,73730,1,0
416,152,73863,1,0
416,152,73995,1,8
416,152,74261,1,0
416,152,74394,1,8
416,152,74792,1,8
416,152,74924,1,0
416,152,75057,1,8
416,152,75323,1,8
416,152,75455,1,0
416,152,75588,1,8
416,152,75854,1,0
416,152,76119,1,8
416,152,76252,1,8
416,152,76385,1,0
416,152,76517,1,8
416,152,76650,1,0
416,152,76916,1,0
416,152,77048,1,0
416,152,77181,1,8
416,152,77579,1,0
416,152,77712,1,8
416,152,77978,1,0
416,152,78243,1,8
416,152,78376,1,8
416,152,78509,1,0
416,152,78641,1,0
416,152,78774,1,8
416,152,79040,1,0
416,152,79172,1,0
416,152,79305,1,8
416,152,79570,1,0
416,152,79703,1,0
416,152,79836,1,8
416,152,80234,1,0
416,152,80367,1,8
416,152,80632,1,0
416,152,80765,1,0
416,152,80898,1,8
416,152,81163,1,0
416,152,81296,1,8
416,152,81562,1,0
416,152,81694,1,8
416,152,81960,1,8
416,152,82093,1,0
416,152,82225,1,8
416,152,82358,1,0
416,152,82491,1,8
416,152,82756,1,0
416,152,83022,1,8
416,152,83287,1,8
416,152,83420,1,8
416,152,83553,1,0
416,152,83818,1,8
416,152,83951,1,8
416,152,84084,1,0
416,152,84349,1,0
416,152,84482,1,8
416,152,84747,1,8
416,152,84880,1,8
416,152,85013,1,0
416,152,85146,1,0
416,152,85278,1,8
416,152,85411,1,0
416,152,85544,1,0
416,152,85677,1,8
256,192,87668,1,4
