osu file format v5

[General]
AudioFilename: op2.MP3
AudioLeadIn: 0
PreviewTime: -1
Countdown: 0
SampleSet: Normal
StackLeniency: 0.7
Mode: 0
LetterboxInBreaks: 1
EditorBookmarks: 21518

[Metadata]
Title:D-tecnolife
Artist:UVERworld
Creator:tom800510
Version:Normal
Source:
Tags:

[Difficulty]
HPDrainRate:5
CircleSize:5
OverallDifficulty:6
SliderMultiplier:2
SliderTickRate:2

[Events]
//Background and Video events
0,0,"Bleach_poptp_91939_449957(2).jpg"
1,128,"Clip_[10-33-59].AVI"
//Break Periods
2,41473,43791
//Storyboard Layer 0 (Background)
//Storyboard Layer 1 (Failing)
//Storyboard Layer 2 (Passing)
//Storyboard Layer 3 (Foreground)
//Storyboard Sound Samples
//Background Colour Transformations
3,100,163,162,255

[TimingPoints]
21476,713.436385255648,4,1,0,70,1

[Colours]
Combo1 : 32,37,223
Combo2 : 237,163,7
Combo3 : 15,149,230
Combo4 : 240,34,4

[HitObjects]
83,193,22189,1,4
173,193,22724,1,0
174,252,23081,1,0
174,311,23437,1,0
233,312,23794,1,0
292,313,24151,2,0,B|406:313,2,100
130,304,26470,5,0
131,243,26826,1,0
132,183,27183,1,0
191,180,27540,1,0
191,180,27718,1,8
191,119,28075,1,0
191,119,28253,1,0
89,71,29145,6,0,B|3:71,2,50
148,72,29858,1,0
148,72,30037,1,8
207,72,30393,1,0
207,72,30572,1,0
266,72,30929,1,0
325,72,31285,1,4
109,334,32890,6,0,B|286:334,2,150
106,273,34317,1,0
105,213,34674,1,0
105,213,34852,1,0
105,213,35031,1,8
164,213,35388,1,0
223,214,35744,1,0
282,215,36101,1,0
282,215,36279,1,8
341,216,36636,1,0
340,156,36993,2,0,B|231:156,1,100
236,96,37706,2,0,B|237:33,1,50
400,311,38598,6,0,B|458:311,2,50
394,251,39311,2,0,B|333:251,4,50
394,191,40382,1,0
394,191,40560,1,8
419,136,40917,1,0
393,81,41273,1,4
254,74,44841,5,0
347,335,45554,1,0
287,335,45911,1,0
227,335,46267,1,0
167,336,46624,1,4
67,76,47159,6,0,B|151:76,1,50
176,76,47694,1,0
179,165,48229,2,0,B|99:165,1,50
68,167,48764,1,0
67,226,49121,1,8
68,286,49478,2,0,B|69:348,4,50
128,286,50548,1,0
187,287,50905,1,0
247,288,51261,1,8
248,287,51618,1,0
248,287,51797,1,0
459,53,52153,5,0
459,53,52332,1,0
460,112,52688,1,8
460,171,53045,1,0
458,231,53402,1,0
431,284,53758,1,0
431,284,53937,1,0
431,284,54115,1,8
382,318,54472,1,0
322,320,54829,1,0
262,320,55185,5,0
262,320,55364,1,0
262,320,55542,1,8
201,318,55899,1,0
141,319,56256,1,0
104,271,56612,1,8
59,311,56969,1,0
58,311,57326,1,0
204,198,57861,6,0,B|123:198,4,50
233,145,58931,1,0
233,145,59109,1,0
273,100,59466,5,0
273,100,59644,1,0
273,100,59823,1,8
273,100,60179,1,0
314,56,60536,1,0
360,93,60893,1,0
360,93,61071,1,0
360,93,61250,1,0
399,138,61606,2,4,B|470:220,1,100
465,273,62320,1,0
465,273,62676,1,0
465,332,63033,1,0
465,332,63212,1,8
110,328,63568,5,0
110,328,63747,1,0
110,328,63925,1,0
110,328,64103,1,0
110,268,64460,1,0
111,208,64817,1,0
113,148,65173,1,0
111,88,65530,1,0
112,27,65887,1,0
171,27,66244,2,0,B|244:96|300:90|334:-8|381:-10|420:119|515:59,1,350
460,336,68562,5,0
460,336,68741,1,8
429,273,69097,1,0
360,256,69454,1,0
253,274,69989,2,4,B|230:330|133:351|62:320|52:234|57:171|60:100|140:90|159:216|276:368|215:139|188:89|190:45|259:30|341:23|437:52,1,700,4|0
434,51,72665,1,0
471,109,73021,1,0
413,148,73378,1,0
457,201,73735,1,0
407,250,74091,1,0
456,299,74448,1,0
409,350,74805,1,0
409,350,75162,1,0
256,192,75697,12,0,77124
257,44,77659,5,0
257,44,77837,1,0
257,44,78015,2,0,B|257:170,1,100,0|0
257,179,78550,1,0
256,214,78729,1,0
194,315,79085,5,0
225,290,79264,1,0
257,313,79442,1,0
289,289,79621,1,0
319,314,79799,1,8
256,192,79977,12,4,81226
