osu file format v9

[General]
AudioFilename: Ao_no_Exorcist_-_Core_Pride_TV_Size.mp3
AudioLeadIn: 0
PreviewTime: 31169
Countdown: 1
SampleSet: Normal
StackLeniency: 0.7
Mode: 0
LetterboxInBreaks: 1

[Editor]
DistanceSpacing: 1
BeatDivisor: 4
GridSize: 8

[Metadata]
Title:Core Pride (TV Size)
Artist:UVERworld
Creator:Silarial
Version:Hard
Source:Ao no Exorcist
Tags:blue exorcist rin okumura

[Difficulty]
HPDrainRate:7
CircleSize:5
OverallDifficulty:6
ApproachRate:7
SliderMultiplier:1.5
SliderTickRate:1

[Events]
//Background and Video events
Video,0,"UVERworld-CORE-PRIDE.avi"
0,0,"Rin Background.jpg"
//Break Periods
//Storyboard Layer 0 (Background)
//Storyboard Layer 1 (Fail)
//Storyboard Layer 2 (Pass)
//Storyboard Layer 3 (Foreground)
//Storyboard Sound Samples
//Background Colour Transformations
3,100,163,162,255

[TimingPoints]
34,324.324324324324,4,1,0,95,1,0
70088,-100,4,1,0,95,0,1
83709,-100,4,1,0,95,0,0

[Colours]
Combo1 : 0,0,0
Combo2 : 0,0,102
Combo3 : 134,134,134
Combo4 : 0,112,166

[HitObjects]
64,168,9439,1,0
368,168,10088,2,0,B|408:200|368:240,1,75
296,232,10412,2,0,B|296:288|336:280,1,75,8|0
408,288,10736,1,0
464,240,10898,1,0
464,240,11061,1,8
472,88,11385,1,0
320,88,11709,1,8
400,216,12034,1,0
400,216,12358,1,8
248,208,12682,5,0
208,144,12844,1,0
168,80,13006,1,8
96,80,13169,2,0,B|56:120|104:176,1,75
88,224,13493,1,0
88,224,13655,2,0,B|120:272|72:312,2,75,8|0|0
240,224,14304,6,0,B|320:224,1,75,0|0
312,224,14628,1,8
464,224,14952,1,0
456,72,15277,6,0,B|416:40|376:80,2,75
456,72,15763,1,0
456,144,15925,2,0,B|416:176|376:136,2,75,0|0|8
456,72,16412,1,0
384,72,16574,2,0,B|328:72|328:128,1,75
328,112,16898,5,8
328,184,17061,2,0,B|328:264,1,75,0|0
176,256,17547,1,8
176,104,17871,6,0,B|120:48,1,75
128,56,18196,1,0
280,56,18520,5,8
280,56,18682,2,0,B|320:104|272:136,2,75
352,56,19169,1,0
408,104,19331,1,0
352,154,19493,2,0,B|320:194|360:242,1,75
347,222,19817,5,0
196,223,20142,1,8
449,63,20790,6,0,B|398:69|393:131,1,75,0|0
398,185,21115,1,0
398,185,21277,1,0
394,259,21439,2,0,B|387:309|325:314,1,75,8|0
347,310,21763,1,0
272,311,21925,1,0
199,292,22088,1,8
158,229,22250,1,0
160,152,22412,2,0,B|166:101|228:96,1,75,8|0
280,96,22736,2,0,B|368:96,1,75
448,96,23061,1,0
448,96,23223,1,0
448,168,23385,6,0,B|448:248,1,75,8|0
448,243,23709,1,0
448,320,23871,2,0,B|448:368|392:368,2,75
401,367,24358,1,8
328,368,24520,1,0
248,368,24682,1,0
176,368,24844,2,0,B|120:368|120:296,1,75
120,176,25331,6,0,B|144:136|104:112|144:88,1,75,0|0
240,104,25655,2,0,B|320:168|240:224,1,150,0|8
88,224,26304,2,0,B|48:264|104:312,2,75
88,224,26790,1,0
88,152,26952,2,0,B|48:112|0:168,2,75,0|0|8
160,152,27439,1,0
232,152,27601,1,0
344,152,27925,6,0,B|424:152,1,75,8|0
416,224,28250,1,0
344,224,28412,1,0
272,224,28574,2,0,B|216:232|192:168,1,75
208,120,28898,1,8
208,48,29061,2,8,B|280:8|352:56,1,150,0|0
424,64,29547,2,0,B|504:64,1,75
424,64,29871,2,0,B|424:152,1,75,8|0
424,216,30196,1,0
368,272,30358,1,0
152,208,30844,5,0
152,208,31006,2,0,B|152:128,1,75
152,56,31331,2,0,B|256:56,1,75
224,128,31655,2,0,B|224:224,1,75,0|8
224,280,31979,1,0
296,280,32142,2,0,B|384:280,1,75
448,280,32466,2,0,B|448:184,1,75
440,128,32790,2,0,B|336:128,1,75,0|0
368,200,33115,1,8
296,200,33277,2,0,B|224:152|128:152|72:208,1,225
88,272,33925,6,0,B|88:352,3,75
96,352,34574,1,0
96,352,34736,1,8
96,352,34898,2,0,B|192:349|192:245,1,150
176,24,35709,6,0,B|272:24|272:120,1,150
272,192,36196,1,0
272,264,36358,2,0,B|360:264|360:152,1,150,8|0
360,88,36844,6,0,B|360:8,2,75,0|0|0
360,88,37331,1,0
360,88,37493,2,0,B|360:248,1,150
360,240,37979,5,8
360,240,38142,1,0
360,312,38304,1,0
360,312,38466,2,0,B|272:312|272:216,1,150
272,216,38952,1,0
272,144,39115,1,0
272,144,39277,1,8
272,24,39601,5,0
272,24,39925,2,0,B|232:48|184:16,2,75
272,24,40412,1,8
256,240,40898,6,0,B|296:216|344:248,2,75
184,240,41385,1,0
184,240,41547,1,0
112,240,41871,6,0,B|64:240|64:192,1,75,8|0
64,120,42196,1,0
64,48,42358,1,0
64,48,42520,1,0
136,48,42682,2,0,B|192:48|192:104,1,75
192,240,43169,1,8
192,240,43331,2,0,B|192:288|248:288,1,75
312,288,43655,2,0,B|400:288,1,75
464,288,43979,6,0,B|464:224|400:224,1,75
424,160,44304,1,0
424,160,44466,1,8
424,88,44628,2,0,B|320:88|312:176,1,150
312,240,45115,1,8
240,240,45277,1,0
168,240,45439,2,0,B|128:240|128:184,2,75
304,296,46088,6,0,B|408:296|408:168|280:168,1,225
224,168,46736,1,0
152,176,46898,2,0,B|48:176|48:304|176:304,1,225
232,304,47547,1,0
304,304,47709,2,0,B|384:240|256:144|384:80,1,225,8|0
354,98,48520,1,0
208,96,48844,2,0,B|168:128|216:168,1,75
208,232,49169,1,0
208,304,49331,1,8
360,304,49655,6,0,B|360:144,1,150
360,80,50142,1,0
288,80,50304,2,0,B|232:80|232:136,1,75
232,192,50628,1,8
232,192,50790,1,0
224,264,50952,2,0,B|168:264|168:208,1,75,0|0
168,152,51277,2,0,B|168:72,2,75
168,152,51763,1,0
168,224,51925,1,8
168,376,52250,6,0,B|72:376,2,75,0|0|0
248,376,52736,1,0
248,304,52898,2,0,B|264:216|360:224,1,150,0|8
355,223,53385,1,0
416,184,53547,1,0
416,112,53709,1,0
344,88,53871,1,0
272,112,54033,2,0,B|232:144|272:176,1,75,0|0
120,168,54520,1,8
112,320,54844,6,0,B|208:320|208:224,1,150
208,80,55493,1,0
360,80,55817,2,0,B|464:80|464:184,1,150
464,312,56466,1,8
312,312,56790,2,0,B|128:312,1,150
162,312,57277,1,0
88,312,57439,1,0
88,312,57601,1,0
88,240,57763,2,0,B|88:144|176:144,1,150,0|8
248,144,58250,1,0
248,144,58412,1,0
400,144,58736,1,0
400,296,59061,2,0,B|400:376,2,75,0|0|0
400,144,59709,5,8
248,144,60033,2,0,B|152:144,2,75
248,144,60520,1,0
248,144,60682,2,0,B|248:240,1,75
248,296,61006,1,8
320,296,61169,2,0,B|408:296,2,75
320,296,61655,1,0
320,296,61817,2,0,B|320:192,1,75
320,144,62142,1,0
320,72,62304,6,0,B|240:24|184:88,1,150,8|0
184,160,62790,1,0
184,232,62952,2,0,B|104:280|48:216,1,150
48,144,63439,1,0
48,72,63601,2,0,B|112:32,1,75
184,32,63925,2,0,B|256:80,1,75,8|0
320,72,64250,2,0,B|384:24,1,75
380,27,64574,1,0
384,176,64898,6,0,B|384:336,2,150,8|0|8
384,104,65709,2,0,B|224:104,1,150
160,104,66196,1,0
160,176,66358,2,0,B|160:256,1,75
160,328,66682,2,0,B|288:328|280:152,1,225,8|0
280,96,67331,2,0,B|408:96|400:272,1,225
400,328,67979,6,0,B|336:328,4,37.5
400,328,68466,1,8
400,256,68628,1,0
376,184,68790,1,0
312,136,68952,2,0,B|224:136,1,75
160,136,69277,1,0
160,136,69439,2,0,B|72:136|72:240,1,150
200,312,70088,5,8
352,312,70412,2,0,B|432:312,2,75
200,312,71061,1,0
48,312,71385,1,0
48,160,71709,2,0,B|48:56,1,75,8|0
46,87,72033,5,0
46,87,72358,1,0
256,192,72682,12,0,74952
256,192,75277,5,0
344,192,75439,2,0,B|392:224|336:280,1,75
352,328,75763,2,0,B|272:328,1,75,0|8
128,328,76250,6,0,B|64:328|64:272,1,75
64,216,76574,1,0
64,144,76736,2,0,B|64:64,1,75
64,69,77061,1,0
64,72,77223,1,8
216,72,77547,6,0,B|264:72|264:128,2,75
263,118,78033,1,0
264,192,78196,1,0
264,192,78358,1,0
264,264,78520,2,0,B|360:264,1,75,8|0
488,264,79006,6,0,B|488:176,2,75,0|0|0
488,264,79493,1,0
336,272,79817,1,8
184,272,80142,6,0,B|120:272|120:208,1,75
120,160,80466,1,0
120,88,80628,1,0
120,88,80790,2,0,B|120:24|184:24,2,75,0|0|8
272,96,81439,6,0,B|352:96,1,75
424,96,81763,1,0
424,168,81925,1,0
352,192,82088,2,0,B|272:192,1,75
200,192,82412,1,8
48,192,82736,6,0,B|48:256|112:256,2,75
48,120,83223,1,0
48,48,83385,1,0
120,48,83547,2,0,B|184:48|184:112,1,75,0|8
256,192,83871,12,0,85655
