osu file format v6

[General]
AudioFilename: UVERworld - Colors of the Heart.mp3
AudioLeadIn: 0
PreviewTime: -1
Countdown: 1
SampleSet: Soft
StackLeniency: 0.7
Mode: 0
LetterboxInBreaks: 1

[Editor]
DistanceSpacing: 0.5
BeatDivisor: 4
GridSize: 8

[Metadata]
Title:Colors of the Heart
Artist:UVERworld
Creator:kubzter
Version:Hard
Source:
Tags:

[Difficulty]
HPDrainRate:5
CircleSize:5
OverallDifficulty:5
SliderMultiplier:1.4
SliderTickRate:1

[Events]
//Background and Video events
0,0,"uver_color.jpg"
//Break Periods
2,31170,35512
2,136407,170309
//Storyboard Layer 0 (Background)
//Storyboard Layer 1 (Fail)
//Storyboard Layer 2 (Pass)
//Storyboard Layer 3 (Foreground)
//Storyboard Sound Samples
//Background Colour Transformations
3,100,163,162,255

[TimingPoints]
9152.01228547685,353.336081502856,4,2,0,69,1,0
9874,-100,4,2,0,69,0,1
31060,-100,4,2,0,69,0,0
61408,-100,4,2,0,69,0,1
83518,-100,4,2,0,69,0,0
113659,-100,4,2,0,69,0,1
134890,-100,4,2,0,69,0,0
171620,-100,4,2,0,69,0,1
193865,-100,4,2,0,69,0,0

[Colours]
Combo1 : 128,0,128
Combo2 : 203,160,12
Combo3 : 238,45,45
Combo4 : 128,64,0

[HitObjects]
40,40,9152,1,4
144,80,9682,1,4
104,64,9858,1,4
208,16,10477,1,4
192,32,10565,1,4
160,96,10918,1,4
216,48,11272,1,4
280,56,11625,1,4
344,56,11978,2,4,L|336:184,4,105
352,264,14098,5,4
368,240,14275,1,4
376,216,14452,1,4
376,184,14628,1,4
384,160,14805,1,4
336,72,15335,1,4
336,72,15423,1,4
216,112,16042,1,4
248,112,16218,1,4
320,112,16572,1,4
336,144,16748,1,4
336,144,17102,1,4
352,184,17278,1,4
368,256,17632,2,4,L|192:192|80:344|0:184|0:152|184:80|208:80|216:112,1,840
272,144,20105,1,4
240,128,20282,1,4
240,128,20458,1,4
200,40,20988,5,4
240,128,21165,1,4
304,120,21518,1,4
248,80,21872,1,4
288,136,22225,1,4
352,136,22578,1,4
352,200,22932,1,4
376,176,23108,1,4
376,176,23285,1,4
352,136,23638,1,4
408,176,23992,2,4,L|352:88|256:144|144:104|88:160,1,385
104,128,25758,5,4
104,192,26112,1,4
48,120,26553,1,4
104,192,26818,1,4
80,248,27083,1,4
40,176,27525,1,4
80,248,27790,1,4
80,248,27967,1,4
120,224,28143,1,4
104,192,28320,1,4
192,264,28938,1,4
184,240,29027,1,4
224,232,29203,1,4
216,192,29380,1,4
184,168,29557,1,4
168,128,29733,1,4
136,160,29998,1,4
128,192,30175,1,4
136,224,30352,1,4
104,296,30970,5,4
88,96,36712,5,2
80,168,37065,1,2
144,136,37418,1,2
184,192,37772,1,2
160,216,37948,1,2
184,208,38125,1,2
200,144,38478,1,2
248,184,38832,1,2
272,120,39185,1,2
288,184,39538,1,2
352,160,39892,1,2
360,296,40598,5,2
360,264,40775,1,2
296,256,41128,1,2
256,304,41482,1,2
208,256,41835,1,2
184,320,42188,1,2
120,264,42630,1,2
88,344,43072,1,2
144,312,43425,1,2
184,320,43602,1,2
240,296,43955,1,2
256,352,44220,1,2
328,320,44573,1,2
280,344,44838,1,2
328,344,45103,1,2
328,320,45898,5,2
392,328,46252,1,2
384,296,46428,1,2
352,240,46782,1,2
312,200,47047,1,2
424,232,47665,2,2,L|384:248,9,35
352,208,48725,1,2
440,264,49255,1,2
416,240,49432,1,2
376,184,49785,1,2
336,128,50138,5,10
408,208,50669,1,10
392,184,50845,1,10
368,120,51199,1,10
304,88,51552,1,10
248,120,51905,1,10
248,88,52082,1,10
192,48,52435,1,10
168,104,52789,1,10
112,72,53142,1,10
136,88,53319,1,10
168,88,53495,1,10
200,80,53672,1,10
232,80,53849,1,10
336,96,54379,5,2
376,152,54732,1,2
376,152,54909,1,2
392,184,55085,1,6
368,240,55350,1,6
368,240,55792,1,6
320,288,56145,1,6
304,264,56322,1,6
272,256,56499,1,2
200,280,56852,1,6
144,288,57117,1,6
200,248,57470,5,6
128,224,57912,2,6,L|192:272,12,70
176,248,60297,1,6
248,264,60650,1,6
288,272,60827,1,6
288,232,61004,1,6
256,208,61357,12,6,62152
248,192,62682,5,6
280,208,62859,1,6
328,248,63124,1,6
320,168,63565,1,6
264,144,63919,1,6
232,96,64184,1,14
304,128,64625,1,14
272,184,64979,1,14
216,160,65332,1,14
88,296,66304,5,14
112,280,66480,1,14
136,264,66657,1,14
144,240,66834,1,14
128,200,67010,1,14
104,96,67540,1,14
128,120,67717,1,14
248,136,68335,1,14
216,128,68512,1,14
184,72,68865,1,14
184,72,69130,1,14
120,96,69484,1,14
144,32,69837,2,14,L|144:208,4,175
144,207,71957,2,14,L|264:248,3,105
200,128,73370,6,14,L|264:160,2,70
262,159,74077,2,14,L|328:256,2,105
321,246,74872,1,14
321,246,75225,1,14
336,264,75314,1,14
368,288,75490,1,14
368,288,75932,1,14
328,328,76197,1,14
280,272,76550,1,14
216,312,76904,1,14
176,248,77257,1,14
240,360,77875,5,14
232,272,78317,1,14
160,192,78847,1,14
184,224,79024,1,14
152,280,79377,1,14
88,240,79730,1,14
112,304,80084,1,14
112,272,80260,1,14
144,296,80437,1,14
152,280,80879,1,14
152,280,81144,2,14,L|240:304,7,70
184,280,82557,6,14,L|360:280|312:168|136:152,1,490
56,96,84677,2,0,L|88:240|144:240|200:200|280:304|384:232|424:160|360:64|240:120|184:104|168:128|80:168,1,1015
184,160,88210,5,2
232,208,88564,1,2
272,272,88917,1,2
200,264,89270,1,2
152,224,89624,1,2
128,288,89977,1,2
200,288,90330,1,2
248,344,90684,5,2
304,312,91037,1,2
264,256,91390,1,2
200,232,91744,1,2
200,168,92097,1,2
264,160,92450,1,2
296,216,92804,1,2
304,288,93157,1,2
376,272,93511,1,2
384,344,93864,1,2
424,280,94217,1,2
464,336,94571,1,2
456,272,94924,1,2
416,224,95189,1,2
464,152,95631,5,2
400,128,95984,1,2
408,56,96337,1,2
376,120,96691,1,2
312,96,97044,1,2
248,128,97397,1,2
208,72,97751,1,2
152,64,98016,1,2
112,144,98457,2,6,L|112:120|104:112|216:200,2,175
216,184,99871,2,6,L|280:288,1,105
264,184,100577,2,6,L|328:264,2,70
328,144,101284,2,6,L|384:280,1,140
328,208,102079,6,6,L|144:216,1,175
160,144,102874,2,6,L|200:248,3,105
208,184,103934,2,6,L|256:216,10,35
248,240,105171,2,6,L|344:128|248:184|128:168|72:248|64:256,1,455
136,240,106584,2,6,L|360:296,2,210
176,192,107909,2,6,L|304:280,1,140
264,216,108616,2,6,L|312:296,1,70
272,216,109146,2,6,L|112:240,1,140
96,240,109676,2,6,L|200:256,3,105
168,192,110824,1,6
208,216,111089,1,6
224,232,111177,1,6
264,256,111354,1,6
312,272,111619,1,6
312,272,111796,1,6
312,272,111972,1,2
344,240,112149,1,0
344,200,112326,1,0
312,176,112502,1,0
272,160,112679,1,0
240,136,112856,1,0
256,96,113032,1,0
304,112,113297,5,0
288,176,113651,1,0
288,240,114004,1,4
288,240,114181,1,12
256,216,114357,1,12
152,200,114887,1,12
176,224,115064,1,12
216,272,115417,1,12
280,288,115771,1,12
344,312,116124,1,12
368,312,116212,1,12
408,288,116477,1,12
400,216,116831,1,12
384,152,117184,1,12
360,224,117537,2,12,L|200:168,1,140
104,120,118597,2,10,L|232:176|240:192|256:216,1,175
249,206,119304,2,10,L|288:264,8,35
328,312,120629,1,8
296,240,121071,1,8
328,256,121247,1,8
328,256,121601,5,8
304,344,122042,1,8
376,296,122484,1,8
352,240,122749,1,8
408,192,123102,1,8
336,176,123456,1,8
360,112,123809,1,8
304,160,124162,1,8
336,176,124339,1,8
296,152,124604,1,12
280,136,124692,1,12
256,104,124869,1,12
304,200,125399,1,12
336,176,125576,1,12
400,112,126017,5,12
336,120,126282,1,12
264,104,126636,1,12
192,136,126989,1,12
160,64,127342,1,12
128,96,127607,1,12
112,72,127696,1,12
64,136,128137,1,12
120,104,128491,1,12
64,80,128844,2,12,L|96:288,1,210
24,368,129904,1,12
72,312,130257,1,12
128,288,130611,1,12
144,384,131141,1,12
168,368,131317,1,12
224,336,131671,5,12
224,336,132024,1,12
320,368,132554,1,12
320,344,132642,1,12
320,272,132996,1,12
336,344,133349,2,12,L|376:304|408:304,5,70
432,296,134497,2,12,L|424:216|336:200|200:128|112:176|32:176,1,490
232,192,136207,5,0
256,208,171509,12,14,172569
176,120,172923,6,14,L|208:184,4,70
240,136,173983,1,14
288,184,174336,1,14
296,112,174689,1,14
320,184,175043,2,14,L|352:248,4,70
351,246,176103,5,14
351,246,176456,1,14
320,248,176633,1,14
304,272,176809,1,14
280,280,176986,1,14
152,328,177693,1,14
168,304,177869,1,14
88,232,178399,1,14
112,256,178576,1,14
184,208,179018,1,14
176,232,179106,1,14
200,304,179460,1,14
232,208,179990,6,14,L|352:232|296:88|184:112|120:208|48:72|40:160|40:200,1,770
64,200,182110,5,14
64,200,182286,1,14
80,232,182463,1,14
48,256,182640,1,14
72,232,182816,1,14
80,232,183258,1,14
104,256,183435,1,14
104,256,183788,1,14
80,312,184141,1,14
152,296,184495,1,14
120,368,184936,1,14
184,336,185290,5,14
224,336,185466,1,14
264,336,185643,1,14
264,336,185996,1,14
328,344,186350,2,14,L|440:360,4,105
456,360,188028,1,14
416,296,188470,1,14
504,312,188911,1,14
464,296,189088,1,14
416,240,189441,5,14
496,232,189883,1,14
440,208,190236,1,14
400,152,190590,2,14,L|360:112,4,35
352,104,191296,1,14
288,96,191650,1,14
256,88,191826,1,14
224,80,192003,1,14
168,80,192268,1,14
128,96,192533,1,14
96,104,192710,1,14
96,104,194035,2,0,L|168:160|200:192,2,105
200,152,195095,2,0,L|328:280,1,175
323,275,195890,6,0,L|176:264|184:264|232:272,2,175
232,248,197215,2,0,L|360:168|216:224|96:144|56:216|152:304|264:280|280:296,1,770
296,176,199776,6,0,L|336:296,2,105
128,152,201190,6,0,L|168:232,4,70
168,200,202250,5,0
216,240,202603,1,0
216,240,202691,1,0
256,240,202868,1,0
296,240,203133,1,0
288,216,203221,1,0
272,168,203486,1,0
296,152,203663,1,0
328,168,203840,1,0
328,168,204016,1,0
280,168,204281,1,0
240,168,204458,1,0
240,168,204723,1,8
104,176,205430,5,8
168,192,205783,1,8
224,232,206136,1,8
280,256,206401,1,8
320,192,206755,1,8
296,120,207108,1,8
264,56,207461,1,8
200,88,207815,1,8
128,64,208168,1,8
72,120,208521,1,8
56,176,208786,5,8
88,264,209228,1,8
88,264,209581,1,8
168,296,210023,1,8
232,280,210376,1,8
296,304,210730,1,8
352,336,211083,1,8
368,288,211348,1,8
360,216,211701,1,8
384,144,212055,1,8
312,136,212408,1,8
240,104,212761,1,8
184,152,213115,1,8
120,176,213468,1,8
112,248,213821,1,8
184,256,214175,1,8
248,240,214528,1,8
192,192,214881,1,12
256,208,215323,12,12,217973
