osu file format v12

[General]
AudioFilename: uverworld---core-pride-(tv-size)-(l.-borozdina).mp3.mp3
AudioLeadIn: 1000
PreviewTime: 28942
Countdown: 0
SampleSet: Normal
StackLeniency: 0.7
Mode: 2
LetterboxInBreaks: 0
WidescreenStoryboard: 0

[Editor]
DistanceSpacing: 1.7
BeatDivisor: 4
GridSize: 8

[Metadata]
Title:CORE PRIDE (TV Size)
TitleUnicode:CORE PRIDE (TV Size)
Artist:UVERworld
ArtistUnicode:UVERworld
Creator:mingmichael
Version:Rain
Source:青の祓魔師
Tags:Ao no Exorcist opening Rin Okumura
BeatmapID:336277
BeatmapSetID:133999

[Difficulty]
HPDrainRate:7
CircleSize:4
OverallDifficulty:9
ApproachRate:9
SliderMultiplier:1.8
SliderTickRate:1

[Events]
//Background and Video events
Video,292,"Video.avi"
0,0,"core pride osu.jpg",0,0
//Break Periods
//Storyboard Layer 0 (Background)
//Storyboard Layer 1 (Fail)
//Storyboard Layer 2 (Pass)
//Storyboard Layer 3 (Foreground)
//Storyboard Sound Samples
//Background Colour Transformations
3,100,163,162,255

[TimingPoints]
388,324.324324324324,4,1,1,60,1,0
388,-83.3333333333333,4,1,1,60,0,0
2982,-100,4,1,1,60,0,0
6225,-76.9230769230769,4,1,1,60,0,0
6550,-100,4,1,1,60,0,0
16766,-66.6666666666667,4,1,1,60,0,0
17090,-100,4,1,1,60,0,0
19685,-76.9230769230769,4,1,1,60,0,0
20171,-100,4,1,1,60,0,0
20496,-76.9230769230769,4,1,1,60,0,0
21144,-100,4,1,1,60,0,0
25360,-76.9230769230769,4,1,1,60,0,0
25685,-76.9230769230769,4,1,1,60,0,0
26333,-100,4,1,1,60,0,0
26982,-76.9230769230769,4,1,1,60,0,0
27631,-100,4,1,1,60,0,0
37117,-83.3333333333333,4,1,1,60,0,0
38009,-100,4,1,1,60,0,0
38496,-76.9230769230769,4,1,1,60,0,0
39306,-100,4,1,1,60,0,0
41090,-76.9230769230769,4,1,1,60,0,0
41901,-100,4,1,1,60,0,0
46442,-76.9230769230769,4,1,1,60,0,0
49685,-125,4,1,1,60,0,1
49766,-125,4,1,1,60,0,0
60063,-125,4,1,1,60,0,1
60144,-125,4,1,1,60,0,0
69469,-100,4,1,1,60,0,0
70442,-125,4,1,1,60,0,0
71739,-111.111111111111,4,1,1,60,0,0
75631,-125,4,1,1,60,0,1
80820,-100,4,1,1,60,0,0
87144,-76.9230769230769,4,1,1,60,0,0

[Colours]
Combo1 : 0,47,47
Combo2 : 0,221,0
Combo3 : 0,132,0
Combo4 : 0,166,166

[HitObjects]
344,192,388,1,8,0:0:0:0:
400,192,469,1,8,0:0:0:0:
456,192,550,1,8,0:0:0:0:
400,192,631,1,8,0:0:0:0:
344,192,712,1,8,0:0:0:0:
168,192,874,6,0,L|64:163,2,107.999996704102,2|2|8,0:0|0:0|0:0,0:0:0:0:
344,192,1360,6,0,L|447:163,2,107.999996704102,2|2|8,0:0|0:0|0:0,0:0:0:0:
168,192,1847,6,0,L|112:96,1,107.999996704102,2|8,0:0|0:0,0:0:0:0:
256,192,2171,1,2,0:0:0:0:
112,192,2333,1,8,0:0:0:0:
400,192,2496,1,8,0:0:0:0:
112,192,2820,5,4,0:0:0:0:
352,192,3144,5,0,0:0:0:0:
224,192,3306,2,0,L|359:56,1,180,8|0,0:0|0:0,0:0:0:0:
176,64,3793,2,0,L|272:64,1,90,0|8,0:0|0:0,0:0:0:0:
144,64,4117,1,2,0:0:0:0:
352,192,4279,6,0,L|472:264,2,135,2|2|2,0:0|0:0|0:0,0:0:0:0:
160,192,4928,1,4,0:0:0:0:
448,192,5252,6,0,L|368:144,1,90,8|10,0:0|0:0,0:0:0:0:
128,192,5577,6,0,L|240:336,1,180,2|0,0:0|0:0,0:0:0:0:
112,336,6063,1,2,0:0:0:0:
264,336,6225,2,0,L|144:336,2,116.999994644165,8|2|0,0:0|0:0|0:0,0:0:0:0:
400,192,6712,6,0,L|310:192,1,90,8|0,0:0|0:0,0:0:0:0:
112,192,7036,2,0,L|202:192,1,90,0|8,0:0|0:0,0:0:0:0:
368,192,7360,5,0,0:0:0:0:
440,192,7442,1,0,0:0:0:0:
368,192,7523,1,10,0:0:0:0:
144,192,7685,1,8,0:0:0:0:
72,192,7767,1,8,0:0:0:0:
144,192,7848,1,8,0:0:0:0:
368,192,8009,5,8,0:0:0:0:
256,192,8171,12,8,9793,0:0:0:0:
256,192,9955,5,0,0:0:0:0:
128,192,10117,2,0,L|48:192,1,45,2|0,0:0|0:0,0:0:0:0:
128,128,10279,2,0,L|192:128,1,45
216,240,10442,2,0,L|152:240,1,45,8|0,0:0|0:0,0:0:0:0:
112,240,10604,1,0,0:0:0:0:
376,192,10766,6,0,L|280:248,1,90,2|0,0:0|0:0,0:0:0:0:
144,192,11090,2,0,L|240:136,1,90,8|0,0:0|0:0,0:0:0:0:
384,80,11415,2,0,L|256:80,1,90,2|0,0:0|0:0,0:0:0:0:
112,80,11739,2,0,L|224:80,1,90,8|0,0:0|0:0,0:0:0:0:
432,192,12063,6,0,L|256:240,1,180,2|8,0:0|0:0,0:0:0:0:
96,192,12550,2,0,L|208:192,2,90,0|2|0,0:0|0:0|0:0,0:0:0:0:
224,192,13036,2,0,L|224:144,2,45,8|8|8,0:0|0:0|0:0,0:0:0:0:
448,192,13360,6,0,L|352:192,1,90,2|0,0:0|0:0,0:0:0:0:
224,192,13685,1,8,0:0:0:0:
384,272,13847,2,0,L|256:272,2,90,0|2|0,0:0|0:0|0:0,0:0:0:0:
224,192,14333,2,0,L|314:192,1,90,8|0,0:0|0:0,0:0:0:0:
88,112,14658,6,0,L|200:112,1,90,2|0,0:0|0:0,0:0:0:0:
336,112,14982,2,0,L|240:112,1,90,8|0,0:0|0:0,0:0:0:0:
384,112,15306,1,2,0:0:0:0:
272,192,15469,1,0,0:0:0:0:
416,192,15631,2,0,L|464:192,2,45,8|8|8,0:0|0:0|0:0,0:0:0:0:
192,192,15955,6,0,L|96:192,1,90,2|0,0:0|0:0,0:0:0:0:
280,192,16279,1,8,0:0:0:0:
160,272,16442,2,0,L|48:272,1,90,0|2,0:0|0:0,0:0:0:0:
208,272,16766,2,0,L|352:272,1,135.000005149842,0|8,0:0|0:0,0:0:0:0:
448,272,17090,1,0,0:0:0:0:
288,80,17252,6,0,L|378:80,1,90,2|0,0:0|0:0,0:0:0:0:
224,160,17577,2,0,L|314:160,1,90,8|0,0:0|0:0,0:0:0:0:
144,160,17901,1,2,0:0:0:0:
320,192,18063,1,0,0:0:0:0:
360,144,18144,1,0,0:0:0:0:
384,192,18225,1,8,0:0:0:0:
360,144,18306,1,8,0:0:0:0:
320,192,18387,1,8,0:0:0:0:
96,272,18550,6,0,L|288:272,1,180,2|8,0:0|0:0,0:0:0:0:
152,192,19036,2,0,L|248:192,1,90,0|2,0:0|0:0,0:0:0:0:
416,192,19360,2,0,L|348:259,1,90,0|8,0:0|0:0,0:0:0:0:
224,192,19685,6,0,L|144:192,2,58.4999973220826,0|0|2,0:0|0:0|0:0,0:0:0:0:
384,192,20009,1,0,0:0:0:0:
208,256,20171,2,0,L|264:184,1,90,8|0,0:0|0:0,0:0:0:0:
96,192,20496,6,0,L|32:192,2,58.4999973220826,2|0|0,0:0|0:0|0:0,0:0:0:0:
192,192,20739,2,0,L|256:192,2,58.4999973220826,0|8|0,0:0|0:0|0:0,0:0:0:0:
96,192,20982,1,0,0:0:0:0:
352,192,21144,6,0,L|448:192,1,90,2|0,0:0|0:0,0:0:0:0:
312,192,21469,1,8,0:0:0:0:
176,192,21631,2,0,L|64:192,2,90,0|2|0,0:0|0:0|0:0,0:0:0:0:
336,192,22117,2,0,L|432:192,1,90,8|0,0:0|0:0,0:0:0:0:
232,112,22442,6,0,L|120:112,1,90,2|0,0:0|0:0,0:0:0:0:
288,112,22766,1,8,0:0:0:0:
176,112,22928,2,0,L|304:112,1,90,0|2,0:0|0:0,0:0:0:0:
384,112,23252,2,0,L|316:179,2,90,0|8|8,0:0|0:0|0:0,0:0:0:0:
96,192,23739,6,0,L|240:192,1,135,2|0,0:0|0:0,0:0:0:0:
304,192,24063,2,0,L|240:128,1,90,8|0,0:0|0:0,0:0:0:0:
96,272,24387,1,2,0:0:0:0:
256,272,24550,2,0,L|256:344,2,45,0|0|8,0:0|0:0|0:0,0:0:0:0:
416,272,24874,6,0,L|342:210,1,90,0|2,0:0|0:0,0:0:0:0:
256,192,25117,2,0,L|329:130,1,90
400,192,25360,2,0,L|272:192,1,116.999994644165,8|0,0:0|0:0,0:0:0:0:
160,192,25685,5,2,0:0:0:0:
96,192,25766,2,0,L|160:192,1,58.4999973220826
208,272,25928,2,0,L|128:272,1,58.4999973220826,0|8,0:0|0:0,0:0:0:0:
80,112,26090,2,0,L|160:112,1,58.4999973220826,0|0,0:0|0:0,0:0:0:0:
368,112,26333,6,0,P|432:160|368:208,1,180,2|8,0:0|0:0,0:0:0:0:
200,112,26820,1,0,0:0:0:0:
304,228,26982,6,0,L|368:228,2,58.4999973220826,2|0|0,0:0|0:0|0:0,0:0:0:0:
208,228,27225,2,0,L|144:228,2,58.4999973220826,0|8|0,0:0|0:0|0:0,0:0:0:0:
312,228,27469,1,0,0:0:0:0:
160,304,27631,6,0,L|227:236,1,90,2|0,0:0|0:0,0:0:0:0:
352,304,27955,2,0,L|284:236,1,90,8|0,0:0|0:0,0:0:0:0:
184,192,28279,5,8,0:0:0:0:
328,192,28442,1,8,0:0:0:0:
168,192,28604,1,8,0:0:0:0:
344,192,28766,1,8,0:0:0:0:
120,192,28928,5,6,0:0:0:0:
352,64,29414,5,2,0:0:0:0:
208,64,29577,1,8,0:0:0:0:
432,64,29739,1,6,0:0:0:0:
224,192,30063,6,0,L|112:192,2,90,8|2|0,0:0|0:0|0:0,0:0:0:0:
384,192,30550,6,0,L|288:192,1,90,8|0,0:0|0:0,0:0:0:0:
128,192,30874,2,0,L|224:192,1,90,8|8,0:0|0:0,0:0:0:0:
400,128,31198,2,0,L|304:128,1,90,8|0,0:0|0:0,0:0:0:0:
80,192,31523,6,0,L|224:192,1,135,4|0,0:0|0:0,0:0:0:0:
288,264,31847,2,0,L|136:296,1,135,8|0,0:0|0:0,0:0:0:0:
80,240,32171,2,0,P|72:192|96:104,1,135,2|0,0:0|0:0,0:0:0:0:
160,48,32496,2,0,L|248:32,1,90,8|0,0:0|0:0,0:0:0:0:
400,208,32820,6,0,L|368:64,1,135,2|0,0:0|0:0,0:0:0:0:
280,160,33144,2,8,B|272:224|272:224|280:304,1,135,8|0,0:0|0:0,0:0:0:0:
360,240,33469,2,0,P|384:160|368:64,1,180,2|8,0:0|0:0,0:0:0:0:
128,288,33955,2,0,L|128:240,1,45,8|8,0:0|0:0,0:0:0:0:
128,224,34117,6,0,P|144:160|224:64,1,180,2|8,0:0|0:0,0:0:0:0:
320,192,34604,2,0,L|387:259,1,90,0|2,0:0|0:0,0:0:0:0:
192,192,34928,2,0,L|88:192,2,90,0|8|0,0:0|0:0|0:0,0:0:0:0:
368,240,35415,6,0,L|248:160,1,135,2|0,0:0|0:0,0:0:0:0:
168,152,35739,2,0,P|200:232|248:264,1,135,8|0,0:0|0:0,0:0:0:0:
312,312,36063,2,0,P|232:328|120:304,1,180,2|8,0:0|0:0,0:0:0:0:
384,192,36550,2,0,L|384:144,1,45,8|8,0:0|0:0,0:0:0:0:
384,192,36712,6,0,L|256:320,1,180,2|8,0:0|0:0,0:0:0:0:
144,240,37198,2,0,L|256:240,1,107.999996704102,0|2,0:0|0:0,0:0:0:0:
400,240,37523,2,0,L|288:240,2,107.999996704102,0|8|0,0:0|0:0|0:0,0:0:0:0:
160,192,38009,6,0,L|352:192,1,180,2|8,0:0|0:0,0:0:0:0:
240,112,38496,6,0,L|176:112,2,58.4999973220826,0|0|2,0:0|0:0|0:0,0:0:0:0:
368,112,38820,6,0,L|432:112,2,58.4999973220826,0|0|8,0:0|0:0|0:0,0:0:0:0:
144,112,39144,2,0,L|80:112,1,58.4999973220826,8|8,0:0|0:0,0:0:0:0:
144,112,39306,6,0,L|288:224,1,180,2|8,0:0|0:0,0:0:0:0:
144,224,39793,1,0,0:0:0:0:
288,272,39955,2,0,L|192:272,1,90,2|0,0:0|0:0,0:0:0:0:
308,192,40279,2,0,L|412:192,1,90,8|0,0:0|0:0,0:0:0:0:
128,192,40604,6,0,L|344:192,1,180,2|8,0:0|0:0,0:0:0:0:
144,80,41090,2,0,L|80:80,2,58.4999973220826,8|8|0,0:0|0:0|0:0,0:0:0:0:
368,80,41415,1,8,0:0:0:0:
176,80,41739,5,8,0:0:0:0:
416,80,41901,6,0,L|480:224,1,135,4|0,0:0|0:0,0:0:0:0:
384,256,42225,2,0,L|240:320,1,135,8|0,0:0|0:0,0:0:0:0:
176,272,42550,2,0,L|320:208,1,135,2|0,0:0|0:0,0:0:0:0:
384,160,42874,2,0,L|336:64,1,90,8|0,0:0|0:0,0:0:0:0:
176,80,43198,6,0,L|241:198,1,135,2|0,0:0|0:0,0:0:0:0:
336,240,43523,2,0,L|480:176,1,135,8|0,0:0|0:0,0:0:0:0:
368,128,43847,2,0,L|160:128,1,180,2|8,0:0|0:0,0:0:0:0:
416,192,44333,2,0,L|416:240,1,45,8|8,0:0|0:0,0:0:0:0:
416,192,44496,6,0,L|256:100,1,180,2|8,0:0|0:0,0:0:0:0:
128,192,44982,1,0,0:0:0:0:
256,192,45144,1,2,0:0:0:0:
112,192,45306,2,0,L|208:192,2,90,0|8|0,0:0|0:0|0:0,0:0:0:0:
256,192,45793,6,0,L|384:240,1,135,2|0,0:0|0:0,0:0:0:0:
464,288,46117,2,0,L|336:320,1,90,8|0,0:0|0:0,0:0:0:0:
224,304,46442,6,0,L|256:240,2,58.4999973220826,0|0|0,0:0|0:0|0:0,0:0:0:0:
144,304,46685,2,0,L|112:240,2,58.4999973220826,0|8|8,0:0|0:0|0:0,0:0:0:0:
224,304,46928,1,8,0:0:0:0:
448,192,47090,5,4,0:0:0:0:
320,192,47252,2,0,L|288:128,1,58.4999973220826
224,80,47415,2,0,L|144:80,1,58.4999973220826
96,160,47577,2,0,L|176:160,1,58.4999973220826
240,192,47739,2,0,L|272:256,1,58.4999973220826
192,272,47901,2,0,L|144:304,1,58.4999973220826
80,240,48063,1,8,0:0:0:0:
208,240,48225,1,2,0:0:0:0:
448,304,48387,6,0,L|320:304,1,116.999994644165,4|0,0:0|0:0,0:0:0:0:
160,192,48712,2,0,L|128:144,2,58.4999973220826
256,192,48955,2,0,L|320:192,2,58.4999973220826,0|2|0,0:0|0:0|0:0,0:0:0:0:
160,192,49198,1,8,0:0:0:0:
312,192,49360,1,8,0:0:0:0:
160,192,49523,1,0,0:0:0:0:
400,192,49685,6,0,L|286:305,1,144,4|2,0:0|0:0,0:0:0:0:
144,296,50171,1,0,0:0:0:0:
288,296,50333,2,0,L|136:296,1,144,8|0,0:0|0:0,0:0:0:0:
320,192,50820,2,0,L|424:192,2,72,0|2|0,0:0|0:0|0:0,0:0:0:0:
192,192,51306,6,0,L|112:192,2,72,2|0|8,0:0|0:0|0:0,0:0:0:0:
336,192,51793,2,0,L|408:192,1,72,0|0,0:0|0:0,0:0:0:0:
264,192,52117,1,0,0:0:0:0:
424,192,52279,6,0,L|280:192,1,144,2|2,0:0|0:0,0:0:0:0:
88,192,52928,2,0,L|232:192,1,144,8|0,0:0|0:0,0:0:0:0:
96,288,53415,2,0,L|200:288,1,72,0|2,0:0|0:0,0:0:0:0:
304,288,53739,6,0,L|408:288,2,72,0|2|0,0:0|0:0|0:0,0:0:0:0:
144,192,54225,2,0,L|248:192,1,72,8|0,0:0|0:0,0:0:0:0:
368,192,54550,2,0,L|280:192,1,72,0|0,0:0|0:0,0:0:0:0:
64,288,54874,6,0,L|216:288,1,144,2|2,0:0|0:0,0:0:0:0:
352,288,55360,2,0,L|448:288,2,72,0|8|0,0:0|0:0|0:0,0:0:0:0:
192,192,55847,2,0,L|280:192,1,72,0|0,0:0|0:0,0:0:0:0:
128,192,56171,5,2,0:0:0:0:
256,192,56333,2,0,L|296:122,1,72,0|2,0:0|0:0,0:0:0:0:
128,192,56658,2,0,L|56:192,1,72,0|8,0:0|0:0,0:0:0:0:
224,304,56982,2,0,L|152:304,1,72
72,304,57306,1,0,0:0:0:0:
336,320,57469,6,0,L|258:194,1,144,2|0,0:0|0:0,0:0:0:0:
56,192,58117,1,8,0:0:0:0:
192,192,58279,2,0,L|272:192,2,72
56,192,58766,6,0,L|200:192,1,144,2|2,0:0|0:0,0:0:0:0:
432,192,59415,1,8,0:0:0:0:
160,192,59577,2,0,P|112:240|160:272,1,144,4|8,0:0|0:0,0:0:0:0:
416,192,60063,6,0,L|352:328,1,144,6|0,0:0|0:0,0:0:0:0:
224,320,60550,2,0,L|128:320,1,72,0|8,0:0|0:0,0:0:0:0:
416,192,61036,2,0,L|304:192,1,72
176,192,61360,6,0,L|272:192,1,72,2|0,0:0|0:0,0:0:0:0:
448,128,61685,2,0,L|368:128,1,72,2|0,0:0|0:0,0:0:0:0:
144,128,62009,2,0,L|240:128,2,72,8|0|2,0:0|0:0|0:0,0:0:0:0:
288,128,62496,1,0,0:0:0:0:
128,128,62658,6,0,L|304:128,1,144,2|2,0:0|0:0,0:0:0:0:
416,128,63144,1,8,0:0:0:0:
256,192,63469,2,0,L|176:192,1,72,0|0,0:0|0:0,0:0:0:0:
48,336,63793,6,0,L|256:336,1,144,2|0,0:0|0:0,0:0:0:0:
336,336,64279,2,0,L|432:336,1,72,2|0,0:0|0:0,0:0:0:0:
272,256,64604,2,0,L|176:256,2,72,8|0|0,0:0|0:0|0:0,0:0:0:0:
408,256,65090,1,0,0:0:0:0:
128,192,65252,6,4,L|229:90,1,144,6|0,0:0|0:0,0:0:0:0:
384,96,65739,1,0,0:0:0:0:
256,192,65901,2,0,L|128:192,1,72,8|0,0:0|0:0,0:0:0:0:
304,288,66225,2,0,L|208:288,1,72,0|0,0:0|0:0,0:0:0:0:
64,288,66550,6,0,L|139:315,2,72,2|0|2,0:0|0:0|0:0,0:0:0:0:
208,192,67036,2,0,L|280:192,1,72,0|8,0:0|0:0,0:0:0:0:
144,112,67360,2,0,L|216:112,1,72,0|2,0:0|0:0,0:0:0:0:
96,192,67685,1,0,0:0:0:0:
352,192,67847,6,0,L|424:192|320:192,1,144,6|0,0:0|0:0,0:0:0:0:
192,192,68333,2,0,L|96:192,1,72,0|8,0:0|0:0,0:0:0:0:
352,288,68820,2,0,L|432:288,1,72
264,288,69144,6,0,L|184:288,1,72,2|0,0:0|0:0,0:0:0:0:
336,192,69469,2,0,L|224:192,1,90,2|0,0:0|0:0,0:0:0:0:
88,192,69793,1,8,0:0:0:0:
240,144,69954,1,0,0:0:0:0:
76,144,70117,1,2,0:0:0:0:
240,144,70279,1,0,0:0:0:0:
64,96,70442,6,0,L|208:96,1,144,4|2,0:0|0:0,0:0:0:0:
448,96,71090,2,0,L|304:96,1,144,8|2,0:0|0:0,0:0:0:0:
64,96,71739,6,0,L|188:220,1,161.999995056153,2|2,0:0|0:0,0:0:0:0:
448,96,72387,2,0,L|323:220,1,161.999995056153,8|8,0:0|0:0,0:0:0:0:
176,288,73036,5,4,0:0:0:0:
104,288,73198,1,0,0:0:0:0:
176,288,73360,1,2,0:0:0:0:
336,288,73523,1,0,0:0:0:0:
408,288,73685,1,2,0:0:0:0:
336,288,73847,1,0,0:0:0:0:
176,288,74009,1,2,0:0:0:0:
64,288,74171,1,0,0:0:0:0:
176,288,74333,5,8,0:0:0:0:
336,288,74496,1,0,0:0:0:0:
448,288,74658,1,2,0:0:0:0:
512,288,74739,1,2,0:0:0:0:
448,288,74820,1,2,0:0:0:0:
320,288,74982,5,8,0:0:0:0:
192,288,75144,1,2,0:0:0:0:
336,288,75306,1,8,0:0:0:0:
176,288,75469,1,2,0:0:0:0:
416,192,75631,6,0,L|320:80,1,144,6|2,0:0|0:0,0:0:0:0:
160,192,76117,2,0,L|240:192,1,72,0|8,0:0|0:0,0:0:0:0:
416,192,76604,2,0,L|320:192,1,72,0|0,0:0|0:0,0:0:0:0:
112,192,76928,6,0,L|205:301,1,144,2|2,0:0|0:0,0:0:0:0:
352,192,77415,2,0,L|280:192,1,72,0|8,0:0|0:0,0:0:0:0:
112,192,77901,2,0,L|208:192,1,72,0|0,0:0|0:0,0:0:0:0:
416,192,78225,6,0,L|323:301,1,144,2|2,0:0|0:0,0:0:0:0:
176,304,78712,2,0,L|96:304,1,72,0|8,0:0|0:0,0:0:0:0:
224,304,79036,1,0,0:0:0:0:
112,192,79198,2,0,L|224:192,1,72,0|0,0:0|0:0,0:0:0:0:
368,192,79523,6,0,L|275:83,1,144,2|2,0:0|0:0,0:0:0:0:
128,192,80171,1,8,0:0:0:0:
256,192,80333,2,0,L|160:192,1,72,0|8,0:0|0:0,0:0:0:0:
304,192,80658,1,8,0:0:0:0:
64,192,80820,6,0,L|199:327,1,180,6|2,0:0|0:0,0:0:0:0:
344,192,81306,2,0,L|232:192,1,90,0|8,0:0|0:0,0:0:0:0:
128,192,81793,2,0,L|224:192,1,90,0|0,0:0|0:0,0:0:0:0:
448,192,82117,6,0,L|320:64,1,180,6|2,0:0|0:0,0:0:0:0:
168,192,82604,2,0,L|280:192,1,90,0|8,0:0|0:0,0:0:0:0:
416,192,83090,2,0,L|304:192,1,90,0|0,0:0|0:0,0:0:0:0:
64,192,83415,6,0,L|256:192,1,180,6|2,0:0|0:0,0:0:0:0:
368,192,83901,2,0,L|272:192,1,90,0|8,0:0|0:0,0:0:0:0:
96,192,84387,2,0,L|208:192,1,90,8|0,0:0|0:0,0:0:0:0:
368,192,84712,6,0,L|458:101,2,120,2|2|2,0:0|0:0|0:0,0:0:0:0:
64,192,85360,1,6,0:0:0:0:
64,192,85685,6,0,L|128:192,1,45,8|8,0:0|0:0,0:0:0:0:
176,192,85847,1,0,0:0:0:0:
256,192,85928,1,0,0:0:0:0:
432,192,86009,6,0,L|304:336,1,180,2|2,0:0|0:0,0:0:0:0:
128,320,86496,1,0,0:0:0:0:
304,320,86658,2,0,L|192:320,1,90,8|2,0:0|0:0,0:0:0:0:
352,320,86982,1,0,0:0:0:0:
192,192,87144,6,0,L|128:192,2,58.4999973220826,8|8|8,0:0|0:0|0:0,0:0:0:0:
320,192,87469,2,0,L|384:192,2,58.4999973220826,0|0|8,0:0|0:0|0:0,0:0:0:0:
160,192,87793,6,0,L|96:192,2,58.4999973220826,0|0|8,0:0|0:0|0:0,0:0:0:0:
272,192,88036,2,0,L|336:176,2,58.4999973220826,0|8|0,0:0|0:0|0:0,0:0:0:0:
176,192,88279,2,0,L|192:256,1,58.4999973220826,2|0,0:0|0:0,0:0:0:0:
272,256,88442,2,0,L|336:256,1,58.4999973220826,8|0,0:0|0:0,0:0:0:0:
472,256,88604,1,6,0:0:0:0:
