osu file format v12

[General]
AudioFilename: uverworld---core-pride-(tv-size)-(l.-borozdina).mp3.mp3
AudioLeadIn: 1000
PreviewTime: 28942
Countdown: 0
SampleSet: Normal
StackLeniency: 0.7
Mode: 2
LetterboxInBreaks: 0
WidescreenStoryboard: 0

[Editor]
DistanceSpacing: 1.2
BeatDivisor: 4
GridSize: 16

[Metadata]
Title:CORE PRIDE (TV Size)
TitleUnicode:CORE PRIDE (TV Size)
Artist:UVERworld
ArtistUnicode:UVERworld
Creator:mingmichael
Version:Cup
Source:青の祓魔師
Tags:Ao no Exorcist opening Rin Okumura
BeatmapID:336275
BeatmapSetID:133999

[Difficulty]
HPDrainRate:4
CircleSize:2
OverallDifficulty:5
ApproachRate:5
SliderMultiplier:0.8
SliderTickRate:1

[Events]
//Background and Video events
Video,292,"Video.avi"
0,0,"core pride osu.jpg",0,0
//Break Periods
//Storyboard Layer 0 (Background)
//Storyboard Layer 1 (Fail)
//Storyboard Layer 2 (Pass)
//Storyboard Layer 3 (Foreground)
//Storyboard Sound Samples
//Background Colour Transformations
3,100,163,162,255

[TimingPoints]
388,324.324324324324,4,1,1,60,1,0
49685,-100,4,1,1,60,0,1
49766,-100,4,1,1,60,0,0
60063,-100,4,1,1,60,0,1
60144,-100,4,1,1,60,0,0
75631,-100,4,1,1,60,0,1
80820,-100,4,1,1,60,0,0

[Colours]
Combo1 : 0,47,47
Combo2 : 0,221,0
Combo3 : 0,132,0
Combo4 : 0,166,166

[HitObjects]
312,96,712,2,0,P|344:144|312:208,1,120,8|8,0:0|0:0,0:0:0:0:
184,192,1685,2,0,P|164:246|196:294,1,120,8|8,0:0|0:0,0:0:0:0:
320,192,2820,1,4,0:0:0:0:
176,192,3306,6,0,L|256:192,1,80,8|2,0:0|0:0,0:0:0:0:
352,192,3955,1,8,0:0:0:0:
448,192,4279,1,2,0:0:0:0:
256,192,4928,1,6,0:0:0:0:
448,192,5577,6,0,L|352:192,1,80,2|2,0:0|0:0,0:0:0:0:
272,192,6225,2,0,L|224:192,1,40,8|2,0:0|0:0,0:0:0:0:
88,192,6874,6,0,L|264:192,1,160,0|8,0:0|0:0,0:0:0:0:
352,192,7847,1,0,0:0:0:0:
256,192,8171,12,8,9793,0:0:0:0:
256,192,10442,5,8,0:0:0:0:
352,192,10766,6,0,B|352:272|352:272|304:336,1,160,2|2,0:0|0:0,0:0:0:0:
128,192,12063,2,0,L|32:192,1,80,2|8,0:0|0:0,0:0:0:0:
160,192,12712,1,2,0:0:0:0:
256,192,13036,2,0,L|336:192,1,80,8|2,0:0|0:0,0:0:0:0:
432,192,14009,5,2,0:0:0:0:
336,192,14333,1,8,0:0:0:0:
240,192,14658,1,2,0:0:0:0:
432,192,15306,1,8,0:0:0:0:
256,192,15955,6,0,B|176:192|176:192|128:256,1,160,2|2,0:0|0:0,0:0:0:0:
320,288,17252,2,0,L|408:288,2,80,2|8|2,0:0|0:0|0:0,0:0:0:0:
224,288,18225,1,8,0:0:0:0:
128,288,18550,6,0,L|40:288,1,80,2|8,0:0|0:0,0:0:0:0:
224,192,19523,1,8,0:0:0:0:
320,192,19847,2,0,L|408:192,2,80,2|8|2,0:0|0:0|0:0,0:0:0:0:
116,244,21144,6,0,B|176:191|176:191|256:191,1,160,2|2,0:0|0:0,0:0:0:0:
448,192,22442,1,2,0:0:0:0:
352,192,22766,1,8,0:0:0:0:
256,192,23090,1,2,0:0:0:0:
160,192,23739,5,2,0:0:0:0:
160,192,24387,1,2,0:0:0:0:
256,192,24712,1,8,0:0:0:0:
352,192,25036,2,0,L|432:192,1,80,2|8,0:0|0:0,0:0:0:0:
352,192,25685,2,0,L|168:192,1,160,2|2,0:0|0:0,0:0:0:0:
352,192,26982,6,0,L|288:272,1,80,2|8,0:0|0:0,0:0:0:0:
160,192,27631,2,0,L|224:112,1,80,2|8,0:0|0:0,0:0:0:0:
304,112,28279,2,0,L|272:64,2,40,8|8|8,0:0|0:0|0:0,0:0:0:0:
352,192,28928,5,6,0:0:0:0:
160,192,29415,6,0,L|192:160,1,40,2|8,0:0|0:0,0:0:0:0:
352,192,30063,6,0,L|320:224,1,40,8|2,0:0|0:0,0:0:0:0:
400,192,30874,1,8,0:0:0:0:
328,128,31198,1,2,0:0:0:0:
256,192,31523,6,0,L|168:192,1,80,2|8,0:0|0:0,0:0:0:0:
80,192,32171,2,0,L|80:272,1,80,2|8,0:0|0:0,0:0:0:0:
176,272,32820,2,0,L|256:272,2,80,2|8|2,0:0|0:0|0:0,0:0:0:0:
256,192,34117,6,0,L|336:192,1,80,2|8,0:0|0:0,0:0:0:0:
240,192,34766,2,0,L|144:192,1,80,2|8,0:0|0:0,0:0:0:0:
64,192,35415,1,2,0:0:0:0:
256,192,36063,1,8,0:0:0:0:
64,192,36712,6,0,L|160:192,1,80,2|8,0:0|0:0,0:0:0:0:
240,192,37360,2,0,L|376:192,1,120,2|8,0:0|0:0,0:0:0:0:
176,192,38658,6,0,L|80:192,1,80,2|8,0:0|0:0,0:0:0:0:
96,80,39306,6,0,L|192:80,1,80,2|8,0:0|0:0,0:0:0:0:
368,80,40279,1,8,0:0:0:0:
464,80,40604,2,0,L|464:128,1,40,2|8,0:0|0:0,0:0:0:0:
352,192,41252,5,8,0:0:0:0:
256,192,41577,1,8,0:0:0:0:
160,192,41901,1,2,0:0:0:0:
352,192,42550,6,0,L|464:192,2,80,2|8|2,0:0|0:0|0:0,0:0:0:0:
256,192,43847,1,2,0:0:0:0:
160,192,44171,1,8,0:0:0:0:
288,192,44496,1,2,0:0:0:0:
160,192,45144,6,0,L|64:192,1,80,2|8,0:0|0:0,0:0:0:0:
160,288,45793,1,2,0:0:0:0:
352,288,46442,1,8,0:0:0:0:
192,192,47090,6,0,L|48:192,2,120,6|2|8,0:0|0:0|0:0,0:0:0:0:
288,192,48387,6,0,L|389:293,2,120,6|2|8,0:0|0:0|0:0,0:0:0:0:
192,192,49685,1,6,0:0:0:0:
72,192,50333,6,0,L|240:192,1,160,8|2,0:0|0:0,0:0:0:0:
400,96,51631,1,8,0:0:0:0:
304,96,51955,2,8,L|256:96,1,40,8|8,0:0|0:0,0:0:0:0:
208,96,52279,6,0,B|126:96|126:96|94:168,1,160,2|8,0:0|0:0,0:0:0:0:
288,192,53577,1,2,0:0:0:0:
192,192,53901,2,0,L|96:192,2,80,2|8|2,0:0|0:0|0:0,0:0:0:0:
288,192,54874,6,0,B|336:128|336:128|416:128,1,160,2|8,0:0|0:0,0:0:0:0:
240,192,56171,1,2,0:0:0:0:
144,192,56496,1,2,0:0:0:0:
240,192,56820,2,0,L|320:192,2,80,8|8|2,0:0|0:0|0:0,0:0:0:0:
48,192,58117,5,8,0:0:0:0:
24,108,58279,2,0,L|56:76,1,40,0|2,0:0|0:0,0:0:0:0:
144,80,58766,1,2,0:0:0:0:
336,80,59415,2,0,L|400:80,1,40,2|4,0:0|0:0,0:0:0:0:
256,192,60063,5,6,0:0:0:0:
160,192,60387,2,0,B|274:194|256:192,1,80,0|8,0:0|0:0,0:0:0:0:
448,192,61360,1,2,0:0:0:0:
256,192,62009,2,0,L|160:192,1,80,8|2,0:0|0:0,0:0:0:0:
80,192,62658,5,2,0:0:0:0:
176,192,62982,2,0,L|224:192,1,40,2|8,0:0|0:0,0:0:0:0:
368,192,63631,5,8,0:0:0:0:
272,192,63955,1,2,0:0:0:0:
80,192,64604,1,8,0:0:0:0:
176,192,64928,2,0,L|272:192,1,80,2|4,0:0|0:0,0:0:0:0:
448,192,65901,5,8,0:0:0:0:
304,192,66550,2,0,L|224:192,1,80,2|2,0:0|0:0,0:0:0:0:
128,272,67198,2,0,L|128:160,1,80,8|8,0:0|0:0,0:0:0:0:
128,80,67847,1,4,0:0:0:0:
320,80,68496,5,8,0:0:0:0:
128,80,69144,2,0,L|224:80,1,80,2|0,0:0|0:0,0:0:0:0:
304,80,69793,2,0,L|384:80,1,80,8|2,0:0|0:0,0:0:0:0:
432,176,70442,6,0,L|384:256,2,80,4|0|8,0:0|0:0|0:0,0:0:0:0:
256,320,71739,1,2,0:0:0:0:
128,176,72387,2,0,L|176:256,1,80,8|8,0:0|0:0,0:0:0:0:
128,176,73036,6,0,L|71:119,2,80,4|2|2,0:0|0:0|0:0,0:0:0:0:
208,240,74009,2,0,L|288:240,1,80,8|8,0:0|0:0,0:0:0:0:
480,240,74982,1,8,0:0:0:0:
296,192,75631,6,0,B|296:112|296:112|360:64,1,160,6|8,0:0|0:0,0:0:0:0:
216,192,76928,2,0,B|216:272|216:272|152:320,1,160,2|8,0:0|0:0,0:0:0:0:
352,320,78225,6,0,L|176:320,1,160,2|8,0:0|0:0,0:0:0:0:
96,208,79360,2,0,L|96:144,1,40,0|2,0:0|0:0,0:0:0:0:
256,64,80171,1,8,0:0:0:0:
352,64,80496,1,2,0:0:0:0:
416,176,80820,6,0,L|480:112,2,80,6|0|8,0:0|0:0|0:0,0:0:0:0:
256,176,82117,6,0,L|256:272,2,80,6|0|8,0:0|0:0|0:0,0:0:0:0:
96,176,83415,6,0,L|39:119,2,80,6|0|8,0:0|0:0|0:0,0:0:0:0:
192,176,84387,1,8,0:0:0:0:
96,176,84712,6,0,L|209:289,1,160,2|4,0:0|0:0,0:0:0:0:
400,288,86009,5,6,0:0:0:0:
256,160,86658,6,0,L|256:96,1,40,8|0,0:0|0:0,0:0:0:0:
112,160,87306,2,0,L|272:160,1,160,0|8,0:0|0:0,0:0:0:0:
368,160,88279,1,2,0:0:0:0:
160,64,88604,1,6,0:0:0:0:
