osu file format v11

[General]
AudioFilename: UVERworld - CORE PRIDE (Ao no Exorcist OP).mp3
AudioLeadIn: 0
PreviewTime: -1
Countdown: 1
SampleSet: None
StackLeniency: 0.7
Mode: 0
LetterboxInBreaks: 1

[Editor]
DistanceSpacing: 0.76
BeatDivisor: 2
GridSize: 8

[Metadata]
Title:CORE PRIDE (Ao no Exorcist OP)
TitleUnicode:CORE PRIDE (Ao no Exorcist OP)
Artist:UVERworld
ArtistUnicode:UVERworld
Creator:luffy123456
Version:Easy
Source:
Tags:
BeatmapID:210908
BeatmapSetID:72152

[Difficulty]
HPDrainRate:3
CircleSize:5
OverallDifficulty:5
ApproachRate:3
SliderMultiplier:1.3
SliderTickRate:1

[Events]
//Background and Video events
0,0,"jjac_ao_no_exorcist_ch_021.001-002.jpg"
//Break Periods
2,82934,105392
2,155556,175392
//Storyboard Layer 0 (Background)
//Storyboard Layer 1 (Fail)
//Storyboard Layer 2 (Pass)
//Storyboard Layer 3 (Foreground)
//Storyboard Sound Samples
//Background Colour Transformations
3,100,163,162,255

[TimingPoints]
931.155199939732,327.868852459016,4,1,0,100,1,0

[HitObjects]
160,96,2898,1,0,0:0:0
248,176,4209,1,0,0:0:0
160,216,4865,1,0,0:0:0
72,224,5521,1,0,0:0:0
96,112,6832,5,0,0:0:0
184,128,7324,1,0,0:0:0
56,160,8472,2,0,P|192:160,5,130
136,88,10767,2,0,P|416:168,1,260
368,80,12078,2,0,P|152:208,1,195
56,112,13390,2,0,P|352:128,1,260
64,184,14701,2,0,P|368:184,1,260
320,80,15849,2,0,P|200:128,6,130
64,152,18472,2,0,P|376:144,1,260
352,80,19783,6,0,P|144:136,1,195
40,168,21095,2,0,P|328:176,1,260
72,224,22406,2,0,P|304:224,1,195
112,136,23718,2,0,P|384:120,1,260
368,64,25029,2,0,P|136:176,1,195
88,152,26340,2,0,P|376:144,1,260
352,64,27488,6,0,P|112:216,1,260
104,144,28800,2,0,P|192:136,5,65
352,104,30111,2,0,P|72:280,1,325
72,168,31586,2,0,P|336:160,1,260
152,120,34045,5,0,0:0:0
216,184,34701,1,0,0:0:0
120,216,35357,1,0,0:0:0
120,216,35685,1,0,0:0:0
120,216,36013,1,0,0:0:0
80,112,36668,5,0,0:0:0
216,112,37324,1,0,0:0:0
200,208,37980,1,0,0:0:0
200,208,38308,1,0,0:0:0
200,208,38472,1,0,0:0:0
104,208,39455,2,0,P|424:176,1,260
168,96,40603,2,0,P|432:88,1,260
160,192,41914,2,0,P|296:176,4,130
80,80,44537,2,0,P|312:168,1,195
384,64,45521,2,0,P|64:216,1,325
64,144,46996,6,0,P|352:160,1,260
304,96,48308,2,0,P|176:144,2,130
48,144,49619,2,0,P|312:136,1,260
136,264,50931,2,0,P|352:72,1,260
368,72,52242,2,0,P|128:88,1,195
104,128,53554,2,0,P|424:128,1,260
376,160,54865,2,0,P|232:168,2,130
64,160,56177,2,0,P|168:152,4,65
112,80,57488,2,0,P|440:88,1,325
336,152,58800,2,0,P|168:224,3,130
128,208,60111,2,0,P|440:184,1,260
408,88,61422,2,0,P|128:192,1,260
80,144,62570,2,0,P|408:136,1,325
416,96,63881,2,0,P|176:160,1,195
120,144,65193,6,0,P|352:136,1,195
360,64,66504,2,0,P|120:232,1,260
128,232,67816,2,0,P|208:232,6,65
112,152,69127,2,0,P|376:136,1,260
392,88,70439,2,0,P|168:248,1,260
80,192,71750,2,0,P|360:192,1,260
352,120,72898,2,0,P|200:160,2,130
80,96,74373,2,0,P|320:112,1,195
352,72,75685,2,0,P|112:208,1,260
48,160,76996,2,0,P|304:160,1,195
376,64,78144,2,0,P|104:136,1,260
88,128,79291,6,0,P|336:144,1,195
184,200,80767,2,0,P|320:200,6,130
104,112,106832,5,0,0:0:0
216,112,107324,1,0,0:0:0
112,208,107980,1,0,0:0:0
232,208,108636,1,0,0:0:0
264,64,109291,5,0,0:0:0
128,112,109947,1,0,0:0:0
248,144,110603,1,0,0:0:0
128,208,111259,1,0,0:0:0
304,200,111914,1,0,0:0:0
304,88,112570,1,0,0:0:0
208,96,113226,5,0,0:0:0
184,160,113881,1,0,0:0:0
104,200,114537,1,0,0:0:0
208,208,115193,1,0,0:0:0
264,112,115849,5,0,0:0:0
264,112,116177,1,0,0:0:0
264,112,116504,1,0,0:0:0
208,184,117324,2,0,P|384:176,1,130
104,144,118472,2,0,P|416:120,1,260
400,184,119783,2,0,P|112:192,1,260
96,112,120931,2,0,P|192:112,4,65
88,192,122242,2,0,P|432:184,1,325
192,112,123554,2,0,P|344:112,2,130
120,160,124865,2,0,P|416:144,1,260
400,64,126177,2,0,P|200:136|160:176,1,260
176,192,127488,2,0,P|304:200|360:112,1,195
360,128,128800,2,0,P|256:104|160:152,1,195
96,192,130111,2,0,P|392:184,1,260
368,112,131422,2,0,P|200:128|160:176|192:232,1,195
136,224,132734,2,0,P|384:192,1,195
360,88,134045,2,0,P|176:112,2,130
128,112,135193,6,0,P|320:112,2,130
176,168,136504,2,0,P|400:160,1,195
184,96,137816,2,0,P|304:96,4,65
120,232,139127,2,0,P|424:80,1,325
80,112,140439,2,0,P|408:120,1,325
200,184,141750,2,0,P|280:144,4,65
96,72,143062,2,0,P|384:88,1,260
312,104,144373,2,0,P|224:144,4,65
96,136,145685,2,0,P|368:136,1,260
384,80,146996,6,0,P|296:96,4,65
72,136,148308,2,0,P|320:128,1,195
160,184,149455,2,0,P|248:176,5,65
128,112,150767,2,0,P|408:112,1,260
392,64,152078,2,0,P|320:96,4,65
56,136,153390,2,0,P|376:128,1,260
360,64,154701,2,0,P|256:104,4,65
104,112,176832,5,0,0:0:0
272,120,178800,1,0,0:0:0
192,168,179455,1,0,0:0:0
56,232,180767,1,0,0:0:0
88,152,181422,1,0,0:0:0
24,208,182078,1,0,0:0:0
72,120,184537,6,0,P|168:120,4,65
224,168,185849,2,0,P|312:152,4,65
64,152,187160,2,0,P|432:136,1,325
88,224,188472,2,0,P|352:40,1,260
56,80,189783,2,0,P|288:80,1,195
80,176,191095,2,0,P|368:80,1,260
168,208,192406,2,0,P|296:200,4,65
72,112,193718,2,0,P|344:216,1,260
392,88,194865,6,0,P|96:136,1,260
144,184,196177,2,0,P|304:184,2,130
32,72,197488,2,0,P|288:176,1,260
360,72,198800,2,0,P|184:88,3,130
64,96,200111,2,0,P|320:104,1,195
368,64,201422,2,0,P|112:184,1,260
80,136,202734,6,0,P|368:136,1,260
360,72,204045,2,0,P|264:112,4,65
56,128,205357,2,0,P|336:192,1,260
408,112,206668,2,0,P|168:104,1,195
80,136,207816,6,0,P|376:144,1,260
384,64,209127,2,0,P|264:112,3,130
48,144,210439,2,0,P|392:160,1,325
144,248,211750,2,0,P|424:96,1,260
184,96,213226,2,0,P|320:96,2,130
168,168,214537,6,0,P|384:120,1,195
104,104,215685,2,0,P|424:112,1,260
432,56,216996,2,0,P|160:208,1,260
80,128,218308,2,0,P|248:120,2,130
120,192,219619,2,0,P|400:176,1,260
256,192,220931,12,0,224209,0:0:0
200,104,226177,5,0,0:0:0
160,160,226668,1,0,0:0:0
248,160,227324,1,0,0:0:0
168,192,227980,1,0,0:0:0
96,128,228636,1,0,0:0:0
208,120,229291,1,0,0:0:0
352,144,229947,1,0,0:0:0
256,192,231259,12,0,233226,0:0:0
280,128,235193,5,0,0:0:0
184,176,236504,1,0,0:0:0
264,176,237160,1,0,0:0:0
128,120,237816,1,0,0:0:0
104,192,238472,1,0,0:0:0
256,128,238963,1,0,0:0:0
248,184,239619,1,0,0:0:0
120,120,240439,1,0,0:0:0
152,184,240931,1,0,0:0:0
192,72,241750,1,0,0:0:0
216,128,242406,1,0,0:0:0
120,168,242898,1,0,0:0:0
120,168,243226,1,0,0:0:0
120,168,243554,1,0,0:0:0
312,128,244209,5,0,0:0:0
288,184,244865,1,0,0:0:0
168,112,245521,1,0,0:0:0
168,112,245849,1,0,0:0:0
168,112,246177,1,0,0:0:0
144,168,246832,5,0,0:0:0
224,160,247488,1,0,0:0:0
184,208,248144,1,0,0:0:0
184,208,248472,1,0,0:0:0
184,208,248636,1,0,0:0:0
200,120,249455,5,0,0:0:0
288,168,250111,1,0,0:0:0
128,184,250767,1,0,0:0:0
128,184,251095,1,0,0:0:0
128,184,251422,1,0,0:0:0
184,152,252078,1,0,0:0:0
