osu file format v14

[General]
AudioFilename: UVERworld.mp3
AudioLeadIn: 0
PreviewTime: 25671
Countdown: 0
SampleSet: Soft
StackLeniency: 0.7
Mode: 0
LetterboxInBreaks: 0
WidescreenStoryboard: 0

[Editor]
DistanceSpacing: 1.2
BeatDivisor: 4
GridSize: 4
TimelineZoom: 2.5

[Metadata]
Title:Boku no Kotoba dewa nai Kore wa Bokutachi no Kotoba
TitleUnicode:僕の言葉ではない これは僕達の言葉
Artist:UVERworld
ArtistUnicode:UVERworld
Creator:tutuhaha
Version:Normal
Source:アルスラーン戦記
Tags:THE HEROIC LEGEND OF ARSLAN Senki Opening
BeatmapID:680197
BeatmapSetID:303319

[Difficulty]
HPDrainRate:3
CircleSize:3
OverallDifficulty:4
ApproachRate:5
SliderMultiplier:0.8
SliderTickRate:1

[Events]
//Background and Video events
0,0,"BG.jpg",0,0
Video,0,"optc.flv"
//Break Periods
2,43185,44173
//Storyboard Layer 0 (Background)
//Storyboard Layer 1 (Fail)
//Storyboard Layer 2 (Pass)
//Storyboard Layer 3 (Foreground)
//Storyboard Sound Samples

[TimingPoints]
0,298.507462686567,4,2,1,50,1,0
8059,-100,4,1,1,50,0,0
9552,-100,4,2,1,50,0,0
25820,-100,4,2,1,30,0,0
25970,-100,4,2,1,40,0,0
26119,-100,4,2,1,50,0,0
35074,-100,4,2,1,40,0,0
35820,-100,4,2,1,50,0,0
40447,-100,4,2,1,50,0,0
40895,-100,4,2,1,30,0,0
41194,-100,4,2,1,40,0,0
41492,-100,4,2,1,50,0,0
41791,-100,4,2,1,40,0,0
43059,-100,4,2,1,5,0,0
45373,-100,4,1,1,55,0,1
64179,-100,4,1,1,55,0,0
64477,-100,4,1,1,55,0,1
82388,-100,4,2,1,50,0,0

[Colours]
Combo1 : 230,0,115
Combo2 : 217,217,0
Combo3 : 128,0,255
Combo4 : 117,234,0
Combo5 : 0,0,128

[HitObjects]
64,200,597,5,0,0:0:0:0:
64,200,1194,2,0,P|128:184|176:152,1,120
200,64,1940,2,0,L|244:52,1,40
308,120,2388,6,0,P|356:148|392:152,1,80
472,124,2985,2,0,L|488:208,1,80
420,272,3582,2,0,P|368:276|296:304,1,120
224,352,4328,1,0,0:0:0:0:
136,316,4626,6,0,P|80:304|4:320,1,120
16,216,5373,2,0,L|12:168,2,40
104,176,5970,6,0,P|144:184|232:156,1,120
268,80,6716,1,0,0:0:0:0:
364,68,7014,6,0,P|400:112|472:140,1,120
492,172,7611,2,0,L|492:260,1,80
492,300,8059,1,0,0:0:0:0:
404,336,8358,5,0,0:0:0:0:
312,316,8656,1,0,0:0:0:0:
220,348,8955,2,0,B|188:356|144:360|144:360|112:324|60:336,1,160,0|2,0:0|1:0,0:0:0:0:
56,240,9850,5,2,1:0:0:0:
36,196,9999,2,0,P|28:156|52:68,1,120,2|0,0:0|1:0,0:0:0:0:
84,52,10597,2,0,L|172:32,1,80,2|0,0:0|0:0,0:0:0:0:
208,24,11044,1,0,1:0:0:0:
216,120,11343,2,0,P|240:144|260:152,2,40,2|0|0,0:0|0:0|1:0,0:0:0:0:
300,72,11940,6,0,P|324:96|344:104,2,40,10|0|2,0:0|0:0|1:0,0:0:0:0:
384,24,12537,1,2,0:0:0:0:
424,52,12686,2,0,P|468:108|476:132,1,80,2|2,0:0|0:0,0:0:0:0:
476,164,13134,2,0,L|464:256,1,80,10|0,0:0|1:0,0:0:0:0:
388,300,13731,2,0,L|396:344,2,40,2|0|0,0:0|0:0|1:0,0:0:0:0:
316,236,14328,6,0,P|272:192|200:184,2,120,10|2|0,0:0|0:0|1:0,0:0:0:0:
232,284,15522,2,0,P|196:320|160:332,1,80,2|0,1:0|1:0,0:0:0:0:
140,236,16119,1,0,1:0:0:0:
124,140,16417,1,0,1:0:0:0:
192,72,16716,6,0,P|240:56|280:56,1,80,0|2,0:0|0:0,0:0:0:0:
364,76,17313,1,0,0:0:0:0:
376,172,17611,1,2,0:0:0:0:
376,172,17761,2,0,P|376:224|392:256,1,80
412,288,18208,2,0,P|452:312|476:348,2,80,2|0|2,0:0|0:0|0:0,0:0:0:0:
328,336,19104,6,0,L|240:356,1,80,0|2,0:0|0:0,0:0:0:0:
200,272,19701,2,0,P|140:268|76:276,2,120,0|2|2,0:0|0:0|0:0,0:0:0:0:
204,176,20895,1,0,0:0:0:0:
188,80,21194,1,2,0:0:0:0:
284,68,21492,6,0,P|332:80|380:80,1,80,0|2,0:0|0:0,0:0:0:0:
456,68,22089,1,0,0:0:0:0:
448,164,22388,2,0,L|440:208,1,40,2|0,0:0|0:0,0:0:0:0:
432,252,22686,2,0,P|384:272|364:296,1,80,0|2,0:0|0:0,0:0:0:0:
292,356,23283,2,0,L|212:356,1,80,0|2,0:0|0:0,0:0:0:0:
132,304,23880,6,0,L|52:304,1,80,4|0,3:0|0:0,0:0:0:0:
88,212,24477,2,0,P|120:184|144:144,1,80,0|0,0:3|0:3,0:0:0:0:
212,88,25074,2,0,P|248:60|292:52,1,80,0|0,3:0|3:0,0:0:0:0:
376,44,25671,1,0,1:0:0:0:
448,104,25970,1,8,1:0:0:0:
392,184,26268,6,0,P|392:220|408:272,1,80,4|0,0:0|1:0,0:0:0:0:
360,348,26865,2,0,L|272:332,1,80,0|0,0:0|1:0,0:0:0:0:
236,324,27313,2,0,P|192:336|144:344,1,80
112,352,27761,1,0,1:0:0:0:
32,300,28059,2,0,L|16:212,1,80,0|0,0:0|1:0,0:0:0:0:
88,156,28656,6,0,L|72:68,1,80,0|0,0:0|1:0,0:0:0:0:
168,64,29253,2,0,P|208:44|260:40,1,80,0|0,0:0|1:0,0:0:0:0:
288,56,29701,2,0,L|376:48,1,80
416,44,30149,1,0,1:0:0:0:
484,112,30447,1,0,0:0:0:0:
436,196,30746,1,0,1:0:0:0:
356,248,31044,6,0,P|340:204|348:156,2,80,0|0|0,0:0|1:0|0:0,0:0:0:0:
360,344,31940,1,0,1:0:0:0:
312,340,32089,2,0,P|268:332|224:332,1,80
188,344,32537,2,0,P|152:352|108:360,1,80,0|0,1:0|0:0,0:0:0:0:
12,360,33134,1,0,1:0:0:0:
40,268,33432,6,0,L|60:184,1,80,0|0,3:0|1:0,0:0:0:0:
152,172,34029,2,0,L|172:88,1,80,0|0,3:0|1:0,0:0:0:0:
208,64,34477,2,0,P|244:40|292:24,1,80
324,40,34925,2,0,L|372:36,2,40,0|0|8,1:0|1:0|3:0,0:0:0:0:
312,136,35522,1,8,0:0:0:0:
312,232,35820,6,0,L|312:280,1,40,0|0,3:0|3:0,0:0:0:0:
28,320,36865,2,0,B|68:312|68:312|108:320,1,80,0|0,3:0|3:0,0:0:0:0:
332,72,38208,6,0,L|332:120,1,40,0|0,3:0|3:0,0:0:0:0:
100,280,39253,2,0,P|118:305|120:196,1,360,0|4,3:0|0:0,0:0:0:0:
256,192,40895,12,4,42985,0:0:0:0:
80,144,45373,6,0,P|124:120|160:112,1,80,4|0,0:0|0:0,0:0:0:0:
248,100,45970,1,8,0:0:0:0:
320,164,46268,2,0,L|344:120,1,40
404,56,46716,1,0,0:0:0:0:
452,140,47014,2,0,P|472:180|480:232,1,80,8|0,0:0|0:0,0:0:0:0:
388,248,47611,5,0,0:0:0:0:
388,248,47761,2,0,P|348:264|316:296,1,80
252,356,48358,1,8,0:0:0:0:
156,360,48656,2,0,L|116:356,1,40
124,260,49104,2,0,L|164:264,1,40
228,192,49552,1,8,0:0:0:0:
140,152,49850,1,0,0:0:0:0:
132,104,49999,6,0,P|160:56|192:36,1,80
276,24,50597,2,0,P|340:52|368:104,1,120,8|0,0:0|0:0,0:0:0:0:
372,140,51194,2,0,P|332:184|308:200,1,80
224,224,51791,1,0,0:0:0:0:
180,240,51940,2,0,P|144:260|112:300,1,80,8|0,0:0|0:0,0:0:0:0:
60,212,52537,6,0,P|48:176|44:124,1,80
84,48,53134,2,0,P|124:84|140:120,1,80,8|0,0:0|0:0,0:0:0:0:
120,200,53731,2,0,P|96:232|80:280,1,80
124,356,54328,2,0,P|176:348|216:352,1,80,8|8,0:0|0:0,0:0:0:0:
232,312,54776,6,0,P|276:316|328:308,1,80
388,256,55373,2,0,P|412:208|480:168,1,120,8|0,0:0|0:0,0:0:0:0:
472,124,55970,2,0,P|464:72|448:36,1,80
356,52,56567,2,0,L|224:32,1,120,8|0,0:0|0:0,0:0:0:0:
144,56,57313,6,0,L|128:140,1,80
56,200,57910,2,0,L|72:284,1,80,8|0,0:0|0:0,0:0:0:0:
84,324,58358,2,0,P|124:320|168:328,1,80
256,352,58955,1,0,0:0:0:0:
256,352,59104,2,0,L|352:348,1,80,8|0,0:0|0:0,0:0:0:0:
372,320,59552,6,0,P|372:272|384:236,1,80
472,216,60149,1,8,0:0:0:0:
496,124,60447,1,0,0:0:0:0:
440,48,60746,2,0,P|404:40|352:48,1,80
316,56,61194,1,0,0:0:0:0:
236,108,61492,2,0,P|192:136|152:136,1,80,8|0,0:0|0:0,0:0:0:0:
72,120,62089,6,0,P|76:164|96:204,1,80
144,276,62686,2,0,P|164:316|168:360,1,80,8|0,0:0|0:0,0:0:0:0:
72,336,63283,2,0,P|52:296|48:252,1,80
64,216,63731,2,0,L|144:188,1,80,8|0,0:0|0:0,0:0:0:0:
156,144,64179,1,8,0:0:0:0:
228,80,64477,6,0,P|272:84|316:80,1,80,4|8,0:0|0:0,0:0:0:0:
396,40,65074,2,0,P|440:44|488:56,1,80,0|8,0:0|0:0,0:0:0:0:
484,100,65522,2,0,L|476:192,1,80
472,228,65970,1,8,0:0:0:0:
412,304,66268,2,0,P|360:296|324:296,1,80,0|8,0:0|0:0,0:0:0:0:
244,332,66865,6,0,P|196:344|160:344,1,80,0|8,0:0|0:0,0:0:0:0:
100,272,67462,2,0,L|20:276,1,80,0|8,0:0|0:0,0:0:0:0:
16,228,67910,2,0,P|24:184|24:144,1,80
24,100,68358,1,8,0:0:0:0:
96,36,68656,1,0,0:0:0:0:
184,76,68955,1,8,0:0:0:0:
188,124,69104,6,0,P|196:168|212:200,1,80
232,244,69552,1,8,0:0:0:0:
248,340,69850,2,0,P|304:364|340:372,1,80,0|8,0:0|0:0,0:0:0:0:
356,332,70298,2,0,P|408:304|440:300,1,80
476,292,70746,1,8,0:0:0:0:
456,200,71044,2,0,L|436:116,1,80,0|8,0:0|0:0,0:0:0:0:
344,152,71641,6,0,P|304:148|264:128,1,80,0|8,0:0|0:0,0:0:0:0:
188,80,72238,2,0,P|144:64|100:60,1,80,0|8,0:0|0:0,0:0:0:0:
48,132,72835,2,0,L|32:224,1,80,0|8,0:0|0:0,0:0:0:0:
56,304,73432,1,0,0:0:0:0:
128,368,73731,1,8,0:0:0:0:
168,344,73880,6,0,P|216:340|256:348,1,80,8|0,0:0|0:0,0:0:0:0:
288,320,74328,2,0,L|368:324,1,80,8|0,0:0|0:0,0:0:0:0:
456,284,74925,1,8,0:0:0:0:
436,240,75074,2,0,P|392:212|368:180,1,80
360,144,75522,2,0,P|320:128|272:116,1,80,8|0,0:0|0:0,0:0:0:0:
188,124,76119,1,8,0:0:0:0:
96,92,76417,6,0,P|92:138|107:176,1,80,0|8,0:0|0:0,0:0:0:0:
184,220,77014,2,0,P|148:252|112:260,1,80,0|8,0:0|0:0,0:0:0:0:
100,352,77611,2,0,L|184:356,1,80,0|8,0:0|0:0,0:0:0:0:
276,368,78208,1,0,0:0:0:0:
372,360,78507,1,8,0:0:0:0:
396,320,78656,6,0,P|400:276|420:236,1,80,0|8,0:0|0:0,0:0:0:0:
468,164,79253,1,0,0:0:0:0:
404,92,79552,2,0,L|404:48,2,40,0|8|0,0:0|0:0|0:0,0:0:0:0:
308,100,80149,2,0,L|308:140,1,40,0|8,0:0|0:0,0:0:0:0:
216,116,80597,2,0,P|188:100|172:84,1,40,0|8,0:0|0:0,0:0:0:0:
96,140,81044,6,0,P|116:192|172:244,1,120,0|8,0:0|0:0,0:0:0:0:
240,296,81791,1,8,0:0:0:0:
256,340,81940,2,0,L|340:368,1,80
380,352,82388,6,0,P|384:308|408:268,1,80,10|2,0:0|1:0,0:0:0:0:
464,204,82985,1,0,0:0:0:0:
404,128,83283,2,0,L|392:76,1,40,0|0,1:0|0:0,0:0:0:0:
300,88,83731,2,0,L|291:49,1,40,0|0,0:0|1:0,0:0:0:0:
212,108,84179,2,0,P|228:144|264:176,1,80,2|0,0:0|1:0,0:0:0:0:
344,216,84776,6,0,L|352:296,1,80,10|2,0:0|1:0,0:0:0:0:
436,344,85373,2,0,L|428:384,2,40,2|10|0,0:0|0:0|1:0,0:0:0:0:
496,268,85970,1,10,0:0:0:0:
504,172,86268,1,0,1:0:0:0:
436,104,86567,2,0,L|464:68,2,40,2|0|0,0:0|0:0|1:0,0:0:0:0:
360,160,87164,6,0,P|296:148|244:108,2,120,10|2|0,0:0|0:0|1:0,0:0:0:0:
376,256,88358,2,0,L|388:344,1,80,10|0,0:0|1:0,0:0:0:0:
292,352,88955,2,0,B|280:268|280:268|240:240,1,120,2|0,1:0|0:0,0:0:0:0:
