osu file format v14

[General]
AudioFilename: UVERworld.mp3
AudioLeadIn: 0
PreviewTime: 25671
Countdown: 0
SampleSet: Normal
StackLeniency: 0.7
Mode: 0
LetterboxInBreaks: 0
WidescreenStoryboard: 0

[Editor]
DistanceSpacing: 1.2
BeatDivisor: 4
GridSize: 4
TimelineZoom: 2.5

[Metadata]
Title:Boku no Kotoba dewa nai Kore wa Bokutachi no Kotoba
TitleUnicode:僕の言葉ではない これは僕達の言葉
Artist:UVERworld
ArtistUnicode:UVERworld
Creator:tutuhaha
Version:Easy
Source:アルスラーン戦記
Tags:THE HEROIC LEGEND OF ARSLAN Senki Opening
BeatmapID:680215
BeatmapSetID:303319

[Difficulty]
HPDrainRate:2
CircleSize:2
OverallDifficulty:2
ApproachRate:3
SliderMultiplier:0.5
SliderTickRate:1

[Events]
//Background and Video events
0,0,"BG.jpg",0,0
Video,0,"optc.flv"
//Break Periods
//Storyboard Layer 0 (Background)
//Storyboard Layer 1 (Fail)
//Storyboard Layer 2 (Pass)
//Storyboard Layer 3 (Foreground)
//Storyboard Sound Samples

[TimingPoints]
0,298.507462686567,4,2,1,50,1,0
8059,-100,4,1,1,50,0,0
9552,-100,4,2,1,50,0,0
25820,-100,4,2,1,30,0,0
25970,-100,4,2,1,40,0,0
26119,-100,4,2,1,50,0,0
35074,-100,4,2,1,40,0,0
35820,-100,4,2,1,50,0,0
40447,-100,4,2,1,50,0,0
40895,-100,4,2,1,30,0,0
41194,-100,4,2,1,40,0,0
41492,-100,4,2,1,50,0,0
41791,-100,4,2,1,40,0,0
43059,-100,4,2,1,5,0,0
45373,-100,4,1,1,55,0,1
64179,-100,4,1,1,55,0,0
64477,-100,4,1,2,55,0,1
65597,-100,4,1,1,55,0,1
65746,-100,4,1,2,55,0,1
67985,-100,4,1,1,55,0,1
68134,-100,4,1,2,55,0,1
73955,-100,4,1,1,55,0,1
74104,-100,4,1,2,55,0,1
75746,-100,4,1,1,55,0,1
75895,-100,4,1,2,55,0,1
78134,-100,4,1,1,55,0,1
78283,-100,4,1,2,55,0,1
79328,-100,4,1,1,55,0,1
79477,-100,4,1,2,55,0,1
82388,-100,4,2,1,50,0,0

[Colours]
Combo1 : 230,0,115
Combo2 : 217,217,0
Combo3 : 128,0,255
Combo4 : 117,234,0
Combo5 : 0,0,128

[HitObjects]
100,52,597,5,0,0:0:0:0:
92,176,1194,2,0,P|152:168|212:104,1,150
248,56,2388,6,0,L|352:56,1,100
400,164,3582,2,0,P|400:236|404:244,1,75
412,296,4328,1,0,0:0:0:0:
368,336,4626,6,0,L|240:336,1,125
124,336,5970,2,0,P|108:296|104:256,1,75
92,204,6716,1,0,0:0:0:0:
84,144,7014,6,0,B|88:108|88:80|88:80|148:92|192:56,1,175
252,52,8358,2,0,L|352:52,1,100
404,160,9552,6,0,P|444:188|476:240,1,100,2|0,1:0|0:0,0:0:0:0:
468,288,10447,2,0,L|360:288,1,100,0|0,1:0|1:0,0:0:0:0:
332,336,11343,1,2,0:0:0:0:
212,324,11940,6,0,P|188:284|144:248,1,100,10|2,0:0|0:0,0:0:0:0:
92,232,12835,2,0,P|60:192|44:140,1,100,0|0,1:0|1:0,0:0:0:0:
28,88,13731,1,2,0:0:0:0:
140,52,14328,6,0,P|176:80|240:84,1,100,10|0,0:0|1:0,0:0:0:0:
288,100,15223,2,0,P|328:80|392:80,1,100,0|0,1:0|1:0,0:0:0:0:
440,92,16119,1,2,0:0:0:0:
464,208,16716,6,0,P|476:264|472:308,1,100,0|2,0:0|0:0,0:0:0:0:
360,344,17910,2,0,L|260:344,1,100,0|2,0:0|0:0,0:0:0:0:
152,292,19104,6,0,L|48:292,1,100,0|2,0:0|0:0,0:0:0:0:
40,172,20298,2,0,L|40:68,1,100,0|2,0:0|0:0,0:0:0:0:
156,104,21492,2,0,L|260:104,1,100,0|2,0:0|0:0,0:0:0:0:
352,28,22686,1,0,0:0:0:0:
452,92,23283,1,2,0:0:0:0:
472,212,23880,6,0,P|484:256|444:360,1,150,4|0,3:0|3:0,0:0:0:0:
396,328,25074,2,0,L|288:328,1,100,0|0,3:0|1:0,0:0:0:0:
184,288,26268,6,0,L|80:288,1,100,4|0,0:0|1:0,0:0:0:0:
60,172,27462,2,0,L|168:176,1,100,0|0,0:0|1:0,0:0:0:0:
232,80,28656,6,0,P|264:68|336:72,1,100,0|0,0:0|1:0,0:0:0:0:
444,108,29850,2,0,L|444:216,1,100,0|0,0:0|1:0,0:0:0:0:
468,324,31044,6,0,P|420:324|368:300,1,100,0|0,0:0|1:0,1:0:0:0:
256,284,32238,2,0,L|212:316,2,50,0|0|0,0:0|1:0|0:0,0:0:0:0:
220,168,33432,6,0,P|216:104|228:72,1,100,0|0,1:0|1:0,1:0:0:0:
272,32,34328,2,0,L|380:40,1,100,0|0,1:0|1:0,0:0:0:0:
472,108,35522,1,8,0:0:0:0:
472,168,35820,6,0,P|428:212|476:308,1,175,0|0,3:0|3:0,0:0:0:0:
428,348,37164,2,0,B|344:348|344:348|296:328|256:336,1,175,0|0,3:0|3:0,0:0:0:0:
92,204,39253,2,0,P|140:140|56:44,1,225,0|4,0:0|0:0,0:0:0:0:
256,192,40895,12,4,42985,0:0:0:0:
480,120,45373,6,0,P|448:124|380:100,1,100,0|8,0:0|0:0,0:0:0:0:
348,56,46268,2,0,L|240:60,1,100
188,64,47164,1,8,0:0:0:0:
80,116,47761,6,0,P|76:172|96:216,1,100,0|8,0:0|0:0,0:0:0:0:
152,316,48955,2,0,L|256:316,1,100,0|8,0:0|0:0,0:0:0:0:
300,208,50149,6,0,P|316:176|376:144,1,100,0|8,0:0|0:0,0:0:0:0:
468,216,51343,2,0,L|468:320,1,100,0|8,0:0|0:0,0:0:0:0:
356,360,52537,5,0,0:0:0:0:
288,264,53134,1,8,0:0:0:0:
188,332,53731,1,0,0:0:0:0:
96,256,54328,2,0,P|84:200|96:152,1,100,8|0,0:0|0:0,0:0:0:0:
100,100,55223,6,0,L|208:80,1,100,8|0,0:0|0:0,0:0:0:0:
256,68,56119,1,0,0:0:0:0:
288,184,56716,1,8,0:0:0:0:
396,132,57313,6,0,P|408:184|396:232,1,100,0|8,0:0|0:0,0:0:0:0:
444,340,58507,2,0,L|336:340,1,100,0|8,0:0|0:0,0:0:0:0:
284,340,59402,1,0,0:0:0:0:
236,304,59701,6,0,P|200:264|152:248,1,100,0|8,0:0|0:0,0:0:0:0:
88,152,60895,2,0,L|112:52,1,100,0|8,0:0|0:0,0:0:0:0:
168,32,61791,1,0,0:0:0:0:
228,44,62089,6,0,P|280:56|336:48,1,100,0|8,0:0|0:0,0:0:0:0:
408,140,63283,2,0,L|432:220,2,75,0|8|8,0:0|0:0|0:0,0:0:0:0:
348,148,64477,6,0,P|304:168|260:208,1,100
204,200,65373,2,0,L|96:196,1,100,8|8,0:0|0:0,0:0:0:0:
60,308,66567,1,8,0:0:0:0:
116,332,66865,6,0,P|168:348|220:348,1,100
272,344,67761,2,0,P|328:332|376:332,1,100,8|8,0:0|0:0,0:0:0:0:
488,340,68955,1,0,0:0:0:0:
492,280,69253,6,0,L|500:172,1,100
436,80,70447,2,0,P|404:56|340:40,1,100
288,44,71343,1,8,0:0:0:0:
236,76,71641,6,0,L|128:84,1,100
124,204,72835,2,0,L|223:196,1,100
284,200,73731,6,0,P|320:260|348:280,1,100,8|8,0:0|0:0,0:0:0:0:
388,320,74626,2,0,P|425:287|447:242,1,100
464,184,75522,1,8,0:0:0:0:
416,76,76119,1,8,0:0:0:0:
360,60,76417,6,0,P|308:64|256:56,2,100
376,116,77910,2,0,L|356:220,1,100,8|8,0:0|0:0,0:0:0:0:
348,272,78805,5,0,0:0:0:0:
232,308,79402,1,0,0:0:0:0:
128,248,79999,1,0,0:0:0:0:
184,140,80597,1,8,0:0:0:0:
304,124,81194,2,0,B|404:116|404:116|428:132,1,125
456,212,82388,6,0,P|440:264|416:308,1,100,10|0,0:0|0:0,0:0:0:0:
364,324,83283,2,0,P|320:312|260:312,1,100,0|0,1:0|1:0,0:0:0:0:
216,344,84179,1,2,0:0:0:0:
100,320,84776,6,0,P|60:300|24:252,1,100,10|0,0:0|0:0,0:0:0:0:
52,204,85671,2,0,L|64:104,1,100,0|0,1:0|1:0,0:0:0:0:
88,48,86567,1,2,0:0:0:0:
212,48,87164,6,0,P|272:40|312:44,1,100,10|0,0:0|0:0,0:0:0:0:
372,52,88059,2,0,P|416:68|468:80,1,100,0|0,1:0|1:0,0:0:0:0:
488,136,88955,2,0,B|476:172|476:172|448:200,1,75,2|0,1:0|0:0,0:0:0:0:
