osu file format v12

[General]
AudioFilename: TV Sovitica 1984 Himno URSS.mp3
AudioLeadIn: 0
PreviewTime: -1
Countdown: 1
SampleSet: None
StackLeniency: 0.7
Mode: 0
LetterboxInBreaks: 1
WidescreenStoryboard: 0

[Editor]
DistanceSpacing: 1.4
BeatDivisor: 4
GridSize: 4

[Metadata]
Title:USSRAnthem (Soviet Union anthem)
TitleUnicode:USSRAnthem (Soviet Union anthem)
Artist:USSR
ArtistUnicode:USSR
Creator:ukeluppi
Version:Hard
Source:Soviet Union
Tags:USSR URSS HIMNO COMUNISMO OSU! osu!
BeatmapID:382434
BeatmapSetID:156012

[Difficulty]
HPDrainRate:8
CircleSize:5
OverallDifficulty:10
ApproachRate:5
SliderMultiplier:1.4
SliderTickRate:4

[Events]
//Background and Video events
Video,0,"URSS Anthem.avi"
//Break Periods
//Storyboard Layer 0 (Background)
//Storyboard Layer 1 (Fail)
//Storyboard Layer 2 (Pass)
//Storyboard Layer 3 (Foreground)
//Storyboard Sound Samples
//Background Colour Transformations
3,100,163,162,255

[TimingPoints]
49540,375,4,1,0,100,1,0

[Colours]
Combo1 : 255,192,0
Combo2 : 0,202,0
Combo3 : 18,124,255
Combo4 : 242,24,57

[HitObjects]
256,192,227,12,0,3695,0:0:0:0:
240,132,4633,5,0,0:0:0:0:
304,124,5665,2,0,P|152:200|240:224,1,420
92,352,7352,2,0,L|232:248,1,175
128,136,8477,1,0,0:0:0:0:
172,252,9321,2,0,L|400:72,1,280
268,192,10446,1,0,0:0:0:0:
340,108,11758,1,0,0:0:0:0:
384,280,12415,1,0,0:0:0:0:
108,56,13165,1,0,0:0:0:0:
168,276,14102,2,0,B|468:92|360:132,1,280
256,192,16165,12,0,18227,0:0:0:0:
256,192,18790,5,0,0:0:0:0:
376,64,19633,1,0,0:0:0:0:
80,64,20290,1,0,0:0:0:0:
312,328,21133,1,0,0:0:0:0:
24,312,22352,2,0,P|232:268|432:312,1,420
248,64,24415,1,0,0:0:0:0:
40,48,25258,1,0,0:0:0:0:
318,174,26665,2,0,B|84:260|296:192,1,210
60,164,28071,2,0,L|460:148,1,385
212,180,29571,1,0,0:0:0:0:
256,124,30508,1,0,0:0:0:0:
328,176,31258,1,0,0:0:0:0:
284,236,31633,1,0,0:0:0:0:
216,192,31915,1,0,0:0:0:0:
68,156,33040,2,0,B|364:60|184:84,1,245
256,192,35008,12,0,35852,0:0:0:0:
152,144,36602,5,0,0:0:0:0:
256,252,37821,1,0,0:0:0:0:
320,184,38196,1,0,0:0:0:0:
172,144,38383,1,0,0:0:0:0:
260,128,39133,1,0,0:0:0:0:
240,136,40727,2,0,P|152:112|140:224,1,210
240,136,41758,1,0,0:0:0:0:
96,96,42602,2,0,L|220:88,1,105
260,184,43446,1,0,0:0:0:0:
260,184,43915,1,0,0:0:0:0:
256,192,45133,12,0,46633,0:0:0:0:
238,200,48040,5,0,0:0:0:0:
188,117,48790,1,0,0:0:0:0:
296,113,49446,1,0,0:0:0:0:
250,224,50008,1,0,0:0:0:0:
256,192,50477,12,0,52915,0:0:0:0:
227,179,53852,5,0,0:0:0:0:
333,100,54696,1,0,0:0:0:0:
344,252,55727,1,0,0:0:0:0:
143,182,56758,1,0,0:0:0:0:
207,103,57508,1,0,0:0:0:0:
265,184,58258,1,0,0:0:0:0:
92,299,59196,2,0,P|405:306|250:71,1,735
348,336,61915,2,0,L|345:18,1,315
231,190,63790,1,0,0:0:0:0:
111,202,65008,1,0,0:0:0:0:
224,116,66415,5,0,0:0:0:0:
252,216,66977,1,0,0:0:0:0:
216,136,68477,1,0,0:0:0:0:
352,196,69040,1,0,0:0:0:0:
132,184,70258,1,0,0:0:0:0:
192,288,70727,1,0,0:0:0:0:
388,232,71290,1,0,0:0:0:0:
352,160,71571,1,0,0:0:0:0:
180,112,71758,1,0,0:0:0:0:
180,112,72040,1,0,0:0:0:0:
56,228,73071,2,0,L|340:240,1,280
264,108,74290,2,0,B|480:56|460:56,1,175
56,264,75321,1,0,0:0:0:0:
188,144,76258,1,0,0:0:0:0:
292,160,77290,1,0,0:0:0:0:
152,144,77946,1,0,0:0:0:0:
364,232,79540,5,0,0:0:0:0:
264,80,80383,1,0,0:0:0:0:
132,96,81133,1,0,0:0:0:0:
100,232,81415,2,0,L|324:212,1,210
260,196,83290,1,0,0:0:0:0:
348,40,84321,1,0,0:0:0:0:
356,108,84508,1,0,0:0:0:0:
368,172,84977,1,0,0:0:0:0:
376,236,85352,1,0,0:0:0:0:
388,308,85727,1,0,0:0:0:0:
256,192,86758,12,0,87602,0:0:0:0:
264,200,89383,5,0,0:0:0:0:
400,144,89758,1,0,0:0:0:0:
148,156,90602,1,0,0:0:0:0:
84,328,91821,6,0,L|396:156,1,350
132,104,93227,2,0,P|388:312|124:120,1,280
168,348,95008,1,0,0:0:0:0:
232,232,97071,1,0,0:0:0:0:
344,168,97915,1,0,0:0:0:0:
168,116,98665,1,0,0:0:0:0:
168,240,99508,1,0,0:0:0:0:
352,244,100165,1,0,0:0:0:0:
348,140,100727,1,0,0:0:0:0:
176,108,101383,1,0,0:0:0:0:
48,212,102696,6,0,L|428:244,1,350
168,140,104665,1,0,0:0:0:0:
280,192,105508,5,0,0:0:0:0:
224,132,106727,1,0,0:0:0:0:
328,260,107571,1,0,0:0:0:0:
348,120,108321,1,0,0:0:0:0:
144,116,109352,1,0,0:0:0:0:
176,288,110290,1,0,0:0:0:0:
408,280,111321,1,0,0:0:0:0:
392,112,112071,1,0,0:0:0:0:
256,192,112633,12,0,113946,0:0:0:0:
264,196,114321,5,0,0:0:0:0:
264,196,115071,1,0,0:0:0:0:
264,196,115446,1,0,0:0:0:0:
264,196,116102,1,0,0:0:0:0:
264,196,116665,1,0,0:0:0:0:
408,52,118446,2,0,L|264:208,1,210
228,184,120883,1,0,0:0:0:0:
276,176,122196,1,0,0:0:0:0:
328,168,124821,1,0,0:0:0:0:
224,160,125758,1,0,0:0:0:0:
208,88,126883,1,0,0:0:0:0:
168,200,127727,1,0,0:0:0:0:
140,140,130633,5,0,0:0:0:0:
336,160,131571,1,0,0:0:0:0:
208,280,132790,1,0,0:0:0:0:
320,116,134008,1,0,0:0:0:0:
132,112,135040,1,0,0:0:0:0:
68,112,136633,6,0,L|192:164,1,105
352,88,137196,1,0,0:0:0:0:
308,68,140571,1,0,0:0:0:0:
384,88,141321,1,0,0:0:0:0:
376,176,142071,1,0,0:0:0:0:
44,320,144508,2,0,P|204:104|408:188,1,525
248,180,146946,1,0,0:0:0:0:
196,152,147977,1,0,0:0:0:0:
196,152,149477,1,0,0:0:0:0:
116,260,150883,2,0,L|232:172,1,140
256,192,152008,12,0,153415,0:0:0:0:
248,200,154915,5,0,0:0:0:0:
120,124,155477,1,0,0:0:0:0:
328,80,156696,1,0,0:0:0:0:
336,280,157915,1,0,0:0:0:0:
144,240,159227,1,0,0:0:0:0:
248,192,160258,1,0,0:0:0:0:
248,192,160727,1,0,0:0:0:0:
248,192,161571,1,0,0:0:0:0:
248,192,162040,1,0,0:0:0:0:
248,192,162321,1,0,0:0:0:0:
124,288,163915,2,0,B|292:144|248:176,1,175
64,120,164665,5,0,0:0:0:0:
260,192,165227,1,0,0:0:0:0:
192,144,167665,5,0,0:0:0:0:
152,244,168415,1,0,0:0:0:0:
212,144,170665,1,0,0:0:0:0:
368,120,171602,1,0,0:0:0:0:
268,68,172540,1,0,0:0:0:0:
184,152,173571,1,0,0:0:0:0:
280,272,174227,1,0,0:0:0:0:
256,192,176477,12,0,178165,0:0:0:0:
264,192,178821,5,0,0:0:0:0:
40,332,179477,2,0,L|440:320,1,385
40,36,181727,1,0,0:0:0:0:
52,120,182477,1,0,0:0:0:0:
68,208,183227,1,0,0:0:0:0:
164,272,184165,1,0,0:0:0:0:
244,260,184821,1,0,0:0:0:0:
236,152,186133,1,0,0:0:0:0:
216,64,187071,1,0,0:0:0:0:
216,12,188290,1,0,0:0:0:0:
256,192,189602,12,0,191383,0:0:0:0:
40,324,192883,6,0,B|296:260|400:336|384:344,1,350
256,192,194571,12,0,197852,0:0:0:0:
