osu file format v14

[General]
AudioFilename: 8bp062-04-usk-shanghai_moon.mp3
AudioLeadIn: 0
PreviewTime: 29830
Countdown: 0
SampleSet: None
StackLeniency: 0.7
Mode: 3
LetterboxInBreaks: 0
SpecialStyle: 0
WidescreenStoryboard: 0

[Editor]
DistanceSpacing: 1
BeatDivisor: 16
GridSize: 16
TimelineZoom: 1.7

[Metadata]
Title:Shanghai Moon
TitleUnicode:Shanghai Moon
Artist:USK
ArtistUnicode:USK
Creator:Akemi-Scarlet
Version:Expert [20]
Source:
Tags:
BeatmapID:746073
BeatmapSetID:337176

[Difficulty]
HPDrainRate:7
CircleSize:4
OverallDifficulty:8
ApproachRate:5
SliderMultiplier:1.4
SliderTickRate:1

[Events]
//Background and Video events
0,0,"imageedit_6_8196715291.png",0,0
//Break Periods
//Storyboard Layer 0 (Background)
//Storyboard Layer 1 (Fail)
//Storyboard Layer 2 (Pass)
//Storyboard Layer 3 (Foreground)
//Storyboard Sound Samples

[TimingPoints]
0,434.782608695652,4,1,0,15,1,0

[HitObjects]
64,192,135,5,0,0:0:0:0:
192,192,163,1,0,0:0:0:0:
320,192,190,1,0,0:0:0:0:
448,192,217,1,0,0:0:0:0:
64,192,244,1,0,0:0:0:0:
192,192,271,1,0,0:0:0:0:
320,192,298,1,0,0:0:0:0:
448,192,326,1,0,0:0:0:0:
64,192,353,1,0,0:0:0:0:
192,192,380,1,0,0:0:0:0:
320,192,407,1,0,0:0:0:0:
448,192,434,1,0,0:0:0:0:
64,192,461,1,0,0:0:0:0:
192,192,489,1,0,0:0:0:0:
320,192,516,1,0,0:0:0:0:
448,192,543,1,0,0:0:0:0:
64,192,570,1,0,0:0:0:0:
192,192,597,1,0,0:0:0:0:
320,192,624,1,0,0:0:0:0:
448,192,652,1,0,0:0:0:0:
64,192,679,1,0,0:0:0:0:
192,192,706,1,0,0:0:0:0:
320,192,733,1,0,0:0:0:0:
448,192,760,1,0,0:0:0:0:
64,192,788,1,0,0:0:0:0:
192,192,815,1,0,0:0:0:0:
320,192,842,1,0,0:0:0:0:
448,192,869,1,0,0:0:0:0:
64,192,896,1,0,0:0:0:0:
192,192,923,1,0,0:0:0:0:
320,192,951,1,0,0:0:0:0:
448,192,978,1,0,0:0:0:0:
64,192,1005,1,0,0:0:0:0:
192,192,1032,1,0,0:0:0:0:
320,192,1059,1,0,0:0:0:0:
448,192,1086,1,0,0:0:0:0:
64,192,1114,1,0,0:0:0:0:
192,192,1141,1,0,0:0:0:0:
320,192,1168,1,0,0:0:0:0:
448,192,1195,1,0,0:0:0:0:
64,192,1222,1,0,0:0:0:0:
192,192,1249,1,0,0:0:0:0:
320,192,1277,1,0,0:0:0:0:
448,192,1304,1,0,0:0:0:0:
64,192,1331,1,0,0:0:0:0:
192,192,1358,1,0,0:0:0:0:
320,192,1385,1,0,0:0:0:0:
448,192,1413,1,0,0:0:0:0:
192,192,1440,1,0,0:0:0:0:
192,192,1657,1,0,0:0:0:0:
64,192,1874,1,0,0:0:0:0:
192,192,1902,1,0,0:0:0:0:
320,192,1929,1,0,0:0:0:0:
448,192,1956,1,0,0:0:0:0:
64,192,1983,1,0,0:0:0:0:
192,192,2010,1,0,0:0:0:0:
320,192,2038,1,0,0:0:0:0:
448,192,2065,1,0,0:0:0:0:
64,192,2092,1,0,0:0:0:0:
192,192,2119,1,0,0:0:0:0:
320,192,2146,1,0,0:0:0:0:
448,192,2173,1,0,0:0:0:0:
64,192,2201,1,0,0:0:0:0:
192,192,2228,1,0,0:0:0:0:
320,192,2255,1,0,0:0:0:0:
448,192,2282,1,0,0:0:0:0:
64,192,2309,1,0,0:0:0:0:
192,192,2336,1,0,0:0:0:0:
320,192,2364,1,0,0:0:0:0:
448,192,2391,1,0,0:0:0:0:
64,192,2418,1,0,0:0:0:0:
192,192,2445,1,0,0:0:0:0:
320,192,2472,1,0,0:0:0:0:
448,192,2499,1,0,0:0:0:0:
64,192,2527,1,0,0:0:0:0:
192,192,2554,1,0,0:0:0:0:
320,192,2581,1,0,0:0:0:0:
448,192,2608,1,0,0:0:0:0:
64,192,2635,1,0,0:0:0:0:
192,192,2663,1,0,0:0:0:0:
320,192,2690,1,0,0:0:0:0:
448,192,2717,1,0,0:0:0:0:
64,192,2744,1,0,0:0:0:0:
192,192,2771,1,0,0:0:0:0:
320,192,2798,1,0,0:0:0:0:
448,192,2826,1,0,0:0:0:0:
64,192,2853,1,0,0:0:0:0:
192,192,2880,1,0,0:0:0:0:
320,192,2907,1,0,0:0:0:0:
448,192,2934,1,0,0:0:0:0:
64,192,2961,1,0,0:0:0:0:
192,192,2989,1,0,0:0:0:0:
320,192,3016,1,0,0:0:0:0:
448,192,3043,1,0,0:0:0:0:
64,192,3070,1,0,0:0:0:0:
192,192,3097,1,0,0:0:0:0:
320,192,3124,1,0,0:0:0:0:
448,192,3152,1,0,0:0:0:0:
192,192,3179,1,0,0:0:0:0:
192,192,3396,1,0,0:0:0:0:
64,192,3614,1,0,0:0:0:0:
192,192,3641,1,0,0:0:0:0:
320,192,3668,1,0,0:0:0:0:
448,192,3695,1,0,0:0:0:0:
64,192,3722,1,0,0:0:0:0:
192,192,3749,1,0,0:0:0:0:
320,192,3777,1,0,0:0:0:0:
448,192,3804,1,0,0:0:0:0:
64,192,3831,1,0,0:0:0:0:
192,192,3858,1,0,0:0:0:0:
320,192,3885,1,0,0:0:0:0:
448,192,3913,1,0,0:0:0:0:
64,192,3940,1,0,0:0:0:0:
192,192,3967,1,0,0:0:0:0:
320,192,3994,1,0,0:0:0:0:
448,192,4021,1,0,0:0:0:0:
64,192,4048,1,0,0:0:0:0:
192,192,4076,1,0,0:0:0:0:
320,192,4103,1,0,0:0:0:0:
448,192,4130,1,0,0:0:0:0:
64,192,4157,1,0,0:0:0:0:
192,192,4184,1,0,0:0:0:0:
320,192,4211,1,0,0:0:0:0:
448,192,4239,1,0,0:0:0:0:
64,192,4266,1,0,0:0:0:0:
192,192,4293,1,0,0:0:0:0:
320,192,4320,1,0,0:0:0:0:
448,192,4347,1,0,0:0:0:0:
64,192,4374,1,0,0:0:0:0:
192,192,4402,1,0,0:0:0:0:
320,192,4429,1,0,0:0:0:0:
448,192,4456,1,0,0:0:0:0:
64,192,4483,1,0,0:0:0:0:
192,192,4510,1,0,0:0:0:0:
320,192,4538,1,0,0:0:0:0:
448,192,4565,1,0,0:0:0:0:
64,192,4592,1,0,0:0:0:0:
192,192,4619,1,0,0:0:0:0:
320,192,4646,1,0,0:0:0:0:
448,192,4673,1,0,0:0:0:0:
64,192,4701,1,0,0:0:0:0:
192,192,4728,1,0,0:0:0:0:
320,192,4755,1,0,0:0:0:0:
448,192,4782,1,0,0:0:0:0:
64,192,4809,1,0,0:0:0:0:
192,192,4836,1,0,0:0:0:0:
320,192,4864,1,0,0:0:0:0:
448,192,4891,1,0,0:0:0:0:
192,192,4918,1,0,0:0:0:0:
192,192,5135,1,0,0:0:0:0:
64,192,5353,1,0,0:0:0:0:
192,192,5380,1,0,0:0:0:0:
448,192,5407,1,0,0:0:0:0:
320,192,5434,1,0,0:0:0:0:
64,192,5461,1,0,0:0:0:0:
192,192,5489,1,0,0:0:0:0:
448,192,5516,1,0,0:0:0:0:
320,192,5543,1,0,0:0:0:0:
64,192,5570,1,0,0:0:0:0:
192,192,5597,1,0,0:0:0:0:
448,192,5624,1,0,0:0:0:0:
320,192,5652,1,0,0:0:0:0:
64,192,5679,1,0,0:0:0:0:
192,192,5706,1,0,0:0:0:0:
448,192,5733,1,0,0:0:0:0:
320,192,5760,1,0,0:0:0:0:
64,192,5788,1,0,0:0:0:0:
192,192,5815,1,0,0:0:0:0:
448,192,5842,1,0,0:0:0:0:
320,192,5869,1,0,0:0:0:0:
64,192,5896,1,0,0:0:0:0:
192,192,5923,1,0,0:0:0:0:
448,192,5951,1,0,0:0:0:0:
320,192,5978,1,0,0:0:0:0:
64,192,6005,1,0,0:0:0:0:
192,192,6032,1,0,0:0:0:0:
448,192,6059,1,0,0:0:0:0:
320,192,6086,1,0,0:0:0:0:
64,192,6114,1,0,0:0:0:0:
192,192,6141,1,0,0:0:0:0:
448,192,6168,1,0,0:0:0:0:
320,192,6195,1,0,0:0:0:0:
192,192,6222,1,0,0:0:0:0:
64,192,6249,1,0,0:0:0:0:
320,192,6277,1,0,0:0:0:0:
448,192,6304,1,0,0:0:0:0:
192,192,6331,1,0,0:0:0:0:
64,192,6358,1,0,0:0:0:0:
320,192,6385,1,0,0:0:0:0:
448,192,6413,1,0,0:0:0:0:
192,192,6440,1,0,0:0:0:0:
64,192,6467,1,0,0:0:0:0:
320,192,6494,1,0,0:0:0:0:
448,192,6521,1,0,0:0:0:0:
192,192,6548,1,0,0:0:0:0:
64,192,6576,1,0,0:0:0:0:
320,192,6603,1,0,0:0:0:0:
448,192,6630,1,0,0:0:0:0:
192,192,6657,1,0,0:0:0:0:
64,192,6684,1,0,0:0:0:0:
320,192,6711,1,0,0:0:0:0:
448,192,6739,1,0,0:0:0:0:
192,192,6766,1,0,0:0:0:0:
64,192,6793,1,0,0:0:0:0:
320,192,6820,1,0,0:0:0:0:
448,192,6847,1,0,0:0:0:0:
192,192,6874,1,0,0:0:0:0:
64,192,6902,1,0,0:0:0:0:
320,192,6929,1,0,0:0:0:0:
448,192,6956,1,0,0:0:0:0:
192,192,6983,1,0,0:0:0:0:
64,192,7010,1,0,0:0:0:0:
320,192,7038,1,0,0:0:0:0:
448,192,7065,1,0,0:0:0:0:
64,192,7092,1,0,0:0:0:0:
192,192,7119,1,0,0:0:0:0:
320,192,7146,1,0,0:0:0:0:
448,192,7173,1,0,0:0:0:0:
64,192,7201,1,0,0:0:0:0:
192,192,7228,1,0,0:0:0:0:
320,192,7255,1,0,0:0:0:0:
448,192,7282,1,0,0:0:0:0:
64,192,7309,1,0,0:0:0:0:
192,192,7336,1,0,0:0:0:0:
320,192,7364,1,0,0:0:0:0:
448,192,7391,1,0,0:0:0:0:
64,192,7418,1,0,0:0:0:0:
192,192,7445,1,0,0:0:0:0:
320,192,7472,1,0,0:0:0:0:
448,192,7499,1,0,0:0:0:0:
64,192,7527,1,0,0:0:0:0:
192,192,7554,1,0,0:0:0:0:
320,192,7581,1,0,0:0:0:0:
448,192,7608,1,0,0:0:0:0:
64,192,7635,1,0,0:0:0:0:
192,192,7663,1,0,0:0:0:0:
320,192,7690,1,0,0:0:0:0:
448,192,7717,1,0,0:0:0:0:
64,192,7744,1,0,0:0:0:0:
192,192,7771,1,0,0:0:0:0:
320,192,7798,1,0,0:0:0:0:
448,192,7826,1,0,0:0:0:0:
64,192,7853,1,0,0:0:0:0:
192,192,7880,1,0,0:0:0:0:
320,192,7907,1,0,0:0:0:0:
448,192,7934,1,0,0:0:0:0:
64,192,7961,1,0,0:0:0:0:
192,192,7989,1,0,0:0:0:0:
320,192,8016,1,0,0:0:0:0:
448,192,8043,1,0,0:0:0:0:
64,192,8070,1,0,0:0:0:0:
192,192,8097,1,0,0:0:0:0:
320,192,8124,1,0,0:0:0:0:
448,192,8152,1,0,0:0:0:0:
64,192,8179,1,0,0:0:0:0:
192,192,8206,1,0,0:0:0:0:
320,192,8233,1,0,0:0:0:0:
448,192,8260,1,0,0:0:0:0:
64,192,8288,1,0,0:0:0:0:
192,192,8315,1,0,0:0:0:0:
320,192,8342,1,0,0:0:0:0:
448,192,8369,1,0,0:0:0:0:
192,192,8396,1,0,0:0:0:0:
192,192,8614,1,0,0:0:0:0:
64,192,8831,1,0,0:0:0:0:
192,192,8858,1,0,0:0:0:0:
320,192,8885,1,0,0:0:0:0:
448,192,8913,1,0,0:0:0:0:
64,192,8940,1,0,0:0:0:0:
192,192,8967,1,0,0:0:0:0:
320,192,8994,1,0,0:0:0:0:
448,192,9021,1,0,0:0:0:0:
64,192,9048,1,0,0:0:0:0:
192,192,9076,1,0,0:0:0:0:
320,192,9103,1,0,0:0:0:0:
448,192,9130,1,0,0:0:0:0:
64,192,9157,1,0,0:0:0:0:
192,192,9184,1,0,0:0:0:0:
320,192,9211,1,0,0:0:0:0:
448,192,9239,1,0,0:0:0:0:
64,192,9266,1,0,0:0:0:0:
192,192,9293,1,0,0:0:0:0:
320,192,9320,1,0,0:0:0:0:
448,192,9347,1,0,0:0:0:0:
64,192,9374,1,0,0:0:0:0:
192,192,9402,1,0,0:0:0:0:
320,192,9429,1,0,0:0:0:0:
448,192,9456,1,0,0:0:0:0:
64,192,9483,1,0,0:0:0:0:
192,192,9510,1,0,0:0:0:0:
320,192,9538,1,0,0:0:0:0:
448,192,9565,1,0,0:0:0:0:
64,192,9592,1,0,0:0:0:0:
192,192,9619,1,0,0:0:0:0:
320,192,9646,1,0,0:0:0:0:
448,192,9673,1,0,0:0:0:0:
64,192,9701,1,0,0:0:0:0:
192,192,9728,1,0,0:0:0:0:
320,192,9755,1,0,0:0:0:0:
448,192,9782,1,0,0:0:0:0:
64,192,9809,1,0,0:0:0:0:
192,192,9836,1,0,0:0:0:0:
320,192,9864,1,0,0:0:0:0:
448,192,9891,1,0,0:0:0:0:
64,192,9918,1,0,0:0:0:0:
192,192,9945,1,0,0:0:0:0:
320,192,9972,1,0,0:0:0:0:
448,192,9999,1,0,0:0:0:0:
64,192,10027,1,0,0:0:0:0:
192,192,10054,1,0,0:0:0:0:
320,192,10081,1,0,0:0:0:0:
448,192,10108,1,0,0:0:0:0:
192,192,10135,1,0,0:0:0:0:
192,192,10353,1,0,0:0:0:0:
64,192,10570,1,0,0:0:0:0:
192,192,10597,1,0,0:0:0:0:
320,192,10624,1,0,0:0:0:0:
448,192,10652,1,0,0:0:0:0:
64,192,10679,1,0,0:0:0:0:
192,192,10706,1,0,0:0:0:0:
320,192,10733,1,0,0:0:0:0:
448,192,10760,1,0,0:0:0:0:
64,192,10788,1,0,0:0:0:0:
192,192,10815,1,0,0:0:0:0:
320,192,10842,1,0,0:0:0:0:
448,192,10869,1,0,0:0:0:0:
64,192,10896,1,0,0:0:0:0:
192,192,10923,1,0,0:0:0:0:
320,192,10951,1,0,0:0:0:0:
448,192,10978,1,0,0:0:0:0:
64,192,11005,1,0,0:0:0:0:
192,192,11032,1,0,0:0:0:0:
320,192,11059,1,0,0:0:0:0:
448,192,11086,1,0,0:0:0:0:
64,192,11114,1,0,0:0:0:0:
192,192,11141,1,0,0:0:0:0:
320,192,11168,1,0,0:0:0:0:
448,192,11195,1,0,0:0:0:0:
64,192,11222,1,0,0:0:0:0:
192,192,11249,1,0,0:0:0:0:
320,192,11277,1,0,0:0:0:0:
448,192,11304,1,0,0:0:0:0:
64,192,11331,1,0,0:0:0:0:
192,192,11358,1,0,0:0:0:0:
320,192,11385,1,0,0:0:0:0:
448,192,11413,1,0,0:0:0:0:
64,192,11440,1,0,0:0:0:0:
192,192,11467,1,0,0:0:0:0:
320,192,11494,1,0,0:0:0:0:
448,192,11521,1,0,0:0:0:0:
64,192,11548,1,0,0:0:0:0:
192,192,11576,1,0,0:0:0:0:
320,192,11603,1,0,0:0:0:0:
448,192,11630,1,0,0:0:0:0:
64,192,11657,1,0,0:0:0:0:
192,192,11684,1,0,0:0:0:0:
320,192,11711,1,0,0:0:0:0:
448,192,11739,1,0,0:0:0:0:
64,192,11766,1,0,0:0:0:0:
192,192,11793,1,0,0:0:0:0:
320,192,11820,1,0,0:0:0:0:
448,192,11847,1,0,0:0:0:0:
192,192,11874,1,0,0:0:0:0:
192,192,12092,1,0,0:0:0:0:
64,192,12309,1,0,0:0:0:0:
192,192,12336,1,0,0:0:0:0:
448,192,12364,1,0,0:0:0:0:
320,192,12391,1,0,0:0:0:0:
64,192,12418,1,0,0:0:0:0:
192,192,12445,1,0,0:0:0:0:
448,192,12472,1,0,0:0:0:0:
320,192,12499,1,0,0:0:0:0:
64,192,12527,1,0,0:0:0:0:
192,192,12554,1,0,0:0:0:0:
448,192,12581,1,0,0:0:0:0:
320,192,12608,1,0,0:0:0:0:
64,192,12635,1,0,0:0:0:0:
192,192,12663,1,0,0:0:0:0:
448,192,12690,1,0,0:0:0:0:
320,192,12717,1,0,0:0:0:0:
64,192,12744,1,0,0:0:0:0:
192,192,12771,1,0,0:0:0:0:
448,192,12798,1,0,0:0:0:0:
320,192,12826,1,0,0:0:0:0:
64,192,12853,1,0,0:0:0:0:
192,192,12880,1,0,0:0:0:0:
448,192,12907,1,0,0:0:0:0:
320,192,12934,1,0,0:0:0:0:
64,192,12961,1,0,0:0:0:0:
192,192,12989,1,0,0:0:0:0:
448,192,13016,1,0,0:0:0:0:
320,192,13043,1,0,0:0:0:0:
64,192,13070,1,0,0:0:0:0:
192,192,13097,1,0,0:0:0:0:
448,192,13124,1,0,0:0:0:0:
320,192,13152,1,0,0:0:0:0:
192,192,13179,1,0,0:0:0:0:
64,192,13206,1,0,0:0:0:0:
320,192,13233,1,0,0:0:0:0:
448,192,13260,1,0,0:0:0:0:
192,192,13288,1,0,0:0:0:0:
64,192,13315,1,0,0:0:0:0:
320,192,13369,1,0,0:0:0:0:
448,192,13369,1,0,0:0:0:0:
192,192,13396,1,0,0:0:0:0:
64,192,13423,1,0,0:0:0:0:
320,192,13451,1,0,0:0:0:0:
448,192,13505,1,0,0:0:0:0:
192,192,13505,1,0,0:0:0:0:
64,192,13532,1,0,0:0:0:0:
320,192,13559,1,0,0:0:0:0:
448,192,13586,1,0,0:0:0:0:
192,192,13614,1,0,0:0:0:0:
64,192,13668,1,0,0:0:0:0:
320,192,13668,1,0,0:0:0:0:
448,192,13695,1,0,0:0:0:0:
192,192,13722,1,0,0:0:0:0:
64,192,13749,1,0,0:0:0:0:
320,192,13804,1,0,0:0:0:0:
448,192,13831,1,0,0:0:0:0:
192,192,13831,1,0,0:0:0:0:
64,192,13858,1,0,0:0:0:0:
320,192,13885,1,0,0:0:0:0:
448,192,13940,1,0,0:0:0:0:
192,192,13967,1,0,0:0:0:0:
64,192,13994,1,0,0:0:0:0:
320,192,13994,1,0,0:0:0:0:
448,192,14021,1,0,0:0:0:0:
64,192,14076,1,0,0:0:0:0:
192,192,14103,1,0,0:0:0:0:
320,192,14130,1,0,0:0:0:0:
448,192,14130,1,0,0:0:0:0:
64,192,14157,1,0,0:0:0:0:
192,192,14211,1,0,0:0:0:0:
320,192,14239,1,0,0:0:0:0:
448,192,14266,1,0,0:0:0:0:
64,192,14293,1,0,0:0:0:0:
192,192,14293,1,0,0:0:0:0:
320,192,14347,1,0,0:0:0:0:
448,192,14374,1,0,0:0:0:0:
64,192,14402,1,0,0:0:0:0:
192,192,14429,1,0,0:0:0:0:
320,192,14456,1,0,0:0:0:0:
448,192,14456,1,0,0:0:0:0:
64,192,14510,1,0,0:0:0:0:
192,192,14538,1,0,0:0:0:0:
320,192,14565,1,0,0:0:0:0:
448,192,14592,1,0,0:0:0:0:
64,192,14619,1,0,0:0:0:0:
192,192,14646,1,0,0:0:0:0:
320,192,14673,1,0,0:0:0:0:
448,192,14701,1,0,0:0:0:0:
64,192,14728,1,0,0:0:0:0:
192,192,14755,1,0,0:0:0:0:
320,192,14782,1,0,0:0:0:0:
448,192,14809,1,0,0:0:0:0:
64,192,14836,1,0,0:0:0:0:
192,192,14864,1,0,0:0:0:0:
320,192,14891,1,0,0:0:0:0:
448,192,14918,1,0,0:0:0:0:
64,192,14945,1,0,0:0:0:0:
192,192,14972,1,0,0:0:0:0:
320,192,14999,1,0,0:0:0:0:
448,192,15027,1,0,0:0:0:0:
64,192,15054,1,0,0:0:0:0:
192,192,15081,1,0,0:0:0:0:
320,192,15108,1,0,0:0:0:0:
448,192,15135,1,0,0:0:0:0:
64,192,15163,1,0,0:0:0:0:
192,192,15190,1,0,0:0:0:0:
320,192,15217,1,0,0:0:0:0:
448,192,15244,1,0,0:0:0:0:
64,192,15271,1,0,0:0:0:0:
192,192,15298,1,0,0:0:0:0:
320,192,15326,1,0,0:0:0:0:
448,192,15353,1,0,0:0:0:0:
192,192,15380,1,0,0:0:0:0:
192,192,15597,1,0,0:0:0:0:
64,192,15815,1,0,0:0:0:0:
192,192,15842,1,0,0:0:0:0:
320,192,15869,1,0,0:0:0:0:
448,192,15896,1,0,0:0:0:0:
64,192,15923,1,0,0:0:0:0:
192,192,15951,1,0,0:0:0:0:
320,192,15978,1,0,0:0:0:0:
448,192,16005,1,0,0:0:0:0:
64,192,16032,1,0,0:0:0:0:
192,192,16059,1,0,0:0:0:0:
320,192,16086,1,0,0:0:0:0:
448,192,16114,1,0,0:0:0:0:
64,192,16141,1,0,0:0:0:0:
192,192,16168,1,0,0:0:0:0:
320,192,16195,1,0,0:0:0:0:
448,192,16222,1,0,0:0:0:0:
64,192,16249,1,0,0:0:0:0:
192,192,16277,1,0,0:0:0:0:
320,192,16304,1,0,0:0:0:0:
448,192,16331,1,0,0:0:0:0:
64,192,16358,1,0,0:0:0:0:
192,192,16385,1,0,0:0:0:0:
320,192,16413,1,0,0:0:0:0:
448,192,16440,1,0,0:0:0:0:
64,192,16467,1,0,0:0:0:0:
192,192,16494,1,0,0:0:0:0:
320,192,16521,1,0,0:0:0:0:
448,192,16548,1,0,0:0:0:0:
64,192,16576,1,0,0:0:0:0:
192,192,16603,1,0,0:0:0:0:
320,192,16630,1,0,0:0:0:0:
448,192,16657,1,0,0:0:0:0:
64,192,16684,1,0,0:0:0:0:
192,192,16711,1,0,0:0:0:0:
320,192,16739,1,0,0:0:0:0:
448,192,16766,1,0,0:0:0:0:
64,192,16793,1,0,0:0:0:0:
192,192,16820,1,0,0:0:0:0:
320,192,16847,1,0,0:0:0:0:
448,192,16874,1,0,0:0:0:0:
64,192,16902,1,0,0:0:0:0:
192,192,16929,1,0,0:0:0:0:
320,192,16956,1,0,0:0:0:0:
448,192,16983,1,0,0:0:0:0:
64,192,17010,1,0,0:0:0:0:
192,192,17038,1,0,0:0:0:0:
320,192,17065,1,0,0:0:0:0:
448,192,17092,1,0,0:0:0:0:
192,192,17119,1,0,0:0:0:0:
192,192,17336,1,0,0:0:0:0:
64,192,17554,1,0,0:0:0:0:
192,192,17581,1,0,0:0:0:0:
320,192,17608,1,0,0:0:0:0:
448,192,17635,1,0,0:0:0:0:
64,192,17663,1,0,0:0:0:0:
192,192,17690,1,0,0:0:0:0:
320,192,17717,1,0,0:0:0:0:
448,192,17744,1,0,0:0:0:0:
64,192,17771,1,0,0:0:0:0:
192,192,17798,1,0,0:0:0:0:
320,192,17826,1,0,0:0:0:0:
448,192,17853,1,0,0:0:0:0:
64,192,17880,1,0,0:0:0:0:
192,192,17907,1,0,0:0:0:0:
320,192,17934,1,0,0:0:0:0:
448,192,17961,1,0,0:0:0:0:
64,192,17989,1,0,0:0:0:0:
192,192,18016,1,0,0:0:0:0:
320,192,18043,1,0,0:0:0:0:
448,192,18070,1,0,0:0:0:0:
64,192,18097,1,0,0:0:0:0:
192,192,18124,1,0,0:0:0:0:
320,192,18152,1,0,0:0:0:0:
448,192,18179,1,0,0:0:0:0:
64,192,18206,1,0,0:0:0:0:
192,192,18233,1,0,0:0:0:0:
320,192,18260,1,0,0:0:0:0:
448,192,18288,1,0,0:0:0:0:
64,192,18315,1,0,0:0:0:0:
192,192,18342,1,0,0:0:0:0:
320,192,18369,1,0,0:0:0:0:
448,192,18396,1,0,0:0:0:0:
64,192,18423,1,0,0:0:0:0:
192,192,18451,1,0,0:0:0:0:
320,192,18478,1,0,0:0:0:0:
448,192,18505,1,0,0:0:0:0:
64,192,18532,1,0,0:0:0:0:
192,192,18559,1,0,0:0:0:0:
320,192,18586,1,0,0:0:0:0:
448,192,18614,1,0,0:0:0:0:
64,192,18641,1,0,0:0:0:0:
192,192,18668,1,0,0:0:0:0:
320,192,18695,1,0,0:0:0:0:
448,192,18722,1,0,0:0:0:0:
64,192,18749,1,0,0:0:0:0:
192,192,18777,1,0,0:0:0:0:
320,192,18804,1,0,0:0:0:0:
448,192,18831,1,0,0:0:0:0:
192,192,18858,1,0,0:0:0:0:
192,192,19076,1,0,0:0:0:0:
64,192,19293,1,0,0:0:0:0:
192,192,19320,1,0,0:0:0:0:
448,192,19347,1,0,0:0:0:0:
320,192,19374,1,0,0:0:0:0:
64,192,19402,1,0,0:0:0:0:
192,192,19429,1,0,0:0:0:0:
448,192,19456,1,0,0:0:0:0:
320,192,19483,1,0,0:0:0:0:
64,192,19510,1,0,0:0:0:0:
192,192,19538,1,0,0:0:0:0:
448,192,19565,1,0,0:0:0:0:
320,192,19592,1,0,0:0:0:0:
64,192,19619,1,0,0:0:0:0:
192,192,19646,1,0,0:0:0:0:
448,192,19673,1,0,0:0:0:0:
320,192,19701,1,0,0:0:0:0:
64,192,19728,1,0,0:0:0:0:
192,192,19755,1,0,0:0:0:0:
448,192,19782,1,0,0:0:0:0:
320,192,19809,1,0,0:0:0:0:
64,192,19836,1,0,0:0:0:0:
192,192,19864,1,0,0:0:0:0:
448,192,19891,1,0,0:0:0:0:
320,192,19918,1,0,0:0:0:0:
64,192,19945,1,0,0:0:0:0:
192,192,19972,1,0,0:0:0:0:
448,192,19999,1,0,0:0:0:0:
320,192,20027,1,0,0:0:0:0:
64,192,20054,1,0,0:0:0:0:
192,192,20081,1,0,0:0:0:0:
448,192,20108,1,0,0:0:0:0:
320,192,20135,1,0,0:0:0:0:
192,192,20163,1,0,0:0:0:0:
64,192,20190,1,0,0:0:0:0:
320,192,20217,1,0,0:0:0:0:
448,192,20244,1,0,0:0:0:0:
192,192,20271,1,0,0:0:0:0:
64,192,20298,1,0,0:0:0:0:
320,192,20326,1,0,0:0:0:0:
448,192,20353,1,0,0:0:0:0:
192,192,20380,1,0,0:0:0:0:
64,192,20407,1,0,0:0:0:0:
320,192,20434,1,0,0:0:0:0:
448,192,20461,1,0,0:0:0:0:
192,192,20489,1,0,0:0:0:0:
64,192,20516,1,0,0:0:0:0:
320,192,20543,1,0,0:0:0:0:
448,192,20570,1,0,0:0:0:0:
192,192,20597,1,0,0:0:0:0:
64,192,20624,1,0,0:0:0:0:
320,192,20652,1,0,0:0:0:0:
448,192,20679,1,0,0:0:0:0:
192,192,20706,1,0,0:0:0:0:
64,192,20733,1,0,0:0:0:0:
320,192,20760,1,0,0:0:0:0:
448,192,20788,1,0,0:0:0:0:
192,192,20815,1,0,0:0:0:0:
64,192,20842,1,0,0:0:0:0:
320,192,20869,1,0,0:0:0:0:
448,192,20896,1,0,0:0:0:0:
192,192,20923,1,0,0:0:0:0:
64,192,20951,1,0,0:0:0:0:
320,192,20978,1,0,0:0:0:0:
448,192,21005,1,0,0:0:0:0:
64,192,21032,1,0,0:0:0:0:
192,192,21059,1,0,0:0:0:0:
320,192,21086,1,0,0:0:0:0:
448,192,21114,1,0,0:0:0:0:
64,192,21141,1,0,0:0:0:0:
192,192,21168,1,0,0:0:0:0:
320,192,21195,1,0,0:0:0:0:
448,192,21222,1,0,0:0:0:0:
64,192,21249,1,0,0:0:0:0:
192,192,21277,1,0,0:0:0:0:
320,192,21304,1,0,0:0:0:0:
448,192,21331,1,0,0:0:0:0:
64,192,21358,1,0,0:0:0:0:
192,192,21385,1,0,0:0:0:0:
320,192,21413,1,0,0:0:0:0:
448,192,21440,1,0,0:0:0:0:
64,192,21467,1,0,0:0:0:0:
192,192,21494,1,0,0:0:0:0:
320,192,21521,1,0,0:0:0:0:
448,192,21548,1,0,0:0:0:0:
64,192,21576,1,0,0:0:0:0:
192,192,21603,1,0,0:0:0:0:
320,192,21630,1,0,0:0:0:0:
448,192,21657,1,0,0:0:0:0:
64,192,21684,1,0,0:0:0:0:
192,192,21711,1,0,0:0:0:0:
320,192,21739,1,0,0:0:0:0:
448,192,21766,1,0,0:0:0:0:
64,192,21793,1,0,0:0:0:0:
192,192,21820,1,0,0:0:0:0:
320,192,21847,1,0,0:0:0:0:
448,192,21874,1,0,0:0:0:0:
64,192,21902,1,0,0:0:0:0:
192,192,21929,1,0,0:0:0:0:
320,192,21956,1,0,0:0:0:0:
448,192,21983,1,0,0:0:0:0:
64,192,22010,1,0,0:0:0:0:
192,192,22038,1,0,0:0:0:0:
320,192,22065,1,0,0:0:0:0:
448,192,22092,1,0,0:0:0:0:
64,192,22119,1,0,0:0:0:0:
192,192,22146,1,0,0:0:0:0:
320,192,22173,1,0,0:0:0:0:
448,192,22201,1,0,0:0:0:0:
64,192,22228,1,0,0:0:0:0:
192,192,22255,1,0,0:0:0:0:
320,192,22282,1,0,0:0:0:0:
448,192,22309,1,0,0:0:0:0:
192,192,22336,1,0,0:0:0:0:
192,192,22554,1,0,0:0:0:0:
64,192,22771,1,0,0:0:0:0:
192,192,22798,1,0,0:0:0:0:
320,192,22826,1,0,0:0:0:0:
448,192,22853,1,0,0:0:0:0:
64,192,22880,1,0,0:0:0:0:
192,192,22907,1,0,0:0:0:0:
320,192,22934,1,0,0:0:0:0:
448,192,22961,1,0,0:0:0:0:
64,192,22989,1,0,0:0:0:0:
192,192,23016,1,0,0:0:0:0:
320,192,23043,1,0,0:0:0:0:
448,192,23070,1,0,0:0:0:0:
64,192,23097,1,0,0:0:0:0:
192,192,23124,1,0,0:0:0:0:
320,192,23152,1,0,0:0:0:0:
448,192,23179,1,0,0:0:0:0:
64,192,23206,1,0,0:0:0:0:
192,192,23233,1,0,0:0:0:0:
320,192,23260,1,0,0:0:0:0:
448,192,23288,1,0,0:0:0:0:
64,192,23315,1,0,0:0:0:0:
192,192,23342,1,0,0:0:0:0:
320,192,23369,1,0,0:0:0:0:
448,192,23396,1,0,0:0:0:0:
64,192,23423,1,0,0:0:0:0:
192,192,23451,1,0,0:0:0:0:
320,192,23478,1,0,0:0:0:0:
448,192,23505,1,0,0:0:0:0:
64,192,23532,1,0,0:0:0:0:
192,192,23559,1,0,0:0:0:0:
320,192,23586,1,0,0:0:0:0:
448,192,23614,1,0,0:0:0:0:
64,192,23641,1,0,0:0:0:0:
192,192,23668,1,0,0:0:0:0:
320,192,23695,1,0,0:0:0:0:
448,192,23722,1,0,0:0:0:0:
64,192,23749,1,0,0:0:0:0:
192,192,23777,1,0,0:0:0:0:
320,192,23804,1,0,0:0:0:0:
448,192,23831,1,0,0:0:0:0:
64,192,23858,1,0,0:0:0:0:
192,192,23885,1,0,0:0:0:0:
320,192,23913,1,0,0:0:0:0:
448,192,23940,1,0,0:0:0:0:
64,192,23967,1,0,0:0:0:0:
192,192,23994,1,0,0:0:0:0:
320,192,24021,1,0,0:0:0:0:
448,192,24048,1,0,0:0:0:0:
192,192,24076,1,0,0:0:0:0:
192,192,24293,1,0,0:0:0:0:
64,192,24510,1,0,0:0:0:0:
192,192,24538,1,0,0:0:0:0:
320,192,24565,1,0,0:0:0:0:
448,192,24592,1,0,0:0:0:0:
64,192,24619,1,0,0:0:0:0:
192,192,24646,1,0,0:0:0:0:
320,192,24673,1,0,0:0:0:0:
448,192,24701,1,0,0:0:0:0:
64,192,24728,1,0,0:0:0:0:
192,192,24755,1,0,0:0:0:0:
320,192,24782,1,0,0:0:0:0:
448,192,24809,1,0,0:0:0:0:
64,192,24836,1,0,0:0:0:0:
192,192,24864,1,0,0:0:0:0:
320,192,24891,1,0,0:0:0:0:
448,192,24918,1,0,0:0:0:0:
64,192,24945,1,0,0:0:0:0:
192,192,24972,1,0,0:0:0:0:
320,192,24999,1,0,0:0:0:0:
448,192,25027,1,0,0:0:0:0:
64,192,25054,1,0,0:0:0:0:
192,192,25081,1,0,0:0:0:0:
320,192,25108,1,0,0:0:0:0:
448,192,25135,1,0,0:0:0:0:
64,192,25163,1,0,0:0:0:0:
192,192,25190,1,0,0:0:0:0:
320,192,25217,1,0,0:0:0:0:
448,192,25244,1,0,0:0:0:0:
64,192,25271,1,0,0:0:0:0:
192,192,25298,1,0,0:0:0:0:
320,192,25326,1,0,0:0:0:0:
448,192,25353,1,0,0:0:0:0:
64,192,25380,1,0,0:0:0:0:
192,192,25407,1,0,0:0:0:0:
320,192,25434,1,0,0:0:0:0:
448,192,25461,1,0,0:0:0:0:
64,192,25489,1,0,0:0:0:0:
192,192,25516,1,0,0:0:0:0:
320,192,25543,1,0,0:0:0:0:
448,192,25570,1,0,0:0:0:0:
64,192,25597,1,0,0:0:0:0:
192,192,25624,1,0,0:0:0:0:
320,192,25652,1,0,0:0:0:0:
448,192,25679,1,0,0:0:0:0:
64,192,25706,1,0,0:0:0:0:
192,192,25733,1,0,0:0:0:0:
320,192,25760,1,0,0:0:0:0:
448,192,25788,1,0,0:0:0:0:
192,192,25815,1,0,0:0:0:0:
192,192,26032,1,0,0:0:0:0:
64,192,26249,1,0,0:0:0:0:
192,192,26277,1,0,0:0:0:0:
448,192,26304,1,0,0:0:0:0:
320,192,26331,1,0,0:0:0:0:
64,192,26358,1,0,0:0:0:0:
192,192,26385,1,0,0:0:0:0:
448,192,26413,1,0,0:0:0:0:
320,192,26440,1,0,0:0:0:0:
64,192,26467,1,0,0:0:0:0:
192,192,26494,1,0,0:0:0:0:
448,192,26521,1,0,0:0:0:0:
320,192,26548,1,0,0:0:0:0:
64,192,26576,1,0,0:0:0:0:
192,192,26603,1,0,0:0:0:0:
448,192,26630,1,0,0:0:0:0:
320,192,26657,1,0,0:0:0:0:
64,192,26684,1,0,0:0:0:0:
192,192,26711,1,0,0:0:0:0:
448,192,26739,1,0,0:0:0:0:
320,192,26766,1,0,0:0:0:0:
64,192,26793,1,0,0:0:0:0:
192,192,26820,1,0,0:0:0:0:
448,192,26847,1,0,0:0:0:0:
320,192,26874,1,0,0:0:0:0:
64,192,26902,1,0,0:0:0:0:
192,192,26929,1,0,0:0:0:0:
448,192,26956,1,0,0:0:0:0:
320,192,26983,1,0,0:0:0:0:
64,192,27010,1,0,0:0:0:0:
192,192,27038,1,0,0:0:0:0:
448,192,27065,1,0,0:0:0:0:
320,192,27092,1,0,0:0:0:0:
192,192,27119,1,0,0:0:0:0:
64,192,27146,1,0,0:0:0:0:
320,192,27173,1,0,0:0:0:0:
448,192,27201,1,0,0:0:0:0:
192,192,27228,1,0,0:0:0:0:
64,192,27255,1,0,0:0:0:0:
320,192,27282,1,0,0:0:0:0:
448,192,27309,1,0,0:0:0:0:
192,192,27336,1,0,0:0:0:0:
64,192,27364,1,0,0:0:0:0:
320,192,27391,1,0,0:0:0:0:
448,192,27418,1,0,0:0:0:0:
192,192,27445,1,0,0:0:0:0:
64,192,27472,1,0,0:0:0:0:
320,192,27499,1,0,0:0:0:0:
448,192,27527,1,0,0:0:0:0:
192,192,27554,1,0,0:0:0:0:
64,192,27581,1,0,0:0:0:0:
320,192,27608,1,0,0:0:0:0:
448,192,27635,1,0,0:0:0:0:
192,192,27663,1,0,0:0:0:0:
64,192,27690,1,0,0:0:0:0:
320,192,27717,1,0,0:0:0:0:
448,192,27744,1,0,0:0:0:0:
192,192,27771,1,0,0:0:0:0:
64,192,27798,1,0,0:0:0:0:
320,192,27826,1,0,0:0:0:0:
448,192,27853,1,0,0:0:0:0:
192,192,27880,1,0,0:0:0:0:
64,192,27907,1,0,0:0:0:0:
320,192,27934,1,0,0:0:0:0:
448,192,27961,1,0,0:0:0:0:
64,192,27989,1,0,0:0:0:0:
192,192,28016,1,0,0:0:0:0:
320,192,28043,1,0,0:0:0:0:
448,192,28070,1,0,0:0:0:0:
64,192,28097,1,0,0:0:0:0:
192,192,28124,1,0,0:0:0:0:
320,192,28152,1,0,0:0:0:0:
448,192,28179,1,0,0:0:0:0:
64,192,28206,1,0,0:0:0:0:
192,192,28233,1,0,0:0:0:0:
320,192,28260,1,0,0:0:0:0:
448,192,28288,1,0,0:0:0:0:
64,192,28315,1,0,0:0:0:0:
192,192,28342,1,0,0:0:0:0:
320,192,28369,1,0,0:0:0:0:
448,192,28396,1,0,0:0:0:0:
64,192,28423,1,0,0:0:0:0:
192,192,28451,1,0,0:0:0:0:
320,192,28478,1,0,0:0:0:0:
448,192,28505,1,0,0:0:0:0:
64,192,28532,1,0,0:0:0:0:
192,192,28559,1,0,0:0:0:0:
320,192,28586,1,0,0:0:0:0:
448,192,28614,1,0,0:0:0:0:
64,192,28641,1,0,0:0:0:0:
192,192,28668,1,0,0:0:0:0:
320,192,28695,1,0,0:0:0:0:
448,192,28722,1,0,0:0:0:0:
64,192,28749,1,0,0:0:0:0:
192,192,28777,1,0,0:0:0:0:
320,192,28804,1,0,0:0:0:0:
448,192,28831,1,0,0:0:0:0:
64,192,28858,1,0,0:0:0:0:
192,192,28885,1,0,0:0:0:0:
320,192,28913,1,0,0:0:0:0:
448,192,28940,1,0,0:0:0:0:
64,192,28967,1,0,0:0:0:0:
192,192,28994,1,0,0:0:0:0:
320,192,29021,1,0,0:0:0:0:
448,192,29048,1,0,0:0:0:0:
64,192,29076,1,0,0:0:0:0:
192,192,29103,1,0,0:0:0:0:
320,192,29130,1,0,0:0:0:0:
448,192,29157,1,0,0:0:0:0:
64,192,29184,1,0,0:0:0:0:
192,192,29211,1,0,0:0:0:0:
320,192,29239,1,0,0:0:0:0:
448,192,29266,1,0,0:0:0:0:
192,192,29293,1,0,0:0:0:0:
192,192,29510,1,0,0:0:0:0:
64,192,29728,1,0,0:0:0:0:
192,192,29755,1,0,0:0:0:0:
320,192,29782,1,0,0:0:0:0:
448,192,29809,1,0,0:0:0:0:
64,192,29836,1,0,0:0:0:0:
192,192,29864,1,0,0:0:0:0:
320,192,29891,1,0,0:0:0:0:
448,192,29918,1,0,0:0:0:0:
64,192,29945,1,0,0:0:0:0:
192,192,29972,1,0,0:0:0:0:
320,192,29999,1,0,0:0:0:0:
448,192,30027,1,0,0:0:0:0:
64,192,30054,1,0,0:0:0:0:
192,192,30081,1,0,0:0:0:0:
320,192,30108,1,0,0:0:0:0:
448,192,30135,1,0,0:0:0:0:
64,192,30163,1,0,0:0:0:0:
192,192,30190,1,0,0:0:0:0:
320,192,30217,1,0,0:0:0:0:
448,192,30244,1,0,0:0:0:0:
64,192,30271,1,0,0:0:0:0:
192,192,30298,1,0,0:0:0:0:
320,192,30326,1,0,0:0:0:0:
448,192,30353,1,0,0:0:0:0:
64,192,30380,1,0,0:0:0:0:
192,192,30407,1,0,0:0:0:0:
320,192,30434,1,0,0:0:0:0:
448,192,30461,1,0,0:0:0:0:
64,192,30489,1,0,0:0:0:0:
192,192,30516,1,0,0:0:0:0:
320,192,30543,1,0,0:0:0:0:
448,192,30570,1,0,0:0:0:0:
64,192,30597,1,0,0:0:0:0:
192,192,30624,1,0,0:0:0:0:
320,192,30652,1,0,0:0:0:0:
448,192,30679,1,0,0:0:0:0:
64,192,30706,1,0,0:0:0:0:
192,192,30733,1,0,0:0:0:0:
320,192,30760,1,0,0:0:0:0:
448,192,30788,1,0,0:0:0:0:
64,192,30815,1,0,0:0:0:0:
192,192,30842,1,0,0:0:0:0:
320,192,30869,1,0,0:0:0:0:
448,192,30896,1,0,0:0:0:0:
64,192,30923,1,0,0:0:0:0:
192,192,30951,1,0,0:0:0:0:
320,192,30978,1,0,0:0:0:0:
448,192,31005,1,0,0:0:0:0:
192,192,31032,1,0,0:0:0:0:
192,192,31249,1,0,0:0:0:0:
64,192,31467,1,0,0:0:0:0:
192,192,31494,1,0,0:0:0:0:
320,192,31521,1,0,0:0:0:0:
448,192,31548,1,0,0:0:0:0:
64,192,31576,1,0,0:0:0:0:
192,192,31603,1,0,0:0:0:0:
320,192,31630,1,0,0:0:0:0:
448,192,31657,1,0,0:0:0:0:
64,192,31684,1,0,0:0:0:0:
192,192,31711,1,0,0:0:0:0:
320,192,31739,1,0,0:0:0:0:
448,192,31766,1,0,0:0:0:0:
64,192,31793,1,0,0:0:0:0:
192,192,31820,1,0,0:0:0:0:
320,192,31847,1,0,0:0:0:0:
448,192,31874,1,0,0:0:0:0:
64,192,31902,1,0,0:0:0:0:
192,192,31929,1,0,0:0:0:0:
320,192,31956,1,0,0:0:0:0:
448,192,31983,1,0,0:0:0:0:
64,192,32010,1,0,0:0:0:0:
192,192,32038,1,0,0:0:0:0:
320,192,32065,1,0,0:0:0:0:
448,192,32092,1,0,0:0:0:0:
64,192,32119,1,0,0:0:0:0:
192,192,32146,1,0,0:0:0:0:
320,192,32173,1,0,0:0:0:0:
448,192,32201,1,0,0:0:0:0:
64,192,32228,1,0,0:0:0:0:
192,192,32255,1,0,0:0:0:0:
320,192,32282,1,0,0:0:0:0:
448,192,32309,1,0,0:0:0:0:
64,192,32336,1,0,0:0:0:0:
192,192,32364,1,0,0:0:0:0:
320,192,32391,1,0,0:0:0:0:
448,192,32418,1,0,0:0:0:0:
64,192,32445,1,0,0:0:0:0:
192,192,32472,1,0,0:0:0:0:
320,192,32499,1,0,0:0:0:0:
448,192,32527,1,0,0:0:0:0:
64,192,32554,1,0,0:0:0:0:
192,192,32581,1,0,0:0:0:0:
320,192,32608,1,0,0:0:0:0:
448,192,32635,1,0,0:0:0:0:
64,192,32663,1,0,0:0:0:0:
192,192,32690,1,0,0:0:0:0:
320,192,32717,1,0,0:0:0:0:
448,192,32744,1,0,0:0:0:0:
192,192,32771,1,0,0:0:0:0:
192,192,32989,1,0,0:0:0:0:
64,192,33206,1,0,0:0:0:0:
192,192,33233,1,0,0:0:0:0:
448,192,33260,1,0,0:0:0:0:
320,192,33288,1,0,0:0:0:0:
64,192,33315,1,0,0:0:0:0:
192,192,33342,1,0,0:0:0:0:
448,192,33369,1,0,0:0:0:0:
320,192,33396,1,0,0:0:0:0:
64,192,33423,1,0,0:0:0:0:
192,192,33451,1,0,0:0:0:0:
448,192,33478,1,0,0:0:0:0:
320,192,33505,1,0,0:0:0:0:
64,192,33532,1,0,0:0:0:0:
192,192,33559,1,0,0:0:0:0:
448,192,33586,1,0,0:0:0:0:
320,192,33614,1,0,0:0:0:0:
64,192,33641,1,0,0:0:0:0:
192,192,33668,1,0,0:0:0:0:
448,192,33695,1,0,0:0:0:0:
320,192,33722,1,0,0:0:0:0:
64,192,33749,1,0,0:0:0:0:
192,192,33777,1,0,0:0:0:0:
448,192,33804,1,0,0:0:0:0:
320,192,33831,1,0,0:0:0:0:
64,192,33858,1,0,0:0:0:0:
192,192,33885,1,0,0:0:0:0:
448,192,33913,1,0,0:0:0:0:
320,192,33940,1,0,0:0:0:0:
64,192,33967,1,0,0:0:0:0:
192,192,33994,1,0,0:0:0:0:
448,192,34021,1,0,0:0:0:0:
320,192,34048,1,0,0:0:0:0:
192,192,34076,1,0,0:0:0:0:
64,192,34103,1,0,0:0:0:0:
320,192,34130,1,0,0:0:0:0:
448,192,34157,1,0,0:0:0:0:
192,192,34184,1,0,0:0:0:0:
64,192,34211,1,0,0:0:0:0:
320,192,34239,1,0,0:0:0:0:
448,192,34266,1,0,0:0:0:0:
192,192,34293,1,0,0:0:0:0:
64,192,34320,1,0,0:0:0:0:
320,192,34347,1,0,0:0:0:0:
448,192,34374,1,0,0:0:0:0:
192,192,34402,1,0,0:0:0:0:
64,192,34429,1,0,0:0:0:0:
320,192,34456,1,0,0:0:0:0:
448,192,34483,1,0,0:0:0:0:
192,192,34510,1,0,0:0:0:0:
64,192,34538,1,0,0:0:0:0:
320,192,34565,1,0,0:0:0:0:
448,192,34592,1,0,0:0:0:0:
192,192,34619,1,0,0:0:0:0:
64,192,34646,1,0,0:0:0:0:
320,192,34673,1,0,0:0:0:0:
448,192,34701,1,0,0:0:0:0:
192,192,34728,1,0,0:0:0:0:
64,192,34755,1,0,0:0:0:0:
320,192,34782,1,0,0:0:0:0:
448,192,34809,1,0,0:0:0:0:
192,192,34836,1,0,0:0:0:0:
64,192,34864,1,0,0:0:0:0:
320,192,34891,1,0,0:0:0:0:
448,192,34918,1,0,0:0:0:0:
64,192,34945,1,0,0:0:0:0:
192,192,34972,1,0,0:0:0:0:
320,192,34999,1,0,0:0:0:0:
448,192,35027,1,0,0:0:0:0:
64,192,35054,1,0,0:0:0:0:
192,192,35081,1,0,0:0:0:0:
320,192,35108,1,0,0:0:0:0:
448,192,35135,1,0,0:0:0:0:
64,192,35163,1,0,0:0:0:0:
192,192,35190,1,0,0:0:0:0:
320,192,35217,1,0,0:0:0:0:
448,192,35244,1,0,0:0:0:0:
64,192,35271,1,0,0:0:0:0:
192,192,35298,1,0,0:0:0:0:
320,192,35326,1,0,0:0:0:0:
448,192,35353,1,0,0:0:0:0:
64,192,35380,1,0,0:0:0:0:
192,192,35407,1,0,0:0:0:0:
320,192,35434,1,0,0:0:0:0:
448,192,35461,1,0,0:0:0:0:
64,192,35489,1,0,0:0:0:0:
192,192,35516,1,0,0:0:0:0:
320,192,35543,1,0,0:0:0:0:
448,192,35570,1,0,0:0:0:0:
64,192,35597,1,0,0:0:0:0:
192,192,35624,1,0,0:0:0:0:
320,192,35652,1,0,0:0:0:0:
448,192,35679,1,0,0:0:0:0:
64,192,35706,1,0,0:0:0:0:
192,192,35733,1,0,0:0:0:0:
320,192,35760,1,0,0:0:0:0:
448,192,35788,1,0,0:0:0:0:
64,192,35815,1,0,0:0:0:0:
192,192,35842,1,0,0:0:0:0:
320,192,35869,1,0,0:0:0:0:
448,192,35896,1,0,0:0:0:0:
64,192,35923,1,0,0:0:0:0:
192,192,35951,1,0,0:0:0:0:
320,192,35978,1,0,0:0:0:0:
448,192,36005,1,0,0:0:0:0:
64,192,36032,1,0,0:0:0:0:
192,192,36059,1,0,0:0:0:0:
320,192,36086,1,0,0:0:0:0:
448,192,36114,1,0,0:0:0:0:
64,192,36141,1,0,0:0:0:0:
192,192,36168,1,0,0:0:0:0:
320,192,36195,1,0,0:0:0:0:
448,192,36222,1,0,0:0:0:0:
192,192,36249,1,0,0:0:0:0:
192,192,36467,1,0,0:0:0:0:
64,192,36684,1,0,0:0:0:0:
192,192,36711,1,0,0:0:0:0:
320,192,36739,1,0,0:0:0:0:
448,192,36766,1,0,0:0:0:0:
64,192,36793,1,0,0:0:0:0:
192,192,36820,1,0,0:0:0:0:
320,192,36847,1,0,0:0:0:0:
448,192,36874,1,0,0:0:0:0:
64,192,36902,1,0,0:0:0:0:
192,192,36929,1,0,0:0:0:0:
320,192,36956,1,0,0:0:0:0:
448,192,36983,1,0,0:0:0:0:
64,192,37010,1,0,0:0:0:0:
192,192,37038,1,0,0:0:0:0:
320,192,37065,1,0,0:0:0:0:
448,192,37092,1,0,0:0:0:0:
64,192,37119,1,0,0:0:0:0:
192,192,37146,1,0,0:0:0:0:
320,192,37173,1,0,0:0:0:0:
448,192,37201,1,0,0:0:0:0:
64,192,37228,1,0,0:0:0:0:
192,192,37255,1,0,0:0:0:0:
320,192,37282,1,0,0:0:0:0:
448,192,37309,1,0,0:0:0:0:
64,192,37336,1,0,0:0:0:0:
192,192,37364,1,0,0:0:0:0:
320,192,37391,1,0,0:0:0:0:
448,192,37418,1,0,0:0:0:0:
64,192,37445,1,0,0:0:0:0:
192,192,37472,1,0,0:0:0:0:
320,192,37499,1,0,0:0:0:0:
448,192,37527,1,0,0:0:0:0:
64,192,37554,1,0,0:0:0:0:
192,192,37581,1,0,0:0:0:0:
320,192,37608,1,0,0:0:0:0:
448,192,37635,1,0,0:0:0:0:
64,192,37663,1,0,0:0:0:0:
192,192,37690,1,0,0:0:0:0:
320,192,37717,1,0,0:0:0:0:
448,192,37744,1,0,0:0:0:0:
64,192,37771,1,0,0:0:0:0:
192,192,37798,1,0,0:0:0:0:
320,192,37826,1,0,0:0:0:0:
448,192,37853,1,0,0:0:0:0:
64,192,37880,1,0,0:0:0:0:
192,192,37907,1,0,0:0:0:0:
320,192,37934,1,0,0:0:0:0:
448,192,37961,1,0,0:0:0:0:
192,192,37989,1,0,0:0:0:0:
192,192,38206,1,0,0:0:0:0:
64,192,38423,1,0,0:0:0:0:
192,192,38451,1,0,0:0:0:0:
320,192,38478,1,0,0:0:0:0:
448,192,38505,1,0,0:0:0:0:
64,192,38532,1,0,0:0:0:0:
192,192,38559,1,0,0:0:0:0:
320,192,38586,1,0,0:0:0:0:
448,192,38614,1,0,0:0:0:0:
64,192,38641,1,0,0:0:0:0:
192,192,38668,1,0,0:0:0:0:
320,192,38695,1,0,0:0:0:0:
448,192,38722,1,0,0:0:0:0:
64,192,38749,1,0,0:0:0:0:
192,192,38777,1,0,0:0:0:0:
320,192,38804,1,0,0:0:0:0:
448,192,38831,1,0,0:0:0:0:
64,192,38858,1,0,0:0:0:0:
192,192,38885,1,0,0:0:0:0:
320,192,38913,1,0,0:0:0:0:
448,192,38940,1,0,0:0:0:0:
64,192,38967,1,0,0:0:0:0:
192,192,38994,1,0,0:0:0:0:
320,192,39021,1,0,0:0:0:0:
448,192,39048,1,0,0:0:0:0:
64,192,39076,1,0,0:0:0:0:
192,192,39103,1,0,0:0:0:0:
320,192,39130,1,0,0:0:0:0:
448,192,39157,1,0,0:0:0:0:
64,192,39184,1,0,0:0:0:0:
192,192,39211,1,0,0:0:0:0:
320,192,39239,1,0,0:0:0:0:
448,192,39266,1,0,0:0:0:0:
64,192,39293,1,0,0:0:0:0:
192,192,39320,1,0,0:0:0:0:
320,192,39347,1,0,0:0:0:0:
448,192,39374,1,0,0:0:0:0:
64,192,39402,1,0,0:0:0:0:
192,192,39429,1,0,0:0:0:0:
320,192,39456,1,0,0:0:0:0:
448,192,39483,1,0,0:0:0:0:
64,192,39510,1,0,0:0:0:0:
192,192,39538,1,0,0:0:0:0:
320,192,39565,1,0,0:0:0:0:
448,192,39592,1,0,0:0:0:0:
64,192,39619,1,0,0:0:0:0:
192,192,39646,1,0,0:0:0:0:
320,192,39673,1,0,0:0:0:0:
448,192,39701,1,0,0:0:0:0:
192,192,39728,1,0,0:0:0:0:
192,192,39945,1,0,0:0:0:0:
64,192,40163,1,0,0:0:0:0:
192,192,40190,1,0,0:0:0:0:
448,192,40217,1,0,0:0:0:0:
320,192,40244,1,0,0:0:0:0:
64,192,40271,1,0,0:0:0:0:
192,192,40298,1,0,0:0:0:0:
448,192,40326,1,0,0:0:0:0:
320,192,40353,1,0,0:0:0:0:
64,192,40380,1,0,0:0:0:0:
192,192,40407,1,0,0:0:0:0:
448,192,40434,1,0,0:0:0:0:
320,192,40461,1,0,0:0:0:0:
64,192,40489,1,0,0:0:0:0:
192,192,40516,1,0,0:0:0:0:
448,192,40543,1,0,0:0:0:0:
320,192,40570,1,0,0:0:0:0:
64,192,40597,1,0,0:0:0:0:
192,192,40624,1,0,0:0:0:0:
448,192,40652,1,0,0:0:0:0:
320,192,40679,1,0,0:0:0:0:
64,192,40706,1,0,0:0:0:0:
192,192,40733,1,0,0:0:0:0:
448,192,40760,1,0,0:0:0:0:
320,192,40788,1,0,0:0:0:0:
64,192,40815,1,0,0:0:0:0:
192,192,40842,1,0,0:0:0:0:
448,192,40869,1,0,0:0:0:0:
320,192,40896,1,0,0:0:0:0:
64,192,40923,1,0,0:0:0:0:
192,192,40951,1,0,0:0:0:0:
448,192,40978,1,0,0:0:0:0:
320,192,41005,1,0,0:0:0:0:
64,192,41032,1,0,0:0:0:0:
192,192,41032,1,0,0:0:0:0:
320,192,41249,1,0,0:0:0:0:
448,192,41249,1,0,0:0:0:0:
64,192,41467,1,0,0:0:0:0:
192,192,41467,1,0,0:0:0:0:
320,0,41684,128,0,41793:1:0:0:0:
64,192,41902,1,0,0:0:0:0:
192,192,41929,1,0,0:0:0:0:
320,192,41956,1,0,0:0:0:0:
448,192,41983,1,0,0:0:0:0:
64,192,42010,1,0,0:0:0:0:
192,192,42038,1,0,0:0:0:0:
320,192,42065,1,0,0:0:0:0:
448,192,42092,1,0,0:0:0:0:
64,192,42119,1,0,0:0:0:0:
192,192,42146,1,0,0:0:0:0:
320,192,42173,1,0,0:0:0:0:
448,192,42201,1,0,0:0:0:0:
64,192,42228,1,0,0:0:0:0:
192,192,42255,1,0,0:0:0:0:
320,192,42282,1,0,0:0:0:0:
448,192,42309,1,0,0:0:0:0:
64,192,42336,1,0,0:0:0:0:
192,192,42364,1,0,0:0:0:0:
320,192,42391,1,0,0:0:0:0:
448,192,42418,1,0,0:0:0:0:
64,192,42445,1,0,0:0:0:0:
192,192,42472,1,0,0:0:0:0:
320,192,42499,1,0,0:0:0:0:
448,192,42527,1,0,0:0:0:0:
64,192,42554,1,0,0:0:0:0:
192,192,42581,1,0,0:0:0:0:
320,192,42608,1,0,0:0:0:0:
448,192,42635,1,0,0:0:0:0:
64,192,42663,1,0,0:0:0:0:
192,192,42690,1,0,0:0:0:0:
320,192,42717,1,0,0:0:0:0:
448,192,42744,1,0,0:0:0:0:
64,192,42771,1,0,0:0:0:0:
192,192,42798,1,0,0:0:0:0:
320,192,42826,1,0,0:0:0:0:
448,192,42853,1,0,0:0:0:0:
64,192,42880,1,0,0:0:0:0:
192,192,42907,1,0,0:0:0:0:
320,192,42934,1,0,0:0:0:0:
448,192,42961,1,0,0:0:0:0:
64,192,42989,1,0,0:0:0:0:
192,192,43016,1,0,0:0:0:0:
320,192,43043,1,0,0:0:0:0:
448,192,43070,1,0,0:0:0:0:
64,192,43097,1,0,0:0:0:0:
192,192,43124,1,0,0:0:0:0:
320,192,43152,1,0,0:0:0:0:
448,192,43179,1,0,0:0:0:0:
192,192,43206,1,0,0:0:0:0:
192,192,43423,1,0,0:0:0:0:
64,192,43641,1,0,0:0:0:0:
192,192,43668,1,0,0:0:0:0:
320,192,43695,1,0,0:0:0:0:
448,192,43722,1,0,0:0:0:0:
64,192,43749,1,0,0:0:0:0:
192,192,43777,1,0,0:0:0:0:
320,192,43804,1,0,0:0:0:0:
448,192,43831,1,0,0:0:0:0:
64,192,43858,1,0,0:0:0:0:
192,192,43885,1,0,0:0:0:0:
320,192,43913,1,0,0:0:0:0:
448,192,43940,1,0,0:0:0:0:
64,192,43967,1,0,0:0:0:0:
192,192,43994,1,0,0:0:0:0:
320,192,44021,1,0,0:0:0:0:
448,192,44048,1,0,0:0:0:0:
64,192,44076,1,0,0:0:0:0:
192,192,44103,1,0,0:0:0:0:
320,192,44130,1,0,0:0:0:0:
448,192,44157,1,0,0:0:0:0:
64,192,44184,1,0,0:0:0:0:
192,192,44211,1,0,0:0:0:0:
320,192,44239,1,0,0:0:0:0:
448,192,44266,1,0,0:0:0:0:
64,192,44293,1,0,0:0:0:0:
192,192,44320,1,0,0:0:0:0:
320,192,44347,1,0,0:0:0:0:
448,192,44374,1,0,0:0:0:0:
64,192,44402,1,0,0:0:0:0:
192,192,44429,1,0,0:0:0:0:
320,192,44456,1,0,0:0:0:0:
448,192,44483,1,0,0:0:0:0:
64,192,44510,1,0,0:0:0:0:
192,192,44538,1,0,0:0:0:0:
320,192,44565,1,0,0:0:0:0:
448,192,44592,1,0,0:0:0:0:
64,192,44619,1,0,0:0:0:0:
192,192,44646,1,0,0:0:0:0:
320,192,44673,1,0,0:0:0:0:
448,192,44701,1,0,0:0:0:0:
64,192,44728,1,0,0:0:0:0:
192,192,44755,1,0,0:0:0:0:
320,192,44782,1,0,0:0:0:0:
448,192,44809,1,0,0:0:0:0:
64,192,44836,1,0,0:0:0:0:
192,192,44864,1,0,0:0:0:0:
320,192,44891,1,0,0:0:0:0:
448,192,44918,1,0,0:0:0:0:
192,192,44945,1,0,0:0:0:0:
320,192,45163,1,0,0:0:0:0:
64,192,45380,1,0,0:0:0:0:
192,192,45407,1,0,0:0:0:0:
320,192,45434,1,0,0:0:0:0:
448,192,45461,1,0,0:0:0:0:
64,192,45489,1,0,0:0:0:0:
192,192,45516,1,0,0:0:0:0:
320,192,45543,1,0,0:0:0:0:
448,192,45570,1,0,0:0:0:0:
64,192,45597,1,0,0:0:0:0:
192,192,45624,1,0,0:0:0:0:
320,192,45652,1,0,0:0:0:0:
448,192,45679,1,0,0:0:0:0:
64,192,45706,1,0,0:0:0:0:
192,192,45733,1,0,0:0:0:0:
320,192,45760,1,0,0:0:0:0:
448,192,45788,1,0,0:0:0:0:
64,192,45815,1,0,0:0:0:0:
192,192,45842,1,0,0:0:0:0:
320,192,45869,1,0,0:0:0:0:
448,192,45896,1,0,0:0:0:0:
64,192,45923,1,0,0:0:0:0:
192,192,45951,1,0,0:0:0:0:
320,192,45978,1,0,0:0:0:0:
448,192,46005,1,0,0:0:0:0:
64,192,46032,1,0,0:0:0:0:
192,192,46059,1,0,0:0:0:0:
320,192,46086,1,0,0:0:0:0:
448,192,46114,1,0,0:0:0:0:
64,192,46141,1,0,0:0:0:0:
192,192,46168,1,0,0:0:0:0:
320,192,46195,1,0,0:0:0:0:
448,192,46222,1,0,0:0:0:0:
64,192,46249,1,0,0:0:0:0:
192,192,46277,1,0,0:0:0:0:
320,192,46304,1,0,0:0:0:0:
448,192,46331,1,0,0:0:0:0:
64,192,46358,1,0,0:0:0:0:
192,192,46385,1,0,0:0:0:0:
320,192,46413,1,0,0:0:0:0:
448,192,46440,1,0,0:0:0:0:
64,192,46467,1,0,0:0:0:0:
192,192,46494,1,0,0:0:0:0:
320,192,46521,1,0,0:0:0:0:
448,192,46548,1,0,0:0:0:0:
64,192,46576,1,0,0:0:0:0:
192,192,46603,1,0,0:0:0:0:
320,192,46630,1,0,0:0:0:0:
448,192,46657,1,0,0:0:0:0:
320,192,46684,1,0,0:0:0:0:
320,192,46902,1,0,0:0:0:0:
64,192,47119,1,0,0:0:0:0:
192,192,47146,1,0,0:0:0:0:
448,192,47173,1,0,0:0:0:0:
320,192,47201,1,0,0:0:0:0:
64,192,47228,1,0,0:0:0:0:
192,192,47255,1,0,0:0:0:0:
448,192,47282,1,0,0:0:0:0:
320,192,47309,1,0,0:0:0:0:
64,192,47336,1,0,0:0:0:0:
192,192,47364,1,0,0:0:0:0:
448,192,47391,1,0,0:0:0:0:
320,192,47418,1,0,0:0:0:0:
64,192,47445,1,0,0:0:0:0:
192,192,47472,1,0,0:0:0:0:
448,192,47499,1,0,0:0:0:0:
320,192,47527,1,0,0:0:0:0:
64,192,47554,1,0,0:0:0:0:
192,192,47581,1,0,0:0:0:0:
448,192,47608,1,0,0:0:0:0:
320,192,47635,1,0,0:0:0:0:
64,192,47663,1,0,0:0:0:0:
192,192,47690,1,0,0:0:0:0:
448,192,47717,1,0,0:0:0:0:
320,192,47744,1,0,0:0:0:0:
64,192,47771,1,0,0:0:0:0:
192,192,47798,1,0,0:0:0:0:
448,192,47826,1,0,0:0:0:0:
320,192,47853,1,0,0:0:0:0:
64,192,47880,1,0,0:0:0:0:
192,192,47907,1,0,0:0:0:0:
448,192,47934,1,0,0:0:0:0:
320,192,47961,1,0,0:0:0:0:
192,192,47989,1,0,0:0:0:0:
64,192,48016,1,0,0:0:0:0:
320,192,48043,1,0,0:0:0:0:
448,192,48070,1,0,0:0:0:0:
192,192,48097,1,0,0:0:0:0:
64,192,48124,1,0,0:0:0:0:
320,192,48152,1,0,0:0:0:0:
448,192,48179,1,0,0:0:0:0:
192,192,48206,1,0,0:0:0:0:
64,192,48233,1,0,0:0:0:0:
320,192,48260,1,0,0:0:0:0:
448,192,48288,1,0,0:0:0:0:
192,192,48315,1,0,0:0:0:0:
64,192,48342,1,0,0:0:0:0:
320,192,48369,1,0,0:0:0:0:
448,192,48396,1,0,0:0:0:0:
192,192,48423,1,0,0:0:0:0:
64,192,48451,1,0,0:0:0:0:
320,192,48478,1,0,0:0:0:0:
448,192,48505,1,0,0:0:0:0:
192,192,48532,1,0,0:0:0:0:
64,192,48559,1,0,0:0:0:0:
320,192,48586,1,0,0:0:0:0:
448,192,48614,1,0,0:0:0:0:
192,192,48641,1,0,0:0:0:0:
64,192,48668,1,0,0:0:0:0:
320,192,48695,1,0,0:0:0:0:
448,192,48722,1,0,0:0:0:0:
192,192,48749,1,0,0:0:0:0:
64,192,48777,1,0,0:0:0:0:
320,192,48804,1,0,0:0:0:0:
448,192,48831,1,0,0:0:0:0:
64,192,48858,1,0,0:0:0:0:
192,192,48885,1,0,0:0:0:0:
320,192,48913,1,0,0:0:0:0:
448,192,48940,1,0,0:0:0:0:
64,192,48967,1,0,0:0:0:0:
192,192,48994,1,0,0:0:0:0:
320,192,49021,1,0,0:0:0:0:
448,192,49048,1,0,0:0:0:0:
64,192,49076,1,0,0:0:0:0:
192,192,49103,1,0,0:0:0:0:
320,192,49130,1,0,0:0:0:0:
448,192,49157,1,0,0:0:0:0:
64,192,49184,1,0,0:0:0:0:
192,192,49211,1,0,0:0:0:0:
320,192,49239,1,0,0:0:0:0:
448,192,49266,1,0,0:0:0:0:
64,192,49293,1,0,0:0:0:0:
192,192,49320,1,0,0:0:0:0:
320,192,49347,1,0,0:0:0:0:
448,192,49374,1,0,0:0:0:0:
64,192,49402,1,0,0:0:0:0:
192,192,49429,1,0,0:0:0:0:
320,192,49456,1,0,0:0:0:0:
448,192,49483,1,0,0:0:0:0:
64,192,49510,1,0,0:0:0:0:
192,192,49538,1,0,0:0:0:0:
320,192,49565,1,0,0:0:0:0:
448,192,49592,1,0,0:0:0:0:
64,192,49619,1,0,0:0:0:0:
192,192,49646,1,0,0:0:0:0:
320,192,49673,1,0,0:0:0:0:
448,192,49701,1,0,0:0:0:0:
64,192,49728,1,0,0:0:0:0:
192,192,49755,1,0,0:0:0:0:
320,192,49782,1,0,0:0:0:0:
448,192,49809,1,0,0:0:0:0:
64,192,49836,1,0,0:0:0:0:
192,192,49864,1,0,0:0:0:0:
320,192,49891,1,0,0:0:0:0:
448,192,49918,1,0,0:0:0:0:
64,192,49945,1,0,0:0:0:0:
192,192,49972,1,0,0:0:0:0:
320,192,49999,1,0,0:0:0:0:
448,192,50027,1,0,0:0:0:0:
64,192,50054,1,0,0:0:0:0:
192,192,50081,1,0,0:0:0:0:
320,192,50108,1,0,0:0:0:0:
448,192,50135,1,0,0:0:0:0:
192,192,50163,1,0,0:0:0:0:
192,192,50380,1,0,0:0:0:0:
64,192,50597,1,0,0:0:0:0:
192,192,50624,1,0,0:0:0:0:
320,192,50652,1,0,0:0:0:0:
448,192,50679,1,0,0:0:0:0:
64,192,50706,1,0,0:0:0:0:
192,192,50733,1,0,0:0:0:0:
320,192,50760,1,0,0:0:0:0:
448,192,50788,1,0,0:0:0:0:
64,192,50815,1,0,0:0:0:0:
192,192,50842,1,0,0:0:0:0:
320,192,50869,1,0,0:0:0:0:
448,192,50896,1,0,0:0:0:0:
64,192,50923,1,0,0:0:0:0:
192,192,50951,1,0,0:0:0:0:
320,192,50978,1,0,0:0:0:0:
448,192,51005,1,0,0:0:0:0:
64,192,51032,1,0,0:0:0:0:
192,192,51059,1,0,0:0:0:0:
320,192,51086,1,0,0:0:0:0:
448,192,51114,1,0,0:0:0:0:
64,192,51168,1,0,0:0:0:0:
192,192,51168,1,0,0:0:0:0:
320,192,51195,1,0,0:0:0:0:
448,192,51222,1,0,0:0:0:0:
64,192,51249,1,0,0:0:0:0:
192,192,51304,1,0,0:0:0:0:
320,192,51331,1,0,0:0:0:0:
448,192,51331,1,0,0:0:0:0:
64,192,51358,1,0,0:0:0:0:
192,192,51385,1,0,0:0:0:0:
320,192,51440,1,0,0:0:0:0:
448,192,51467,1,0,0:0:0:0:
64,192,51494,1,0,0:0:0:0:
192,192,51494,1,0,0:0:0:0:
320,192,51521,1,0,0:0:0:0:
448,192,51576,1,0,0:0:0:0:
64,192,51603,1,0,0:0:0:0:
192,192,51630,1,0,0:0:0:0:
320,192,51630,1,0,0:0:0:0:
448,192,51657,1,0,0:0:0:0:
64,192,51684,1,0,0:0:0:0:
192,192,51739,1,0,0:0:0:0:
320,192,51766,1,0,0:0:0:0:
448,192,51793,1,0,0:0:0:0:
64,192,51793,1,0,0:0:0:0:
192,192,51820,1,0,0:0:0:0:
320,192,51874,1,0,0:0:0:0:
448,192,51902,1,0,0:0:0:0:
192,192,51929,1,0,0:0:0:0:
320,192,52146,1,0,0:0:0:0:
64,192,52364,1,0,0:0:0:0:
192,192,52391,1,0,0:0:0:0:
320,192,52418,1,0,0:0:0:0:
448,192,52445,1,0,0:0:0:0:
64,192,52472,1,0,0:0:0:0:
192,192,52499,1,0,0:0:0:0:
320,192,52527,1,0,0:0:0:0:
448,192,52554,1,0,0:0:0:0:
64,192,52581,1,0,0:0:0:0:
192,192,52608,1,0,0:0:0:0:
320,192,52635,1,0,0:0:0:0:
448,192,52663,1,0,0:0:0:0:
64,192,52690,1,0,0:0:0:0:
192,192,52717,1,0,0:0:0:0:
320,192,52744,1,0,0:0:0:0:
448,192,52771,1,0,0:0:0:0:
64,192,52798,1,0,0:0:0:0:
192,192,52826,1,0,0:0:0:0:
320,192,52853,1,0,0:0:0:0:
448,192,52880,1,0,0:0:0:0:
64,192,52907,1,0,0:0:0:0:
192,192,52934,1,0,0:0:0:0:
320,192,52961,1,0,0:0:0:0:
448,192,52989,1,0,0:0:0:0:
64,192,53016,1,0,0:0:0:0:
192,192,53043,1,0,0:0:0:0:
320,192,53070,1,0,0:0:0:0:
448,192,53097,1,0,0:0:0:0:
64,192,53124,1,0,0:0:0:0:
192,192,53152,1,0,0:0:0:0:
320,192,53179,1,0,0:0:0:0:
448,192,53206,1,0,0:0:0:0:
64,192,53233,1,0,0:0:0:0:
192,192,53260,1,0,0:0:0:0:
320,192,53288,1,0,0:0:0:0:
448,192,53315,1,0,0:0:0:0:
64,192,53342,1,0,0:0:0:0:
192,192,53369,1,0,0:0:0:0:
320,192,53396,1,0,0:0:0:0:
448,192,53423,1,0,0:0:0:0:
64,192,53451,1,0,0:0:0:0:
192,192,53478,1,0,0:0:0:0:
320,192,53505,1,0,0:0:0:0:
448,192,53532,1,0,0:0:0:0:
64,192,53559,1,0,0:0:0:0:
192,192,53586,1,0,0:0:0:0:
320,192,53614,1,0,0:0:0:0:
448,192,53641,1,0,0:0:0:0:
320,192,53668,1,0,0:0:0:0:
320,192,53885,1,0,0:0:0:0:
64,192,54103,1,0,0:0:0:0:
192,192,54130,1,0,0:0:0:0:
448,192,54157,1,0,0:0:0:0:
320,192,54184,1,0,0:0:0:0:
64,192,54211,1,0,0:0:0:0:
192,192,54239,1,0,0:0:0:0:
448,192,54266,1,0,0:0:0:0:
320,192,54293,1,0,0:0:0:0:
64,192,54320,1,0,0:0:0:0:
192,192,54347,1,0,0:0:0:0:
448,192,54374,1,0,0:0:0:0:
320,192,54402,1,0,0:0:0:0:
64,192,54429,1,0,0:0:0:0:
192,192,54456,1,0,0:0:0:0:
448,192,54483,1,0,0:0:0:0:
320,192,54510,1,0,0:0:0:0:
64,192,54538,1,0,0:0:0:0:
192,192,54565,1,0,0:0:0:0:
448,192,54592,1,0,0:0:0:0:
320,192,54619,1,0,0:0:0:0:
64,192,54646,1,0,0:0:0:0:
192,192,54673,1,0,0:0:0:0:
448,192,54701,1,0,0:0:0:0:
320,192,54728,1,0,0:0:0:0:
64,192,54755,1,0,0:0:0:0:
192,192,54782,1,0,0:0:0:0:
448,192,54809,1,0,0:0:0:0:
320,192,54836,1,0,0:0:0:0:
64,192,54864,1,0,0:0:0:0:
192,192,54891,1,0,0:0:0:0:
448,192,54918,1,0,0:0:0:0:
320,192,54945,1,0,0:0:0:0:
192,192,54972,1,0,0:0:0:0:
64,192,54999,1,0,0:0:0:0:
320,192,55027,1,0,0:0:0:0:
448,192,55054,1,0,0:0:0:0:
192,192,55081,1,0,0:0:0:0:
64,192,55108,1,0,0:0:0:0:
320,192,55135,1,0,0:0:0:0:
448,192,55163,1,0,0:0:0:0:
192,192,55190,1,0,0:0:0:0:
64,192,55217,1,0,0:0:0:0:
320,192,55244,1,0,0:0:0:0:
448,192,55271,1,0,0:0:0:0:
192,192,55298,1,0,0:0:0:0:
64,192,55326,1,0,0:0:0:0:
320,192,55353,1,0,0:0:0:0:
448,192,55380,1,0,0:0:0:0:
192,192,55407,1,0,0:0:0:0:
64,192,55434,1,0,0:0:0:0:
320,192,55461,1,0,0:0:0:0:
448,192,55489,1,0,0:0:0:0:
192,192,55516,1,0,0:0:0:0:
64,192,55543,1,0,0:0:0:0:
320,192,55570,1,0,0:0:0:0:
448,192,55597,1,0,0:0:0:0:
192,192,55624,1,0,0:0:0:0:
64,192,55652,1,0,0:0:0:0:
320,192,55679,1,0,0:0:0:0:
448,192,55706,1,0,0:0:0:0:
192,192,55733,1,0,0:0:0:0:
64,192,55760,1,0,0:0:0:0:
320,192,55788,1,0,0:0:0:0:
448,192,55815,1,0,0:0:0:0:
64,192,55842,1,0,0:0:0:0:
192,192,55869,1,0,0:0:0:0:
320,192,55896,1,0,0:0:0:0:
448,192,55923,1,0,0:0:0:0:
64,192,55951,1,0,0:0:0:0:
192,192,55978,1,0,0:0:0:0:
320,192,56005,1,0,0:0:0:0:
448,192,56032,1,0,0:0:0:0:
64,192,56059,1,0,0:0:0:0:
192,192,56086,1,0,0:0:0:0:
320,192,56114,1,0,0:0:0:0:
448,192,56141,1,0,0:0:0:0:
64,192,56168,1,0,0:0:0:0:
192,192,56195,1,0,0:0:0:0:
320,192,56222,1,0,0:0:0:0:
448,192,56249,1,0,0:0:0:0:
64,192,56277,1,0,0:0:0:0:
192,192,56304,1,0,0:0:0:0:
320,192,56331,1,0,0:0:0:0:
448,192,56358,1,0,0:0:0:0:
64,192,56385,1,0,0:0:0:0:
192,192,56413,1,0,0:0:0:0:
320,192,56440,1,0,0:0:0:0:
448,192,56467,1,0,0:0:0:0:
64,192,56494,1,0,0:0:0:0:
192,192,56521,1,0,0:0:0:0:
320,192,56548,1,0,0:0:0:0:
448,192,56576,1,0,0:0:0:0:
64,192,56603,1,0,0:0:0:0:
192,192,56630,1,0,0:0:0:0:
320,192,56657,1,0,0:0:0:0:
448,192,56684,1,0,0:0:0:0:
64,192,56711,1,0,0:0:0:0:
192,192,56739,1,0,0:0:0:0:
320,192,56766,1,0,0:0:0:0:
448,192,56793,1,0,0:0:0:0:
64,192,56820,1,0,0:0:0:0:
192,192,56847,1,0,0:0:0:0:
320,192,56874,1,0,0:0:0:0:
448,192,56902,1,0,0:0:0:0:
64,192,56929,1,0,0:0:0:0:
192,192,56956,1,0,0:0:0:0:
320,192,56983,1,0,0:0:0:0:
448,192,57010,1,0,0:0:0:0:
64,192,57038,1,0,0:0:0:0:
192,192,57065,1,0,0:0:0:0:
320,192,57092,1,0,0:0:0:0:
448,192,57119,1,0,0:0:0:0:
192,192,57146,1,0,0:0:0:0:
192,192,57364,1,0,0:0:0:0:
64,192,57581,1,0,0:0:0:0:
192,192,57608,1,0,0:0:0:0:
320,192,57635,1,0,0:0:0:0:
448,192,57663,1,0,0:0:0:0:
64,192,57690,1,0,0:0:0:0:
192,192,57717,1,0,0:0:0:0:
320,192,57744,1,0,0:0:0:0:
448,192,57771,1,0,0:0:0:0:
64,192,57798,1,0,0:0:0:0:
192,192,57826,1,0,0:0:0:0:
320,192,57853,1,0,0:0:0:0:
448,192,57880,1,0,0:0:0:0:
64,192,57907,1,0,0:0:0:0:
192,192,57934,1,0,0:0:0:0:
320,192,57961,1,0,0:0:0:0:
448,192,57989,1,0,0:0:0:0:
64,192,58016,1,0,0:0:0:0:
192,192,58043,1,0,0:0:0:0:
320,192,58070,1,0,0:0:0:0:
448,192,58097,1,0,0:0:0:0:
64,192,58124,1,0,0:0:0:0:
192,192,58152,1,0,0:0:0:0:
320,192,58179,1,0,0:0:0:0:
448,192,58206,1,0,0:0:0:0:
64,192,58233,1,0,0:0:0:0:
192,192,58260,1,0,0:0:0:0:
320,192,58288,1,0,0:0:0:0:
448,192,58315,1,0,0:0:0:0:
64,192,58342,1,0,0:0:0:0:
192,192,58369,1,0,0:0:0:0:
320,192,58396,1,0,0:0:0:0:
448,192,58423,1,0,0:0:0:0:
64,192,58451,1,0,0:0:0:0:
192,192,58478,1,0,0:0:0:0:
320,192,58505,1,0,0:0:0:0:
448,192,58532,1,0,0:0:0:0:
64,192,58559,1,0,0:0:0:0:
192,192,58586,1,0,0:0:0:0:
320,192,58614,1,0,0:0:0:0:
448,192,58641,1,0,0:0:0:0:
64,192,58668,1,0,0:0:0:0:
192,192,58695,1,0,0:0:0:0:
320,192,58722,1,0,0:0:0:0:
448,192,58749,1,0,0:0:0:0:
64,192,58777,1,0,0:0:0:0:
192,192,58804,1,0,0:0:0:0:
320,192,58831,1,0,0:0:0:0:
448,192,58858,1,0,0:0:0:0:
192,192,58885,1,0,0:0:0:0:
320,192,59103,1,0,0:0:0:0:
64,192,59320,1,0,0:0:0:0:
192,192,59347,1,0,0:0:0:0:
320,192,59374,1,0,0:0:0:0:
448,192,59402,1,0,0:0:0:0:
64,192,59429,1,0,0:0:0:0:
192,192,59456,1,0,0:0:0:0:
320,192,59483,1,0,0:0:0:0:
448,192,59510,1,0,0:0:0:0:
64,192,59538,1,0,0:0:0:0:
192,192,59565,1,0,0:0:0:0:
320,192,59592,1,0,0:0:0:0:
448,192,59619,1,0,0:0:0:0:
64,192,59646,1,0,0:0:0:0:
192,192,59673,1,0,0:0:0:0:
320,192,59701,1,0,0:0:0:0:
448,192,59728,1,0,0:0:0:0:
64,192,59755,1,0,0:0:0:0:
192,192,59782,1,0,0:0:0:0:
320,192,59809,1,0,0:0:0:0:
448,192,59836,1,0,0:0:0:0:
64,192,59864,1,0,0:0:0:0:
192,192,59891,1,0,0:0:0:0:
320,192,59918,1,0,0:0:0:0:
448,192,59945,1,0,0:0:0:0:
64,192,59972,1,0,0:0:0:0:
192,192,59999,1,0,0:0:0:0:
320,192,60027,1,0,0:0:0:0:
448,192,60054,1,0,0:0:0:0:
64,192,60081,1,0,0:0:0:0:
192,192,60108,1,0,0:0:0:0:
320,192,60135,1,0,0:0:0:0:
448,192,60163,1,0,0:0:0:0:
64,192,60190,1,0,0:0:0:0:
192,192,60217,1,0,0:0:0:0:
320,192,60244,1,0,0:0:0:0:
448,192,60271,1,0,0:0:0:0:
64,192,60298,1,0,0:0:0:0:
192,192,60326,1,0,0:0:0:0:
320,192,60353,1,0,0:0:0:0:
448,192,60380,1,0,0:0:0:0:
64,192,60407,1,0,0:0:0:0:
192,192,60434,1,0,0:0:0:0:
320,192,60461,1,0,0:0:0:0:
448,192,60489,1,0,0:0:0:0:
64,192,60516,1,0,0:0:0:0:
192,192,60543,1,0,0:0:0:0:
320,192,60570,1,0,0:0:0:0:
448,192,60597,1,0,0:0:0:0:
320,192,60624,1,0,0:0:0:0:
320,192,60842,1,0,0:0:0:0:
64,192,61059,1,0,0:0:0:0:
192,192,61086,1,0,0:0:0:0:
448,192,61114,1,0,0:0:0:0:
320,192,61141,1,0,0:0:0:0:
64,192,61168,1,0,0:0:0:0:
192,192,61195,1,0,0:0:0:0:
448,192,61222,1,0,0:0:0:0:
320,192,61249,1,0,0:0:0:0:
64,192,61277,1,0,0:0:0:0:
192,192,61304,1,0,0:0:0:0:
448,192,61331,1,0,0:0:0:0:
320,192,61358,1,0,0:0:0:0:
64,192,61385,1,0,0:0:0:0:
192,192,61413,1,0,0:0:0:0:
448,192,61440,1,0,0:0:0:0:
320,192,61467,1,0,0:0:0:0:
64,192,61494,1,0,0:0:0:0:
192,192,61521,1,0,0:0:0:0:
448,192,61548,1,0,0:0:0:0:
320,192,61576,1,0,0:0:0:0:
64,192,61603,1,0,0:0:0:0:
192,192,61630,1,0,0:0:0:0:
448,192,61657,1,0,0:0:0:0:
320,192,61684,1,0,0:0:0:0:
64,192,61711,1,0,0:0:0:0:
192,192,61739,1,0,0:0:0:0:
448,192,61766,1,0,0:0:0:0:
320,192,61793,1,0,0:0:0:0:
64,192,61820,1,0,0:0:0:0:
192,192,61847,1,0,0:0:0:0:
448,192,61874,1,0,0:0:0:0:
320,192,61902,1,0,0:0:0:0:
192,192,61929,1,0,0:0:0:0:
64,192,61956,1,0,0:0:0:0:
320,192,61983,1,0,0:0:0:0:
448,192,62010,1,0,0:0:0:0:
192,192,62038,1,0,0:0:0:0:
64,192,62065,1,0,0:0:0:0:
320,192,62092,1,0,0:0:0:0:
448,192,62119,1,0,0:0:0:0:
192,192,62146,1,0,0:0:0:0:
64,192,62173,1,0,0:0:0:0:
320,192,62201,1,0,0:0:0:0:
448,192,62228,1,0,0:0:0:0:
192,192,62255,1,0,0:0:0:0:
64,192,62282,1,0,0:0:0:0:
320,192,62309,1,0,0:0:0:0:
448,192,62336,1,0,0:0:0:0:
192,192,62364,1,0,0:0:0:0:
64,192,62391,1,0,0:0:0:0:
320,192,62418,1,0,0:0:0:0:
448,192,62445,1,0,0:0:0:0:
192,192,62472,1,0,0:0:0:0:
64,192,62499,1,0,0:0:0:0:
320,192,62527,1,0,0:0:0:0:
448,192,62554,1,0,0:0:0:0:
192,192,62581,1,0,0:0:0:0:
64,192,62608,1,0,0:0:0:0:
320,192,62635,1,0,0:0:0:0:
448,192,62663,1,0,0:0:0:0:
192,192,62690,1,0,0:0:0:0:
64,192,62717,1,0,0:0:0:0:
320,192,62744,1,0,0:0:0:0:
448,192,62771,1,0,0:0:0:0:
64,192,62798,1,0,0:0:0:0:
192,192,62826,1,0,0:0:0:0:
320,192,62853,1,0,0:0:0:0:
448,192,62880,1,0,0:0:0:0:
64,192,62907,1,0,0:0:0:0:
192,192,62934,1,0,0:0:0:0:
320,192,62961,1,0,0:0:0:0:
448,192,62989,1,0,0:0:0:0:
64,192,63016,1,0,0:0:0:0:
192,192,63043,1,0,0:0:0:0:
320,192,63070,1,0,0:0:0:0:
448,192,63097,1,0,0:0:0:0:
64,192,63124,1,0,0:0:0:0:
192,192,63152,1,0,0:0:0:0:
320,192,63179,1,0,0:0:0:0:
448,192,63206,1,0,0:0:0:0:
64,192,63233,1,0,0:0:0:0:
192,192,63260,1,0,0:0:0:0:
320,192,63288,1,0,0:0:0:0:
448,192,63315,1,0,0:0:0:0:
64,192,63342,1,0,0:0:0:0:
192,192,63369,1,0,0:0:0:0:
320,192,63396,1,0,0:0:0:0:
448,192,63423,1,0,0:0:0:0:
64,192,63451,1,0,0:0:0:0:
192,192,63478,1,0,0:0:0:0:
320,192,63505,1,0,0:0:0:0:
448,192,63532,1,0,0:0:0:0:
64,192,63559,1,0,0:0:0:0:
192,192,63586,1,0,0:0:0:0:
320,192,63614,1,0,0:0:0:0:
448,192,63641,1,0,0:0:0:0:
64,192,63668,1,0,0:0:0:0:
192,192,63695,1,0,0:0:0:0:
320,192,63722,1,0,0:0:0:0:
448,192,63749,1,0,0:0:0:0:
64,192,63777,1,0,0:0:0:0:
192,192,63804,1,0,0:0:0:0:
320,192,63831,1,0,0:0:0:0:
448,192,63858,1,0,0:0:0:0:
64,192,63885,1,0,0:0:0:0:
192,192,63913,1,0,0:0:0:0:
320,192,63940,1,0,0:0:0:0:
448,192,63967,1,0,0:0:0:0:
64,192,63994,1,0,0:0:0:0:
192,192,64021,1,0,0:0:0:0:
320,192,64048,1,0,0:0:0:0:
448,192,64076,1,0,0:0:0:0:
192,192,64103,1,0,0:0:0:0:
192,192,64320,1,0,0:0:0:0:
64,192,64538,1,0,0:0:0:0:
192,192,64565,1,0,0:0:0:0:
320,192,64592,1,0,0:0:0:0:
448,192,64619,1,0,0:0:0:0:
64,192,64646,1,0,0:0:0:0:
192,192,64673,1,0,0:0:0:0:
320,192,64701,1,0,0:0:0:0:
448,192,64728,1,0,0:0:0:0:
64,192,64755,1,0,0:0:0:0:
192,192,64782,1,0,0:0:0:0:
320,192,64809,1,0,0:0:0:0:
448,192,64836,1,0,0:0:0:0:
64,192,64864,1,0,0:0:0:0:
192,192,64891,1,0,0:0:0:0:
320,192,64918,1,0,0:0:0:0:
448,192,64945,1,0,0:0:0:0:
64,192,64972,1,0,0:0:0:0:
192,192,64999,1,0,0:0:0:0:
320,192,65027,1,0,0:0:0:0:
448,192,65054,1,0,0:0:0:0:
64,192,65081,1,0,0:0:0:0:
192,192,65108,1,0,0:0:0:0:
320,192,65135,1,0,0:0:0:0:
448,192,65163,1,0,0:0:0:0:
64,192,65190,1,0,0:0:0:0:
192,192,65217,1,0,0:0:0:0:
320,192,65244,1,0,0:0:0:0:
448,192,65271,1,0,0:0:0:0:
64,192,65298,1,0,0:0:0:0:
192,192,65326,1,0,0:0:0:0:
320,192,65353,1,0,0:0:0:0:
448,192,65380,1,0,0:0:0:0:
64,192,65407,1,0,0:0:0:0:
192,192,65434,1,0,0:0:0:0:
320,192,65461,1,0,0:0:0:0:
448,192,65489,1,0,0:0:0:0:
64,192,65516,1,0,0:0:0:0:
192,192,65543,1,0,0:0:0:0:
320,192,65570,1,0,0:0:0:0:
448,192,65597,1,0,0:0:0:0:
64,192,65624,1,0,0:0:0:0:
192,192,65652,1,0,0:0:0:0:
320,192,65679,1,0,0:0:0:0:
448,192,65706,1,0,0:0:0:0:
64,192,65733,1,0,0:0:0:0:
192,192,65760,1,0,0:0:0:0:
320,192,65788,1,0,0:0:0:0:
448,192,65815,1,0,0:0:0:0:
192,192,65842,1,0,0:0:0:0:
320,192,66059,1,0,0:0:0:0:
64,192,66277,1,0,0:0:0:0:
192,192,66304,1,0,0:0:0:0:
320,192,66331,1,0,0:0:0:0:
448,192,66358,1,0,0:0:0:0:
64,192,66385,1,0,0:0:0:0:
192,192,66413,1,0,0:0:0:0:
320,192,66440,1,0,0:0:0:0:
448,192,66467,1,0,0:0:0:0:
64,192,66494,1,0,0:0:0:0:
192,192,66521,1,0,0:0:0:0:
320,192,66548,1,0,0:0:0:0:
448,192,66576,1,0,0:0:0:0:
64,192,66603,1,0,0:0:0:0:
192,192,66630,1,0,0:0:0:0:
320,192,66657,1,0,0:0:0:0:
448,192,66684,1,0,0:0:0:0:
64,192,66711,1,0,0:0:0:0:
192,192,66739,1,0,0:0:0:0:
320,192,66766,1,0,0:0:0:0:
448,192,66793,1,0,0:0:0:0:
64,192,66820,1,0,0:0:0:0:
192,192,66847,1,0,0:0:0:0:
320,192,66874,1,0,0:0:0:0:
448,192,66902,1,0,0:0:0:0:
64,192,66929,1,0,0:0:0:0:
192,192,66956,1,0,0:0:0:0:
320,192,66983,1,0,0:0:0:0:
448,192,67010,1,0,0:0:0:0:
64,192,67038,1,0,0:0:0:0:
192,192,67065,1,0,0:0:0:0:
320,192,67092,1,0,0:0:0:0:
448,192,67119,1,0,0:0:0:0:
64,192,67146,1,0,0:0:0:0:
192,192,67173,1,0,0:0:0:0:
320,192,67201,1,0,0:0:0:0:
448,192,67228,1,0,0:0:0:0:
64,192,67255,1,0,0:0:0:0:
192,192,67282,1,0,0:0:0:0:
320,192,67309,1,0,0:0:0:0:
448,192,67336,1,0,0:0:0:0:
64,192,67364,1,0,0:0:0:0:
192,192,67391,1,0,0:0:0:0:
320,192,67418,1,0,0:0:0:0:
448,192,67445,1,0,0:0:0:0:
64,192,67472,1,0,0:0:0:0:
192,192,67499,1,0,0:0:0:0:
320,192,67527,1,0,0:0:0:0:
448,192,67554,1,0,0:0:0:0:
320,192,67581,1,0,0:0:0:0:
320,192,67798,1,0,0:0:0:0:
64,192,68016,1,0,0:0:0:0:
192,192,68043,1,0,0:0:0:0:
448,192,68070,1,0,0:0:0:0:
320,192,68097,1,0,0:0:0:0:
64,192,68124,1,0,0:0:0:0:
192,192,68152,1,0,0:0:0:0:
448,192,68179,1,0,0:0:0:0:
320,192,68206,1,0,0:0:0:0:
64,192,68233,1,0,0:0:0:0:
192,192,68260,1,0,0:0:0:0:
448,192,68288,1,0,0:0:0:0:
320,192,68315,1,0,0:0:0:0:
64,192,68342,1,0,0:0:0:0:
192,192,68369,1,0,0:0:0:0:
448,192,68396,1,0,0:0:0:0:
320,192,68423,1,0,0:0:0:0:
64,192,68451,1,0,0:0:0:0:
192,192,68478,1,0,0:0:0:0:
448,192,68505,1,0,0:0:0:0:
320,192,68532,1,0,0:0:0:0:
64,192,68559,1,0,0:0:0:0:
192,192,68586,1,0,0:0:0:0:
448,192,68614,1,0,0:0:0:0:
320,192,68641,1,0,0:0:0:0:
64,192,68668,1,0,0:0:0:0:
192,192,68695,1,0,0:0:0:0:
448,192,68722,1,0,0:0:0:0:
320,192,68749,1,0,0:0:0:0:
64,192,68777,1,0,0:0:0:0:
192,192,68804,1,0,0:0:0:0:
448,192,68831,1,0,0:0:0:0:
320,192,68858,1,0,0:0:0:0:
192,192,68885,1,0,0:0:0:0:
64,192,68913,1,0,0:0:0:0:
320,192,68940,1,0,0:0:0:0:
448,192,68967,1,0,0:0:0:0:
192,192,68994,1,0,0:0:0:0:
64,192,69021,1,0,0:0:0:0:
320,192,69048,1,0,0:0:0:0:
448,192,69076,1,0,0:0:0:0:
192,192,69103,1,0,0:0:0:0:
64,192,69130,1,0,0:0:0:0:
320,192,69157,1,0,0:0:0:0:
448,192,69184,1,0,0:0:0:0:
192,192,69211,1,0,0:0:0:0:
64,192,69239,1,0,0:0:0:0:
320,192,69266,1,0,0:0:0:0:
448,192,69293,1,0,0:0:0:0:
192,192,69320,1,0,0:0:0:0:
64,192,69347,1,0,0:0:0:0:
320,192,69374,1,0,0:0:0:0:
448,192,69402,1,0,0:0:0:0:
192,192,69429,1,0,0:0:0:0:
64,192,69456,1,0,0:0:0:0:
320,192,69483,1,0,0:0:0:0:
448,192,69510,1,0,0:0:0:0:
192,192,69538,1,0,0:0:0:0:
64,192,69565,1,0,0:0:0:0:
320,192,69592,1,0,0:0:0:0:
448,192,69619,1,0,0:0:0:0:
192,192,69646,1,0,0:0:0:0:
64,192,69673,1,0,0:0:0:0:
320,192,69701,1,0,0:0:0:0:
448,192,69728,1,0,0:0:0:0:
64,192,69755,1,0,0:0:0:0:
192,192,69782,1,0,0:0:0:0:
320,192,69809,1,0,0:0:0:0:
448,192,69836,1,0,0:0:0:0:
64,192,69864,1,0,0:0:0:0:
192,192,69891,1,0,0:0:0:0:
320,192,69918,1,0,0:0:0:0:
448,192,69945,1,0,0:0:0:0:
64,192,69972,1,0,0:0:0:0:
192,192,69999,1,0,0:0:0:0:
320,192,70027,1,0,0:0:0:0:
448,192,70054,1,0,0:0:0:0:
64,192,70081,1,0,0:0:0:0:
192,192,70108,1,0,0:0:0:0:
320,192,70135,1,0,0:0:0:0:
448,192,70163,1,0,0:0:0:0:
64,192,70190,1,0,0:0:0:0:
192,192,70217,1,0,0:0:0:0:
320,192,70244,1,0,0:0:0:0:
448,192,70271,1,0,0:0:0:0:
64,192,70298,1,0,0:0:0:0:
192,192,70326,1,0,0:0:0:0:
320,192,70353,1,0,0:0:0:0:
448,192,70380,1,0,0:0:0:0:
64,192,70407,1,0,0:0:0:0:
192,192,70434,1,0,0:0:0:0:
320,192,70461,1,0,0:0:0:0:
448,192,70489,1,0,0:0:0:0:
64,192,70516,1,0,0:0:0:0:
192,192,70543,1,0,0:0:0:0:
320,192,70570,1,0,0:0:0:0:
448,192,70597,1,0,0:0:0:0:
64,192,70624,1,0,0:0:0:0:
192,192,70652,1,0,0:0:0:0:
320,192,70679,1,0,0:0:0:0:
448,192,70706,1,0,0:0:0:0:
64,192,70733,1,0,0:0:0:0:
192,192,70760,1,0,0:0:0:0:
320,192,70788,1,0,0:0:0:0:
448,192,70815,1,0,0:0:0:0:
64,192,70842,1,0,0:0:0:0:
192,192,70869,1,0,0:0:0:0:
320,192,70896,1,0,0:0:0:0:
448,192,70923,1,0,0:0:0:0:
64,192,70951,1,0,0:0:0:0:
192,192,70978,1,0,0:0:0:0:
320,192,71005,1,0,0:0:0:0:
448,192,71032,1,0,0:0:0:0:
64,192,71059,1,0,0:0:0:0:
320,192,71086,1,0,0:0:0:0:
192,192,71114,1,0,0:0:0:0:
448,192,71141,1,0,0:0:0:0:
64,192,71168,1,0,0:0:0:0:
320,192,71195,1,0,0:0:0:0:
192,192,71222,1,0,0:0:0:0:
448,192,71249,1,0,0:0:0:0:
64,192,71277,1,0,0:0:0:0:
320,192,71304,1,0,0:0:0:0:
192,192,71331,1,0,0:0:0:0:
448,192,71358,1,0,0:0:0:0:
64,192,71385,1,0,0:0:0:0:
320,192,71413,1,0,0:0:0:0:
192,192,71440,1,0,0:0:0:0:
448,192,71467,1,0,0:0:0:0:
64,192,71494,1,0,0:0:0:0:
192,192,71521,1,0,0:0:0:0:
320,192,71548,1,0,0:0:0:0:
448,192,71576,1,0,0:0:0:0:
64,192,71603,1,0,0:0:0:0:
192,192,71630,1,0,0:0:0:0:
320,192,71657,1,0,0:0:0:0:
448,192,71684,1,0,0:0:0:0:
64,192,71711,1,0,0:0:0:0:
192,192,71739,1,0,0:0:0:0:
320,192,71766,1,0,0:0:0:0:
448,192,71793,1,0,0:0:0:0:
64,192,71820,1,0,0:0:0:0:
192,192,71847,1,0,0:0:0:0:
320,192,71874,1,0,0:0:0:0:
448,192,71902,1,0,0:0:0:0:
64,192,71929,1,0,0:0:0:0:
192,192,71956,1,0,0:0:0:0:
320,192,71983,1,0,0:0:0:0:
448,192,72010,1,0,0:0:0:0:
64,192,72038,1,0,0:0:0:0:
192,192,72065,1,0,0:0:0:0:
320,192,72092,1,0,0:0:0:0:
448,192,72119,1,0,0:0:0:0:
64,192,72146,1,0,0:0:0:0:
192,192,72173,1,0,0:0:0:0:
320,192,72201,1,0,0:0:0:0:
448,192,72228,1,0,0:0:0:0:
64,192,72255,1,0,0:0:0:0:
192,192,72282,1,0,0:0:0:0:
320,192,72309,1,0,0:0:0:0:
448,192,72336,1,0,0:0:0:0:
64,192,72364,1,0,0:0:0:0:
192,192,72391,1,0,0:0:0:0:
320,192,72418,1,0,0:0:0:0:
448,192,72445,1,0,0:0:0:0:
64,192,72472,1,0,0:0:0:0:
192,192,72499,1,0,0:0:0:0:
320,192,72527,1,0,0:0:0:0:
448,192,72554,1,0,0:0:0:0:
64,192,72581,1,0,0:0:0:0:
192,192,72608,1,0,0:0:0:0:
320,192,72635,1,0,0:0:0:0:
448,192,72663,1,0,0:0:0:0:
64,192,72690,1,0,0:0:0:0:
192,192,72717,1,0,0:0:0:0:
320,192,72744,1,0,0:0:0:0:
448,192,72771,1,0,0:0:0:0:
64,192,72798,1,0,0:0:0:0:
320,192,72826,1,0,0:0:0:0:
192,192,72853,1,0,0:0:0:0:
448,192,72880,1,0,0:0:0:0:
64,192,72907,1,0,0:0:0:0:
320,192,72934,1,0,0:0:0:0:
192,192,72961,1,0,0:0:0:0:
448,192,72989,1,0,0:0:0:0:
64,192,73016,1,0,0:0:0:0:
320,192,73043,1,0,0:0:0:0:
192,192,73070,1,0,0:0:0:0:
448,192,73097,1,0,0:0:0:0:
64,192,73124,1,0,0:0:0:0:
320,192,73152,1,0,0:0:0:0:
192,192,73179,1,0,0:0:0:0:
448,192,73206,1,0,0:0:0:0:
64,192,73233,1,0,0:0:0:0:
192,192,73260,1,0,0:0:0:0:
320,192,73288,1,0,0:0:0:0:
448,192,73315,1,0,0:0:0:0:
64,192,73342,1,0,0:0:0:0:
192,192,73369,1,0,0:0:0:0:
320,192,73396,1,0,0:0:0:0:
448,192,73423,1,0,0:0:0:0:
64,192,73451,1,0,0:0:0:0:
192,192,73478,1,0,0:0:0:0:
320,192,73505,1,0,0:0:0:0:
448,192,73532,1,0,0:0:0:0:
64,192,73559,1,0,0:0:0:0:
192,192,73586,1,0,0:0:0:0:
320,192,73614,1,0,0:0:0:0:
448,192,73641,1,0,0:0:0:0:
64,192,73668,1,0,0:0:0:0:
192,192,73695,1,0,0:0:0:0:
320,192,73722,1,0,0:0:0:0:
448,192,73749,1,0,0:0:0:0:
64,192,73777,1,0,0:0:0:0:
192,192,73804,1,0,0:0:0:0:
320,192,73831,1,0,0:0:0:0:
448,192,73858,1,0,0:0:0:0:
64,192,73885,1,0,0:0:0:0:
192,192,73913,1,0,0:0:0:0:
320,192,73940,1,0,0:0:0:0:
448,192,73967,1,0,0:0:0:0:
64,192,73994,1,0,0:0:0:0:
192,192,74021,1,0,0:0:0:0:
320,192,74048,1,0,0:0:0:0:
448,192,74076,1,0,0:0:0:0:
64,192,74103,1,0,0:0:0:0:
192,192,74130,1,0,0:0:0:0:
320,192,74157,1,0,0:0:0:0:
448,192,74184,1,0,0:0:0:0:
64,192,74211,1,0,0:0:0:0:
192,192,74239,1,0,0:0:0:0:
320,192,74266,1,0,0:0:0:0:
448,192,74293,1,0,0:0:0:0:
64,192,74320,1,0,0:0:0:0:
192,192,74347,1,0,0:0:0:0:
320,192,74374,1,0,0:0:0:0:
448,192,74402,1,0,0:0:0:0:
64,192,74429,1,0,0:0:0:0:
192,192,74456,1,0,0:0:0:0:
320,192,74483,1,0,0:0:0:0:
448,192,74510,1,0,0:0:0:0:
64,192,74538,1,0,0:0:0:0:
320,192,74565,1,0,0:0:0:0:
192,192,74592,1,0,0:0:0:0:
448,192,74619,1,0,0:0:0:0:
64,192,74646,1,0,0:0:0:0:
320,192,74673,1,0,0:0:0:0:
192,192,74701,1,0,0:0:0:0:
448,192,74728,1,0,0:0:0:0:
64,192,74755,1,0,0:0:0:0:
320,192,74782,1,0,0:0:0:0:
192,192,74809,1,0,0:0:0:0:
448,192,74836,1,0,0:0:0:0:
64,192,74864,1,0,0:0:0:0:
320,192,74891,1,0,0:0:0:0:
192,192,74918,1,0,0:0:0:0:
448,192,74945,1,0,0:0:0:0:
64,192,74972,1,0,0:0:0:0:
192,192,74999,1,0,0:0:0:0:
448,192,75027,1,0,0:0:0:0:
320,192,75054,1,0,0:0:0:0:
64,192,75081,1,0,0:0:0:0:
192,192,75108,1,0,0:0:0:0:
448,192,75135,1,0,0:0:0:0:
320,192,75163,1,0,0:0:0:0:
64,192,75190,1,0,0:0:0:0:
192,192,75217,1,0,0:0:0:0:
448,192,75244,1,0,0:0:0:0:
320,192,75271,1,0,0:0:0:0:
64,192,75298,1,0,0:0:0:0:
192,192,75326,1,0,0:0:0:0:
448,192,75353,1,0,0:0:0:0:
320,192,75380,1,0,0:0:0:0:
64,192,75407,1,0,0:0:0:0:
192,192,75434,1,0,0:0:0:0:
448,192,75461,1,0,0:0:0:0:
320,192,75489,1,0,0:0:0:0:
64,192,75516,1,0,0:0:0:0:
192,192,75543,1,0,0:0:0:0:
448,192,75570,1,0,0:0:0:0:
320,192,75597,1,0,0:0:0:0:
64,192,75624,1,0,0:0:0:0:
192,192,75652,1,0,0:0:0:0:
448,192,75679,1,0,0:0:0:0:
320,192,75706,1,0,0:0:0:0:
64,192,75733,1,0,0:0:0:0:
192,192,75760,1,0,0:0:0:0:
448,192,75788,1,0,0:0:0:0:
320,192,75815,1,0,0:0:0:0:
192,192,75842,1,0,0:0:0:0:
64,192,75869,1,0,0:0:0:0:
320,192,75896,1,0,0:0:0:0:
448,192,75923,1,0,0:0:0:0:
192,192,75951,1,0,0:0:0:0:
64,192,75978,1,0,0:0:0:0:
320,192,76005,1,0,0:0:0:0:
448,192,76032,1,0,0:0:0:0:
192,192,76059,1,0,0:0:0:0:
64,192,76086,1,0,0:0:0:0:
320,192,76114,1,0,0:0:0:0:
448,192,76141,1,0,0:0:0:0:
192,192,76168,1,0,0:0:0:0:
64,192,76195,1,0,0:0:0:0:
320,192,76222,1,0,0:0:0:0:
448,192,76249,1,0,0:0:0:0:
192,192,76277,1,0,0:0:0:0:
64,192,76304,1,0,0:0:0:0:
320,192,76331,1,0,0:0:0:0:
448,192,76358,1,0,0:0:0:0:
192,192,76385,1,0,0:0:0:0:
64,192,76413,1,0,0:0:0:0:
320,192,76440,1,0,0:0:0:0:
448,192,76467,1,0,0:0:0:0:
192,192,76494,1,0,0:0:0:0:
64,192,76521,1,0,0:0:0:0:
320,192,76548,1,0,0:0:0:0:
448,192,76576,1,0,0:0:0:0:
192,192,76603,1,0,0:0:0:0:
64,192,76630,1,0,0:0:0:0:
320,192,76657,1,0,0:0:0:0:
448,192,76684,1,0,0:0:0:0:
64,192,76711,1,0,0:0:0:0:
192,192,76739,1,0,0:0:0:0:
320,192,76766,1,0,0:0:0:0:
448,192,76793,1,0,0:0:0:0:
64,192,76820,1,0,0:0:0:0:
192,192,76847,1,0,0:0:0:0:
320,192,76874,1,0,0:0:0:0:
448,192,76902,1,0,0:0:0:0:
64,192,76929,1,0,0:0:0:0:
192,192,76956,1,0,0:0:0:0:
320,192,76983,1,0,0:0:0:0:
448,192,77010,1,0,0:0:0:0:
64,192,77038,1,0,0:0:0:0:
192,192,77065,1,0,0:0:0:0:
320,192,77092,1,0,0:0:0:0:
448,192,77119,1,0,0:0:0:0:
64,192,77146,1,0,0:0:0:0:
192,192,77173,1,0,0:0:0:0:
320,192,77201,1,0,0:0:0:0:
448,192,77228,1,0,0:0:0:0:
64,192,77255,1,0,0:0:0:0:
192,192,77282,1,0,0:0:0:0:
320,192,77309,1,0,0:0:0:0:
448,192,77336,1,0,0:0:0:0:
64,192,77364,1,0,0:0:0:0:
192,192,77391,1,0,0:0:0:0:
320,192,77418,1,0,0:0:0:0:
448,192,77445,1,0,0:0:0:0:
64,192,77472,1,0,0:0:0:0:
192,192,77499,1,0,0:0:0:0:
320,192,77527,1,0,0:0:0:0:
448,192,77554,1,0,0:0:0:0:
64,192,77581,1,0,0:0:0:0:
192,192,77608,1,0,0:0:0:0:
320,192,77635,1,0,0:0:0:0:
448,192,77663,1,0,0:0:0:0:
64,192,77690,1,0,0:0:0:0:
192,192,77717,1,0,0:0:0:0:
320,192,77744,1,0,0:0:0:0:
448,192,77771,1,0,0:0:0:0:
64,192,77798,1,0,0:0:0:0:
192,192,77826,1,0,0:0:0:0:
320,192,77853,1,0,0:0:0:0:
448,192,77880,1,0,0:0:0:0:
64,192,77907,1,0,0:0:0:0:
192,192,77934,1,0,0:0:0:0:
320,192,77961,1,0,0:0:0:0:
448,192,77989,1,0,0:0:0:0:
64,192,78016,1,0,0:0:0:0:
320,192,78043,1,0,0:0:0:0:
192,192,78070,1,0,0:0:0:0:
448,192,78097,1,0,0:0:0:0:
64,192,78124,1,0,0:0:0:0:
320,192,78152,1,0,0:0:0:0:
192,192,78179,1,0,0:0:0:0:
448,192,78206,1,0,0:0:0:0:
64,192,78233,1,0,0:0:0:0:
320,192,78260,1,0,0:0:0:0:
192,192,78288,1,0,0:0:0:0:
448,192,78315,1,0,0:0:0:0:
64,192,78342,1,0,0:0:0:0:
320,192,78369,1,0,0:0:0:0:
192,192,78396,1,0,0:0:0:0:
448,192,78423,1,0,0:0:0:0:
64,192,78451,1,0,0:0:0:0:
192,192,78478,1,0,0:0:0:0:
320,192,78505,1,0,0:0:0:0:
448,192,78532,1,0,0:0:0:0:
64,192,78559,1,0,0:0:0:0:
192,192,78586,1,0,0:0:0:0:
320,192,78614,1,0,0:0:0:0:
448,192,78641,1,0,0:0:0:0:
64,192,78668,1,0,0:0:0:0:
192,192,78695,1,0,0:0:0:0:
320,192,78722,1,0,0:0:0:0:
448,192,78749,1,0,0:0:0:0:
64,192,78777,1,0,0:0:0:0:
192,192,78804,1,0,0:0:0:0:
320,192,78831,1,0,0:0:0:0:
448,192,78858,1,0,0:0:0:0:
64,192,78885,1,0,0:0:0:0:
192,192,78913,1,0,0:0:0:0:
320,192,78940,1,0,0:0:0:0:
448,192,78967,1,0,0:0:0:0:
64,192,78994,1,0,0:0:0:0:
192,192,79021,1,0,0:0:0:0:
320,192,79048,1,0,0:0:0:0:
448,192,79076,1,0,0:0:0:0:
64,192,79103,1,0,0:0:0:0:
192,192,79130,1,0,0:0:0:0:
320,192,79157,1,0,0:0:0:0:
448,192,79184,1,0,0:0:0:0:
64,192,79211,1,0,0:0:0:0:
192,192,79239,1,0,0:0:0:0:
320,192,79266,1,0,0:0:0:0:
448,192,79293,1,0,0:0:0:0:
64,192,79320,1,0,0:0:0:0:
192,192,79347,1,0,0:0:0:0:
320,192,79374,1,0,0:0:0:0:
448,192,79402,1,0,0:0:0:0:
64,192,79429,1,0,0:0:0:0:
192,192,79456,1,0,0:0:0:0:
320,192,79483,1,0,0:0:0:0:
448,192,79510,1,0,0:0:0:0:
64,192,79538,1,0,0:0:0:0:
192,192,79565,1,0,0:0:0:0:
320,192,79592,1,0,0:0:0:0:
448,192,79619,1,0,0:0:0:0:
64,192,79646,1,0,0:0:0:0:
192,192,79673,1,0,0:0:0:0:
320,192,79701,1,0,0:0:0:0:
448,192,79728,1,0,0:0:0:0:
64,192,79755,1,0,0:0:0:0:
320,192,79782,1,0,0:0:0:0:
192,192,79809,1,0,0:0:0:0:
448,192,79836,1,0,0:0:0:0:
64,192,79864,1,0,0:0:0:0:
320,192,79891,1,0,0:0:0:0:
192,192,79918,1,0,0:0:0:0:
448,192,79945,1,0,0:0:0:0:
64,192,79972,1,0,0:0:0:0:
320,192,79999,1,0,0:0:0:0:
192,192,80027,1,0,0:0:0:0:
448,192,80054,1,0,0:0:0:0:
64,192,80081,1,0,0:0:0:0:
320,192,80108,1,0,0:0:0:0:
192,192,80135,1,0,0:0:0:0:
448,192,80163,1,0,0:0:0:0:
64,192,80190,1,0,0:0:0:0:
192,192,80217,1,0,0:0:0:0:
320,192,80244,1,0,0:0:0:0:
448,192,80271,1,0,0:0:0:0:
64,192,80298,1,0,0:0:0:0:
192,192,80326,1,0,0:0:0:0:
320,192,80353,1,0,0:0:0:0:
448,192,80380,1,0,0:0:0:0:
64,192,80407,1,0,0:0:0:0:
192,192,80434,1,0,0:0:0:0:
320,192,80461,1,0,0:0:0:0:
448,192,80489,1,0,0:0:0:0:
64,192,80516,1,0,0:0:0:0:
192,192,80543,1,0,0:0:0:0:
320,192,80570,1,0,0:0:0:0:
448,192,80597,1,0,0:0:0:0:
64,192,80624,1,0,0:0:0:0:
192,192,80652,1,0,0:0:0:0:
320,192,80679,1,0,0:0:0:0:
448,192,80706,1,0,0:0:0:0:
64,192,80733,1,0,0:0:0:0:
192,192,80760,1,0,0:0:0:0:
320,192,80788,1,0,0:0:0:0:
448,192,80815,1,0,0:0:0:0:
64,192,80842,1,0,0:0:0:0:
192,192,80869,1,0,0:0:0:0:
320,192,80896,1,0,0:0:0:0:
448,192,80923,1,0,0:0:0:0:
64,192,80951,1,0,0:0:0:0:
192,192,80978,1,0,0:0:0:0:
320,192,81005,1,0,0:0:0:0:
448,192,81032,1,0,0:0:0:0:
64,192,81059,1,0,0:0:0:0:
192,192,81086,1,0,0:0:0:0:
320,192,81114,1,0,0:0:0:0:
448,192,81141,1,0,0:0:0:0:
64,192,81168,1,0,0:0:0:0:
192,192,81195,1,0,0:0:0:0:
320,192,81222,1,0,0:0:0:0:
448,192,81249,1,0,0:0:0:0:
64,192,81277,1,0,0:0:0:0:
192,192,81304,1,0,0:0:0:0:
320,192,81331,1,0,0:0:0:0:
448,192,81358,1,0,0:0:0:0:
64,192,81385,1,0,0:0:0:0:
192,192,81413,1,0,0:0:0:0:
320,192,81440,1,0,0:0:0:0:
448,192,81467,1,0,0:0:0:0:
64,192,81494,1,0,0:0:0:0:
320,192,81521,1,0,0:0:0:0:
192,192,81548,1,0,0:0:0:0:
448,192,81576,1,0,0:0:0:0:
64,192,81603,1,0,0:0:0:0:
320,192,81630,1,0,0:0:0:0:
192,192,81657,1,0,0:0:0:0:
448,192,81684,1,0,0:0:0:0:
64,192,81711,1,0,0:0:0:0:
320,192,81739,1,0,0:0:0:0:
192,192,81766,1,0,0:0:0:0:
448,192,81793,1,0,0:0:0:0:
64,192,81820,1,0,0:0:0:0:
320,192,81847,1,0,0:0:0:0:
192,192,81874,1,0,0:0:0:0:
448,192,81902,1,0,0:0:0:0:
64,192,81929,1,0,0:0:0:0:
192,192,81956,1,0,0:0:0:0:
448,192,81983,1,0,0:0:0:0:
320,192,82010,1,0,0:0:0:0:
64,192,82038,1,0,0:0:0:0:
192,192,82065,1,0,0:0:0:0:
448,192,82092,1,0,0:0:0:0:
320,192,82119,1,0,0:0:0:0:
64,192,82146,1,0,0:0:0:0:
192,192,82173,1,0,0:0:0:0:
448,192,82201,1,0,0:0:0:0:
320,192,82228,1,0,0:0:0:0:
64,192,82255,1,0,0:0:0:0:
192,192,82282,1,0,0:0:0:0:
448,192,82309,1,0,0:0:0:0:
320,192,82336,1,0,0:0:0:0:
64,192,82364,1,0,0:0:0:0:
192,192,82391,1,0,0:0:0:0:
448,192,82418,1,0,0:0:0:0:
320,192,82445,1,0,0:0:0:0:
64,192,82472,1,0,0:0:0:0:
192,192,82499,1,0,0:0:0:0:
448,192,82527,1,0,0:0:0:0:
320,192,82554,1,0,0:0:0:0:
64,192,82581,1,0,0:0:0:0:
192,192,82608,1,0,0:0:0:0:
448,192,82635,1,0,0:0:0:0:
320,192,82663,1,0,0:0:0:0:
64,192,82690,1,0,0:0:0:0:
192,192,82717,1,0,0:0:0:0:
448,192,82744,1,0,0:0:0:0:
320,192,82771,1,0,0:0:0:0:
192,192,82798,1,0,0:0:0:0:
64,192,82826,1,0,0:0:0:0:
320,192,82853,1,0,0:0:0:0:
448,192,82880,1,0,0:0:0:0:
192,192,82907,1,0,0:0:0:0:
64,192,82934,1,0,0:0:0:0:
320,192,82961,1,0,0:0:0:0:
448,192,82989,1,0,0:0:0:0:
192,192,83016,1,0,0:0:0:0:
64,192,83043,1,0,0:0:0:0:
320,192,83070,1,0,0:0:0:0:
448,192,83097,1,0,0:0:0:0:
192,192,83124,1,0,0:0:0:0:
64,192,83152,1,0,0:0:0:0:
320,192,83179,1,0,0:0:0:0:
448,192,83206,1,0,0:0:0:0:
192,192,83233,1,0,0:0:0:0:
64,192,83260,1,0,0:0:0:0:
320,192,83288,1,0,0:0:0:0:
448,192,83315,1,0,0:0:0:0:
192,192,83342,1,0,0:0:0:0:
64,192,83369,1,0,0:0:0:0:
320,192,83396,1,0,0:0:0:0:
448,192,83423,1,0,0:0:0:0:
192,192,83451,1,0,0:0:0:0:
64,192,83478,1,0,0:0:0:0:
320,192,83505,1,0,0:0:0:0:
448,192,83532,1,0,0:0:0:0:
192,192,83559,1,0,0:0:0:0:
64,192,83586,1,0,0:0:0:0:
320,192,83614,1,0,0:0:0:0:
448,192,83641,1,0,0:0:0:0:
64,192,83668,1,0,0:0:0:0:
192,192,83695,1,0,0:0:0:0:
320,192,83722,1,0,0:0:0:0:
448,192,83749,1,0,0:0:0:0:
64,192,83777,1,0,0:0:0:0:
192,192,83804,1,0,0:0:0:0:
320,192,83831,1,0,0:0:0:0:
448,192,83858,1,0,0:0:0:0:
64,192,83885,1,0,0:0:0:0:
192,192,83913,1,0,0:0:0:0:
320,192,83940,1,0,0:0:0:0:
448,192,83967,1,0,0:0:0:0:
64,192,83994,1,0,0:0:0:0:
192,192,84021,1,0,0:0:0:0:
320,192,84048,1,0,0:0:0:0:
448,192,84076,1,0,0:0:0:0:
64,192,84103,1,0,0:0:0:0:
192,192,84130,1,0,0:0:0:0:
320,192,84157,1,0,0:0:0:0:
448,192,84184,1,0,0:0:0:0:
64,192,84211,1,0,0:0:0:0:
192,192,84239,1,0,0:0:0:0:
320,192,84266,1,0,0:0:0:0:
448,192,84293,1,0,0:0:0:0:
64,192,84320,1,0,0:0:0:0:
192,192,84347,1,0,0:0:0:0:
320,192,84374,1,0,0:0:0:0:
448,192,84402,1,0,0:0:0:0:
64,192,84429,1,0,0:0:0:0:
192,192,84456,1,0,0:0:0:0:
320,192,84483,1,0,0:0:0:0:
448,192,84510,1,0,0:0:0:0:
64,192,84538,1,0,0:0:0:0:
192,192,84565,1,0,0:0:0:0:
320,192,84592,1,0,0:0:0:0:
448,192,84619,1,0,0:0:0:0:
64,192,84646,1,0,0:0:0:0:
192,192,84673,1,0,0:0:0:0:
320,192,84701,1,0,0:0:0:0:
448,192,84728,1,0,0:0:0:0:
64,192,84755,1,0,0:0:0:0:
192,192,84782,1,0,0:0:0:0:
320,192,84809,1,0,0:0:0:0:
448,192,84836,1,0,0:0:0:0:
64,192,84864,1,0,0:0:0:0:
192,192,84891,1,0,0:0:0:0:
320,192,84918,1,0,0:0:0:0:
448,192,84945,1,0,0:0:0:0:
64,192,84972,1,0,0:0:0:0:
320,192,84999,1,0,0:0:0:0:
192,192,85027,1,0,0:0:0:0:
448,192,85054,1,0,0:0:0:0:
64,192,85081,1,0,0:0:0:0:
320,192,85108,1,0,0:0:0:0:
192,192,85135,1,0,0:0:0:0:
448,192,85163,1,0,0:0:0:0:
64,192,85190,1,0,0:0:0:0:
320,192,85217,1,0,0:0:0:0:
192,192,85244,1,0,0:0:0:0:
448,192,85271,1,0,0:0:0:0:
64,192,85298,1,0,0:0:0:0:
320,192,85326,1,0,0:0:0:0:
192,192,85353,1,0,0:0:0:0:
448,192,85380,1,0,0:0:0:0:
64,192,85407,1,0,0:0:0:0:
192,192,85434,1,0,0:0:0:0:
320,192,85461,1,0,0:0:0:0:
448,192,85489,1,0,0:0:0:0:
64,192,85516,1,0,0:0:0:0:
192,192,85543,1,0,0:0:0:0:
320,192,85570,1,0,0:0:0:0:
448,192,85597,1,0,0:0:0:0:
64,192,85624,1,0,0:0:0:0:
192,192,85652,1,0,0:0:0:0:
320,192,85679,1,0,0:0:0:0:
448,192,85706,1,0,0:0:0:0:
64,192,85733,1,0,0:0:0:0:
192,192,85760,1,0,0:0:0:0:
320,192,85788,1,0,0:0:0:0:
448,192,85815,1,0,0:0:0:0:
64,192,85842,1,0,0:0:0:0:
192,192,85869,1,0,0:0:0:0:
320,192,85896,1,0,0:0:0:0:
448,192,85923,1,0,0:0:0:0:
64,192,85951,1,0,0:0:0:0:
192,192,85978,1,0,0:0:0:0:
320,192,86005,1,0,0:0:0:0:
448,192,86032,1,0,0:0:0:0:
64,192,86059,1,0,0:0:0:0:
192,192,86086,1,0,0:0:0:0:
320,192,86114,1,0,0:0:0:0:
448,192,86141,1,0,0:0:0:0:
64,192,86168,1,0,0:0:0:0:
192,192,86195,1,0,0:0:0:0:
320,192,86222,1,0,0:0:0:0:
448,192,86249,1,0,0:0:0:0:
64,192,86277,1,0,0:0:0:0:
192,192,86304,1,0,0:0:0:0:
320,192,86331,1,0,0:0:0:0:
448,192,86358,1,0,0:0:0:0:
64,192,86385,1,0,0:0:0:0:
192,192,86413,1,0,0:0:0:0:
320,192,86440,1,0,0:0:0:0:
448,192,86467,1,0,0:0:0:0:
64,192,86494,1,0,0:0:0:0:
192,192,86521,1,0,0:0:0:0:
320,192,86548,1,0,0:0:0:0:
448,192,86576,1,0,0:0:0:0:
64,192,86603,1,0,0:0:0:0:
192,192,86630,1,0,0:0:0:0:
320,192,86657,1,0,0:0:0:0:
448,192,86684,1,0,0:0:0:0:
64,192,86711,1,0,0:0:0:0:
320,192,86739,1,0,0:0:0:0:
192,192,86766,1,0,0:0:0:0:
448,192,86793,1,0,0:0:0:0:
64,192,86820,1,0,0:0:0:0:
320,192,86847,1,0,0:0:0:0:
192,192,86874,1,0,0:0:0:0:
448,192,86902,1,0,0:0:0:0:
64,192,86929,1,0,0:0:0:0:
320,192,86956,1,0,0:0:0:0:
192,192,86983,1,0,0:0:0:0:
448,192,87010,1,0,0:0:0:0:
64,192,87038,1,0,0:0:0:0:
320,192,87065,1,0,0:0:0:0:
192,192,87092,1,0,0:0:0:0:
448,192,87119,1,0,0:0:0:0:
64,192,87146,1,0,0:0:0:0:
192,192,87173,1,0,0:0:0:0:
320,192,87201,1,0,0:0:0:0:
448,192,87228,1,0,0:0:0:0:
64,192,87255,1,0,0:0:0:0:
192,192,87282,1,0,0:0:0:0:
320,192,87309,1,0,0:0:0:0:
448,192,87336,1,0,0:0:0:0:
64,192,87364,1,0,0:0:0:0:
192,192,87391,1,0,0:0:0:0:
320,192,87418,1,0,0:0:0:0:
448,192,87445,1,0,0:0:0:0:
64,192,87472,1,0,0:0:0:0:
192,192,87499,1,0,0:0:0:0:
320,192,87527,1,0,0:0:0:0:
448,192,87554,1,0,0:0:0:0:
64,192,87581,1,0,0:0:0:0:
192,192,87608,1,0,0:0:0:0:
320,192,87635,1,0,0:0:0:0:
448,192,87663,1,0,0:0:0:0:
64,192,87690,1,0,0:0:0:0:
192,192,87717,1,0,0:0:0:0:
320,192,87744,1,0,0:0:0:0:
448,192,87771,1,0,0:0:0:0:
64,192,87798,1,0,0:0:0:0:
192,192,87826,1,0,0:0:0:0:
320,192,87853,1,0,0:0:0:0:
448,192,87880,1,0,0:0:0:0:
64,192,87907,1,0,0:0:0:0:
192,192,87934,1,0,0:0:0:0:
320,192,87961,1,0,0:0:0:0:
448,192,87989,1,0,0:0:0:0:
64,192,88016,1,0,0:0:0:0:
192,192,88043,1,0,0:0:0:0:
320,192,88070,1,0,0:0:0:0:
448,192,88097,1,0,0:0:0:0:
64,192,88124,1,0,0:0:0:0:
192,192,88152,1,0,0:0:0:0:
320,192,88179,1,0,0:0:0:0:
448,192,88206,1,0,0:0:0:0:
64,192,88233,1,0,0:0:0:0:
192,192,88260,1,0,0:0:0:0:
320,192,88288,1,0,0:0:0:0:
448,192,88315,1,0,0:0:0:0:
64,192,88342,1,0,0:0:0:0:
192,192,88369,1,0,0:0:0:0:
320,192,88396,1,0,0:0:0:0:
448,192,88423,1,0,0:0:0:0:
64,192,88451,1,0,0:0:0:0:
320,192,88478,1,0,0:0:0:0:
192,192,88505,1,0,0:0:0:0:
448,192,88532,1,0,0:0:0:0:
64,192,88559,1,0,0:0:0:0:
320,192,88586,1,0,0:0:0:0:
192,192,88614,1,0,0:0:0:0:
448,192,88668,1,0,0:0:0:0:
64,192,88668,1,0,0:0:0:0:
320,192,88695,1,0,0:0:0:0:
192,192,88722,1,0,0:0:0:0:
448,192,88749,1,0,0:0:0:0:
64,192,88777,1,0,0:0:0:0:
320,192,88831,1,0,0:0:0:0:
192,192,88831,1,0,0:0:0:0:
448,192,88858,1,0,0:0:0:0:
64,192,88885,1,0,0:0:0:0:
192,192,88913,1,0,0:0:0:0:
448,192,88967,1,0,0:0:0:0:
320,192,88994,1,0,0:0:0:0:
64,192,88994,1,0,0:0:0:0:
192,192,89021,1,0,0:0:0:0:
448,192,89048,1,0,0:0:0:0:
320,192,89103,1,0,0:0:0:0:
64,192,89130,1,0,0:0:0:0:
192,192,89130,1,0,0:0:0:0:
448,192,89157,1,0,0:0:0:0:
320,192,89184,1,0,0:0:0:0:
64,192,89239,1,0,0:0:0:0:
192,192,89266,1,0,0:0:0:0:
448,192,89293,1,0,0:0:0:0:
320,192,89293,1,0,0:0:0:0:
64,192,89320,1,0,0:0:0:0:
192,192,89374,1,0,0:0:0:0:
448,192,89402,1,0,0:0:0:0:
320,192,89429,1,0,0:0:0:0:
64,192,89456,1,0,0:0:0:0:
192,192,89456,1,0,0:0:0:0:
448,192,89510,1,0,0:0:0:0:
320,192,89538,1,0,0:0:0:0:
64,192,89565,1,0,0:0:0:0:
192,192,89592,1,0,0:0:0:0:
448,192,89619,1,0,0:0:0:0:
320,192,89646,1,0,0:0:0:0:
64,192,89673,1,0,0:0:0:0:
192,192,89701,1,0,0:0:0:0:
448,192,89728,1,0,0:0:0:0:
320,192,89755,1,0,0:0:0:0:
64,192,89755,1,0,0:0:0:0:
192,192,89755,1,0,0:0:0:0:
320,192,89999,1,0,0:0:0:0:
448,192,89999,1,0,0:0:0:0:
64,192,90217,1,0,0:0:0:0:
192,192,90217,1,0,0:0:0:0:
320,192,90434,1,0,0:0:0:0:
448,192,90434,1,0,0:0:0:0:
64,192,90652,1,0,0:0:0:0:
192,192,90679,1,0,0:0:0:0:
320,192,90706,1,0,0:0:0:0:
448,192,90733,1,0,0:0:0:0:
64,192,90760,1,0,0:0:0:0:
192,192,90788,1,0,0:0:0:0:
320,192,90815,1,0,0:0:0:0:
448,192,90842,1,0,0:0:0:0:
64,192,90869,1,0,0:0:0:0:
192,192,90896,1,0,0:0:0:0:
320,192,90923,1,0,0:0:0:0:
448,192,90951,1,0,0:0:0:0:
64,192,90978,1,0,0:0:0:0:
192,192,91005,1,0,0:0:0:0:
320,192,91032,1,0,0:0:0:0:
448,192,91059,1,0,0:0:0:0:
64,192,91086,1,0,0:0:0:0:
192,192,91114,1,0,0:0:0:0:
320,192,91141,1,0,0:0:0:0:
448,192,91168,1,0,0:0:0:0:
64,192,91195,1,0,0:0:0:0:
192,192,91222,1,0,0:0:0:0:
320,192,91249,1,0,0:0:0:0:
448,192,91277,1,0,0:0:0:0:
64,192,91304,1,0,0:0:0:0:
192,192,91331,1,0,0:0:0:0:
320,192,91358,1,0,0:0:0:0:
448,192,91385,1,0,0:0:0:0:
64,192,91413,1,0,0:0:0:0:
192,192,91440,1,0,0:0:0:0:
320,192,91467,1,0,0:0:0:0:
448,192,91494,1,0,0:0:0:0:
64,192,91521,1,0,0:0:0:0:
192,192,91548,1,0,0:0:0:0:
320,192,91576,1,0,0:0:0:0:
448,192,91603,1,0,0:0:0:0:
64,192,91630,1,0,0:0:0:0:
192,192,91657,1,0,0:0:0:0:
320,192,91684,1,0,0:0:0:0:
448,192,91711,1,0,0:0:0:0:
64,192,91739,1,0,0:0:0:0:
192,192,91766,1,0,0:0:0:0:
320,192,91793,1,0,0:0:0:0:
448,192,91820,1,0,0:0:0:0:
64,192,91847,1,0,0:0:0:0:
192,192,91874,1,0,0:0:0:0:
320,192,91902,1,0,0:0:0:0:
448,192,91929,1,0,0:0:0:0:
64,192,91956,1,0,0:0:0:0:
320,192,91983,1,0,0:0:0:0:
192,192,92010,1,0,0:0:0:0:
448,192,92038,1,0,0:0:0:0:
64,192,92065,1,0,0:0:0:0:
320,192,92092,1,0,0:0:0:0:
192,192,92119,1,0,0:0:0:0:
448,192,92146,1,0,0:0:0:0:
64,192,92173,1,0,0:0:0:0:
320,192,92201,1,0,0:0:0:0:
192,192,92228,1,0,0:0:0:0:
448,192,92255,1,0,0:0:0:0:
64,192,92282,1,0,0:0:0:0:
320,192,92309,1,0,0:0:0:0:
192,192,92336,1,0,0:0:0:0:
448,192,92364,1,0,0:0:0:0:
64,192,92391,1,0,0:0:0:0:
192,192,92418,1,0,0:0:0:0:
320,192,92445,1,0,0:0:0:0:
448,192,92472,1,0,0:0:0:0:
64,192,92499,1,0,0:0:0:0:
192,192,92527,1,0,0:0:0:0:
320,192,92554,1,0,0:0:0:0:
448,192,92581,1,0,0:0:0:0:
64,192,92608,1,0,0:0:0:0:
192,192,92635,1,0,0:0:0:0:
320,192,92663,1,0,0:0:0:0:
448,192,92690,1,0,0:0:0:0:
64,192,92717,1,0,0:0:0:0:
192,192,92744,1,0,0:0:0:0:
320,192,92771,1,0,0:0:0:0:
448,192,92798,1,0,0:0:0:0:
64,192,92826,1,0,0:0:0:0:
192,192,92853,1,0,0:0:0:0:
320,192,92880,1,0,0:0:0:0:
448,192,92907,1,0,0:0:0:0:
64,192,92934,1,0,0:0:0:0:
192,192,92961,1,0,0:0:0:0:
320,192,92989,1,0,0:0:0:0:
448,192,93016,1,0,0:0:0:0:
64,192,93043,1,0,0:0:0:0:
192,192,93070,1,0,0:0:0:0:
320,192,93097,1,0,0:0:0:0:
448,192,93124,1,0,0:0:0:0:
64,192,93152,1,0,0:0:0:0:
192,192,93179,1,0,0:0:0:0:
320,192,93206,1,0,0:0:0:0:
448,192,93233,1,0,0:0:0:0:
64,192,93260,1,0,0:0:0:0:
192,192,93288,1,0,0:0:0:0:
320,192,93315,1,0,0:0:0:0:
448,192,93342,1,0,0:0:0:0:
64,192,93369,1,0,0:0:0:0:
192,192,93396,1,0,0:0:0:0:
320,192,93423,1,0,0:0:0:0:
448,192,93451,1,0,0:0:0:0:
64,192,93478,1,0,0:0:0:0:
192,192,93505,1,0,0:0:0:0:
320,192,93532,1,0,0:0:0:0:
448,192,93559,1,0,0:0:0:0:
64,192,93586,1,0,0:0:0:0:
192,192,93614,1,0,0:0:0:0:
320,192,93641,1,0,0:0:0:0:
448,192,93668,1,0,0:0:0:0:
64,192,93695,1,0,0:0:0:0:
320,192,93722,1,0,0:0:0:0:
192,192,93749,1,0,0:0:0:0:
448,192,93777,1,0,0:0:0:0:
64,192,93804,1,0,0:0:0:0:
320,192,93831,1,0,0:0:0:0:
192,192,93858,1,0,0:0:0:0:
448,192,93885,1,0,0:0:0:0:
64,192,93913,1,0,0:0:0:0:
320,192,93940,1,0,0:0:0:0:
192,192,93967,1,0,0:0:0:0:
448,192,93994,1,0,0:0:0:0:
64,192,94021,1,0,0:0:0:0:
320,192,94048,1,0,0:0:0:0:
192,192,94076,1,0,0:0:0:0:
448,192,94103,1,0,0:0:0:0:
64,192,94130,1,0,0:0:0:0:
192,192,94157,1,0,0:0:0:0:
320,192,94184,1,0,0:0:0:0:
448,192,94211,1,0,0:0:0:0:
64,192,94239,1,0,0:0:0:0:
192,192,94266,1,0,0:0:0:0:
320,192,94293,1,0,0:0:0:0:
448,192,94320,1,0,0:0:0:0:
64,192,94347,1,0,0:0:0:0:
192,192,94374,1,0,0:0:0:0:
320,192,94402,1,0,0:0:0:0:
448,192,94429,1,0,0:0:0:0:
64,192,94456,1,0,0:0:0:0:
192,192,94483,1,0,0:0:0:0:
320,192,94510,1,0,0:0:0:0:
448,192,94538,1,0,0:0:0:0:
64,192,94565,1,0,0:0:0:0:
192,192,94592,1,0,0:0:0:0:
320,192,94619,1,0,0:0:0:0:
448,192,94646,1,0,0:0:0:0:
64,192,94673,1,0,0:0:0:0:
192,192,94701,1,0,0:0:0:0:
320,192,94728,1,0,0:0:0:0:
448,192,94755,1,0,0:0:0:0:
64,192,94782,1,0,0:0:0:0:
192,192,94809,1,0,0:0:0:0:
320,192,94836,1,0,0:0:0:0:
448,192,94864,1,0,0:0:0:0:
64,192,94891,1,0,0:0:0:0:
192,192,94918,1,0,0:0:0:0:
320,192,94945,1,0,0:0:0:0:
448,192,94972,1,0,0:0:0:0:
64,192,94999,1,0,0:0:0:0:
192,192,95027,1,0,0:0:0:0:
320,192,95054,1,0,0:0:0:0:
448,192,95081,1,0,0:0:0:0:
64,192,95108,1,0,0:0:0:0:
192,192,95135,1,0,0:0:0:0:
320,192,95163,1,0,0:0:0:0:
448,192,95190,1,0,0:0:0:0:
64,192,95217,1,0,0:0:0:0:
192,192,95244,1,0,0:0:0:0:
320,192,95271,1,0,0:0:0:0:
448,192,95298,1,0,0:0:0:0:
64,192,95326,1,0,0:0:0:0:
192,192,95353,1,0,0:0:0:0:
320,192,95380,1,0,0:0:0:0:
448,192,95407,1,0,0:0:0:0:
64,192,95434,1,0,0:0:0:0:
320,192,95461,1,0,0:0:0:0:
192,192,95489,1,0,0:0:0:0:
448,192,95516,1,0,0:0:0:0:
64,192,95543,1,0,0:0:0:0:
320,192,95570,1,0,0:0:0:0:
192,192,95597,1,0,0:0:0:0:
448,192,95624,1,0,0:0:0:0:
64,192,95652,1,0,0:0:0:0:
320,192,95679,1,0,0:0:0:0:
192,192,95706,1,0,0:0:0:0:
448,192,95733,1,0,0:0:0:0:
64,192,95760,1,0,0:0:0:0:
320,192,95788,1,0,0:0:0:0:
192,192,95815,1,0,0:0:0:0:
448,192,95842,1,0,0:0:0:0:
64,192,95869,1,0,0:0:0:0:
192,192,95896,1,0,0:0:0:0:
448,192,95923,1,0,0:0:0:0:
320,192,95951,1,0,0:0:0:0:
64,192,95978,1,0,0:0:0:0:
192,192,96005,1,0,0:0:0:0:
448,192,96032,1,0,0:0:0:0:
320,192,96059,1,0,0:0:0:0:
64,192,96086,1,0,0:0:0:0:
192,192,96114,1,0,0:0:0:0:
448,192,96141,1,0,0:0:0:0:
320,192,96168,1,0,0:0:0:0:
64,192,96195,1,0,0:0:0:0:
192,192,96222,1,0,0:0:0:0:
448,192,96249,1,0,0:0:0:0:
320,192,96277,1,0,0:0:0:0:
64,192,96304,1,0,0:0:0:0:
192,192,96331,1,0,0:0:0:0:
448,192,96358,1,0,0:0:0:0:
320,192,96385,1,0,0:0:0:0:
64,192,96413,1,0,0:0:0:0:
192,192,96440,1,0,0:0:0:0:
448,192,96467,1,0,0:0:0:0:
320,192,96494,1,0,0:0:0:0:
64,192,96521,1,0,0:0:0:0:
192,192,96548,1,0,0:0:0:0:
448,192,96576,1,0,0:0:0:0:
320,192,96603,1,0,0:0:0:0:
64,192,96630,1,0,0:0:0:0:
192,192,96657,1,0,0:0:0:0:
448,192,96684,1,0,0:0:0:0:
320,192,96711,1,0,0:0:0:0:
192,192,96739,1,0,0:0:0:0:
192,192,96956,1,0,0:0:0:0:
64,192,96983,1,0,0:0:0:0:
320,192,97010,1,0,0:0:0:0:
448,192,97038,1,0,0:0:0:0:
192,192,97065,1,0,0:0:0:0:
64,192,97092,1,0,0:0:0:0:
320,192,97119,1,0,0:0:0:0:
448,192,97146,1,0,0:0:0:0:
192,192,97173,1,0,0:0:0:0:
64,192,97201,1,0,0:0:0:0:
320,192,97228,1,0,0:0:0:0:
448,192,97255,1,0,0:0:0:0:
192,192,97282,1,0,0:0:0:0:
64,192,97309,1,0,0:0:0:0:
320,192,97336,1,0,0:0:0:0:
448,192,97364,1,0,0:0:0:0:
192,192,97391,1,0,0:0:0:0:
64,192,97418,1,0,0:0:0:0:
320,192,97445,1,0,0:0:0:0:
448,192,97472,1,0,0:0:0:0:
192,192,97499,1,0,0:0:0:0:
64,192,97527,1,0,0:0:0:0:
320,192,97554,1,0,0:0:0:0:
448,192,97581,1,0,0:0:0:0:
64,192,97608,1,0,0:0:0:0:
64,192,97826,1,0,0:0:0:0:
448,192,98043,1,0,0:0:0:0:
448,192,98260,1,0,0:0:0:0:
320,192,98478,1,0,0:0:0:0:
320,192,98695,1,0,0:0:0:0:
192,192,98913,1,0,0:0:0:0:
192,192,99130,1,0,0:0:0:0:
64,192,99347,1,0,0:0:0:0:
64,192,99565,1,0,0:0:0:0:
448,192,99782,1,0,0:0:0:0:
448,192,99999,1,0,0:0:0:0:
320,192,100217,1,0,0:0:0:0:
320,192,100434,1,0,0:0:0:0:
192,192,100652,1,0,0:0:0:0:
192,192,100869,1,0,0:0:0:0:
64,192,101086,1,0,0:0:0:0:
64,192,101304,1,0,0:0:0:0:
448,192,101521,1,0,0:0:0:0:
448,192,101739,1,0,0:0:0:0:
320,192,101956,1,0,0:0:0:0:
320,192,102173,1,0,0:0:0:0:
192,192,102391,1,0,0:0:0:0:
192,192,102608,1,0,0:0:0:0:
64,192,102826,1,0,0:0:0:0:
64,192,103043,1,0,0:0:0:0:
320,192,103260,1,0,0:0:0:0:
320,192,103478,1,0,0:0:0:0:
192,192,103695,1,0,0:0:0:0:
192,192,103913,1,0,0:0:0:0:
192,192,104130,1,0,0:0:0:0:
64,192,104347,1,0,0:0:0:0:
64,192,104565,1,0,0:0:0:0:
64,192,104782,1,0,0:0:0:0:
448,192,104999,1,0,0:0:0:0:
448,192,105217,1,0,0:0:0:0:
320,192,105434,1,0,0:0:0:0:
320,192,105652,1,0,0:0:0:0:
192,192,105869,1,0,0:0:0:0:
192,192,106086,1,0,0:0:0:0:
64,192,106304,1,0,0:0:0:0:
64,192,106521,1,0,0:0:0:0:
448,192,106739,1,0,0:0:0:0:
448,192,106956,1,0,0:0:0:0:
320,192,107173,1,0,0:0:0:0:
320,192,107391,1,0,0:0:0:0:
192,192,107608,1,0,0:0:0:0:
192,192,107826,1,0,0:0:0:0:
64,192,108043,1,0,0:0:0:0:
64,192,108260,1,0,0:0:0:0:
448,192,108478,1,0,0:0:0:0:
448,192,108695,1,0,0:0:0:0:
320,192,108913,1,0,0:0:0:0:
320,192,109130,1,0,0:0:0:0:
192,192,109347,1,0,0:0:0:0:
192,192,109565,1,0,0:0:0:0:
64,192,109782,1,0,0:0:0:0:
64,192,109999,1,0,0:0:0:0:
320,192,110217,1,0,0:0:0:0:
320,192,110434,1,0,0:0:0:0:
192,192,110652,1,0,0:0:0:0:
192,192,110869,1,0,0:0:0:0:
192,192,111086,1,0,0:0:0:0:
320,192,111304,1,0,0:0:0:0:
64,192,111521,1,0,0:0:0:0:
192,192,111847,1,0,0:0:0:0:
320,192,111956,1,0,0:0:0:0:
448,192,111956,1,0,0:0:0:0:
320,192,112608,1,0,0:0:0:0:
192,192,112826,1,0,0:0:0:0:
192,192,112934,1,0,0:0:0:0:
320,192,113043,1,0,0:0:0:0:
320,192,113152,1,0,0:0:0:0:
64,192,113260,1,0,0:0:0:0:
192,192,113288,1,0,0:0:0:0:
320,192,113315,1,0,0:0:0:0:
448,192,113342,1,0,0:0:0:0:
64,192,113369,1,0,0:0:0:0:
192,192,113396,1,0,0:0:0:0:
320,192,113423,1,0,0:0:0:0:
448,192,113451,1,0,0:0:0:0:
64,192,113478,1,0,0:0:0:0:
192,192,113505,1,0,0:0:0:0:
320,192,113532,1,0,0:0:0:0:
448,192,113559,1,0,0:0:0:0:
64,192,113586,1,0,0:0:0:0:
192,192,113614,1,0,0:0:0:0:
320,192,113641,1,0,0:0:0:0:
448,192,113668,1,0,0:0:0:0:
64,192,113695,1,0,0:0:0:0:
192,192,113722,1,0,0:0:0:0:
320,192,113749,1,0,0:0:0:0:
448,192,113777,1,0,0:0:0:0:
64,192,113804,1,0,0:0:0:0:
192,192,113831,1,0,0:0:0:0:
320,192,113858,1,0,0:0:0:0:
448,192,113885,1,0,0:0:0:0:
64,192,113913,1,0,0:0:0:0:
192,192,113940,1,0,0:0:0:0:
320,192,113967,1,0,0:0:0:0:
448,192,113994,1,0,0:0:0:0:
64,192,114021,1,0,0:0:0:0:
192,192,114048,1,0,0:0:0:0:
320,192,114076,1,0,0:0:0:0:
448,192,114103,1,0,0:0:0:0:
64,192,114130,1,0,0:0:0:0:
192,192,114157,1,0,0:0:0:0:
320,192,114184,1,0,0:0:0:0:
448,192,114211,1,0,0:0:0:0:
64,192,114239,1,0,0:0:0:0:
192,192,114266,1,0,0:0:0:0:
320,192,114293,1,0,0:0:0:0:
448,192,114320,1,0,0:0:0:0:
64,192,114347,1,0,0:0:0:0:
192,192,114374,1,0,0:0:0:0:
320,192,114402,1,0,0:0:0:0:
448,192,114429,1,0,0:0:0:0:
64,192,114456,1,0,0:0:0:0:
192,192,114483,1,0,0:0:0:0:
320,192,114510,1,0,0:0:0:0:
448,192,114538,1,0,0:0:0:0:
192,192,114565,1,0,0:0:0:0:
192,192,114782,1,0,0:0:0:0:
64,192,114999,1,0,0:0:0:0:
192,192,115027,1,0,0:0:0:0:
320,192,115054,1,0,0:0:0:0:
448,192,115081,1,0,0:0:0:0:
64,192,115108,1,0,0:0:0:0:
192,192,115135,1,0,0:0:0:0:
320,192,115163,1,0,0:0:0:0:
448,192,115190,1,0,0:0:0:0:
64,192,115217,1,0,0:0:0:0:
192,192,115244,1,0,0:0:0:0:
320,192,115271,1,0,0:0:0:0:
448,192,115298,1,0,0:0:0:0:
64,192,115326,1,0,0:0:0:0:
192,192,115353,1,0,0:0:0:0:
320,192,115380,1,0,0:0:0:0:
448,192,115407,1,0,0:0:0:0:
64,192,115434,1,0,0:0:0:0:
192,192,115461,1,0,0:0:0:0:
320,192,115489,1,0,0:0:0:0:
448,192,115516,1,0,0:0:0:0:
64,192,115543,1,0,0:0:0:0:
192,192,115570,1,0,0:0:0:0:
320,192,115597,1,0,0:0:0:0:
448,192,115624,1,0,0:0:0:0:
64,192,115652,1,0,0:0:0:0:
192,192,115679,1,0,0:0:0:0:
320,192,115706,1,0,0:0:0:0:
448,192,115733,1,0,0:0:0:0:
64,192,115760,1,0,0:0:0:0:
192,192,115788,1,0,0:0:0:0:
320,192,115815,1,0,0:0:0:0:
448,192,115842,1,0,0:0:0:0:
64,192,115869,1,0,0:0:0:0:
192,192,115896,1,0,0:0:0:0:
320,192,115923,1,0,0:0:0:0:
448,192,115951,1,0,0:0:0:0:
64,192,115978,1,0,0:0:0:0:
192,192,116005,1,0,0:0:0:0:
320,192,116032,1,0,0:0:0:0:
448,192,116059,1,0,0:0:0:0:
64,192,116086,1,0,0:0:0:0:
192,192,116114,1,0,0:0:0:0:
320,192,116141,1,0,0:0:0:0:
448,192,116168,1,0,0:0:0:0:
64,192,116195,1,0,0:0:0:0:
192,192,116222,1,0,0:0:0:0:
320,192,116249,1,0,0:0:0:0:
448,192,116277,1,0,0:0:0:0:
192,192,116304,1,0,0:0:0:0:
320,192,116521,1,0,0:0:0:0:
64,192,116739,1,0,0:0:0:0:
192,192,116766,1,0,0:0:0:0:
320,192,116793,1,0,0:0:0:0:
448,192,116820,1,0,0:0:0:0:
64,192,116847,1,0,0:0:0:0:
192,192,116874,1,0,0:0:0:0:
320,192,116902,1,0,0:0:0:0:
448,192,116929,1,0,0:0:0:0:
64,192,116956,1,0,0:0:0:0:
192,192,116983,1,0,0:0:0:0:
320,192,117010,1,0,0:0:0:0:
448,192,117038,1,0,0:0:0:0:
64,192,117065,1,0,0:0:0:0:
192,192,117092,1,0,0:0:0:0:
320,192,117119,1,0,0:0:0:0:
448,192,117146,1,0,0:0:0:0:
64,192,117173,1,0,0:0:0:0:
192,192,117201,1,0,0:0:0:0:
320,192,117228,1,0,0:0:0:0:
448,192,117255,1,0,0:0:0:0:
64,192,117282,1,0,0:0:0:0:
192,192,117309,1,0,0:0:0:0:
320,192,117336,1,0,0:0:0:0:
448,192,117364,1,0,0:0:0:0:
64,192,117391,1,0,0:0:0:0:
192,192,117418,1,0,0:0:0:0:
320,192,117445,1,0,0:0:0:0:
448,192,117472,1,0,0:0:0:0:
64,192,117499,1,0,0:0:0:0:
192,192,117527,1,0,0:0:0:0:
320,192,117554,1,0,0:0:0:0:
448,192,117581,1,0,0:0:0:0:
64,192,117608,1,0,0:0:0:0:
192,192,117635,1,0,0:0:0:0:
320,192,117663,1,0,0:0:0:0:
448,192,117690,1,0,0:0:0:0:
64,192,117717,1,0,0:0:0:0:
192,192,117744,1,0,0:0:0:0:
320,192,117771,1,0,0:0:0:0:
448,192,117798,1,0,0:0:0:0:
64,192,117826,1,0,0:0:0:0:
192,192,117853,1,0,0:0:0:0:
320,192,117880,1,0,0:0:0:0:
448,192,117907,1,0,0:0:0:0:
64,192,117934,1,0,0:0:0:0:
192,192,117961,1,0,0:0:0:0:
320,192,117989,1,0,0:0:0:0:
448,192,118016,1,0,0:0:0:0:
320,192,118043,1,0,0:0:0:0:
320,192,118260,1,0,0:0:0:0:
64,192,118478,1,0,0:0:0:0:
192,192,118505,1,0,0:0:0:0:
448,192,118532,1,0,0:0:0:0:
320,192,118559,1,0,0:0:0:0:
64,192,118586,1,0,0:0:0:0:
192,192,118614,1,0,0:0:0:0:
448,192,118641,1,0,0:0:0:0:
320,192,118668,1,0,0:0:0:0:
64,192,118695,1,0,0:0:0:0:
192,192,118722,1,0,0:0:0:0:
448,192,118749,1,0,0:0:0:0:
320,192,118777,1,0,0:0:0:0:
64,192,118804,1,0,0:0:0:0:
192,192,118831,1,0,0:0:0:0:
448,192,118858,1,0,0:0:0:0:
320,192,118885,1,0,0:0:0:0:
64,192,118913,1,0,0:0:0:0:
192,192,118940,1,0,0:0:0:0:
448,192,118967,1,0,0:0:0:0:
320,192,118994,1,0,0:0:0:0:
64,192,119021,1,0,0:0:0:0:
192,192,119048,1,0,0:0:0:0:
448,192,119076,1,0,0:0:0:0:
320,192,119103,1,0,0:0:0:0:
64,192,119130,1,0,0:0:0:0:
192,192,119157,1,0,0:0:0:0:
448,192,119184,1,0,0:0:0:0:
320,192,119211,1,0,0:0:0:0:
64,192,119239,1,0,0:0:0:0:
192,192,119266,1,0,0:0:0:0:
448,192,119293,1,0,0:0:0:0:
320,192,119320,1,0,0:0:0:0:
192,192,119347,1,0,0:0:0:0:
64,192,119374,1,0,0:0:0:0:
320,192,119402,1,0,0:0:0:0:
448,192,119429,1,0,0:0:0:0:
192,192,119456,1,0,0:0:0:0:
64,192,119483,1,0,0:0:0:0:
320,192,119510,1,0,0:0:0:0:
448,192,119538,1,0,0:0:0:0:
192,192,119565,1,0,0:0:0:0:
64,192,119592,1,0,0:0:0:0:
320,192,119619,1,0,0:0:0:0:
448,192,119646,1,0,0:0:0:0:
192,192,119673,1,0,0:0:0:0:
64,192,119701,1,0,0:0:0:0:
320,192,119728,1,0,0:0:0:0:
448,192,119755,1,0,0:0:0:0:
192,192,119782,1,0,0:0:0:0:
64,192,119809,1,0,0:0:0:0:
320,192,119836,1,0,0:0:0:0:
448,192,119864,1,0,0:0:0:0:
192,192,119891,1,0,0:0:0:0:
64,192,119918,1,0,0:0:0:0:
320,192,119945,1,0,0:0:0:0:
448,192,119972,1,0,0:0:0:0:
192,192,119999,1,0,0:0:0:0:
64,192,120027,1,0,0:0:0:0:
320,192,120054,1,0,0:0:0:0:
448,192,120081,1,0,0:0:0:0:
192,192,120108,1,0,0:0:0:0:
64,192,120135,1,0,0:0:0:0:
320,192,120163,1,0,0:0:0:0:
448,192,120190,1,0,0:0:0:0:
64,192,120217,1,0,0:0:0:0:
192,192,120244,1,0,0:0:0:0:
320,192,120271,1,0,0:0:0:0:
448,192,120298,1,0,0:0:0:0:
64,192,120326,1,0,0:0:0:0:
192,192,120353,1,0,0:0:0:0:
320,192,120380,1,0,0:0:0:0:
448,192,120407,1,0,0:0:0:0:
64,192,120434,1,0,0:0:0:0:
192,192,120461,1,0,0:0:0:0:
320,192,120489,1,0,0:0:0:0:
448,192,120516,1,0,0:0:0:0:
64,192,120543,1,0,0:0:0:0:
192,192,120570,1,0,0:0:0:0:
320,192,120597,1,0,0:0:0:0:
448,192,120624,1,0,0:0:0:0:
64,192,120652,1,0,0:0:0:0:
192,192,120679,1,0,0:0:0:0:
320,192,120706,1,0,0:0:0:0:
448,192,120733,1,0,0:0:0:0:
64,192,120760,1,0,0:0:0:0:
192,192,120788,1,0,0:0:0:0:
320,192,120815,1,0,0:0:0:0:
448,192,120842,1,0,0:0:0:0:
64,192,120869,1,0,0:0:0:0:
192,192,120896,1,0,0:0:0:0:
320,192,120923,1,0,0:0:0:0:
448,192,120951,1,0,0:0:0:0:
64,192,120978,1,0,0:0:0:0:
192,192,121005,1,0,0:0:0:0:
320,192,121032,1,0,0:0:0:0:
448,192,121059,1,0,0:0:0:0:
64,192,121086,1,0,0:0:0:0:
192,192,121114,1,0,0:0:0:0:
320,192,121141,1,0,0:0:0:0:
448,192,121168,1,0,0:0:0:0:
64,192,121195,1,0,0:0:0:0:
192,192,121222,1,0,0:0:0:0:
320,192,121249,1,0,0:0:0:0:
448,192,121277,1,0,0:0:0:0:
64,192,121304,1,0,0:0:0:0:
192,192,121331,1,0,0:0:0:0:
320,192,121358,1,0,0:0:0:0:
448,192,121385,1,0,0:0:0:0:
64,192,121413,1,0,0:0:0:0:
192,192,121440,1,0,0:0:0:0:
320,192,121467,1,0,0:0:0:0:
448,192,121494,1,0,0:0:0:0:
192,192,121521,1,0,0:0:0:0:
192,192,121739,1,0,0:0:0:0:
64,192,121956,1,0,0:0:0:0:
192,192,121983,1,0,0:0:0:0:
320,192,122010,1,0,0:0:0:0:
448,192,122038,1,0,0:0:0:0:
64,192,122065,1,0,0:0:0:0:
192,192,122092,1,0,0:0:0:0:
320,192,122119,1,0,0:0:0:0:
448,192,122146,1,0,0:0:0:0:
64,192,122173,1,0,0:0:0:0:
192,192,122201,1,0,0:0:0:0:
320,192,122228,1,0,0:0:0:0:
448,192,122255,1,0,0:0:0:0:
64,192,122282,1,0,0:0:0:0:
192,192,122309,1,0,0:0:0:0:
320,192,122336,1,0,0:0:0:0:
448,192,122364,1,0,0:0:0:0:
64,192,122391,1,0,0:0:0:0:
192,192,122418,1,0,0:0:0:0:
320,192,122445,1,0,0:0:0:0:
448,192,122472,1,0,0:0:0:0:
64,192,122499,1,0,0:0:0:0:
192,192,122527,1,0,0:0:0:0:
320,192,122554,1,0,0:0:0:0:
448,192,122581,1,0,0:0:0:0:
64,192,122608,1,0,0:0:0:0:
192,192,122635,1,0,0:0:0:0:
320,192,122663,1,0,0:0:0:0:
448,192,122690,1,0,0:0:0:0:
64,192,122717,1,0,0:0:0:0:
192,192,122744,1,0,0:0:0:0:
320,192,122771,1,0,0:0:0:0:
448,192,122798,1,0,0:0:0:0:
64,192,122826,1,0,0:0:0:0:
192,192,122853,1,0,0:0:0:0:
320,192,122880,1,0,0:0:0:0:
448,192,122907,1,0,0:0:0:0:
64,192,122934,1,0,0:0:0:0:
192,192,122961,1,0,0:0:0:0:
320,192,122989,1,0,0:0:0:0:
448,192,123016,1,0,0:0:0:0:
64,192,123043,1,0,0:0:0:0:
192,192,123070,1,0,0:0:0:0:
320,192,123097,1,0,0:0:0:0:
448,192,123124,1,0,0:0:0:0:
64,192,123152,1,0,0:0:0:0:
192,192,123179,1,0,0:0:0:0:
320,192,123206,1,0,0:0:0:0:
448,192,123233,1,0,0:0:0:0:
192,192,123260,1,0,0:0:0:0:
320,192,123478,1,0,0:0:0:0:
64,192,123695,1,0,0:0:0:0:
192,192,123722,1,0,0:0:0:0:
320,192,123749,1,0,0:0:0:0:
448,192,123777,1,0,0:0:0:0:
64,192,123804,1,0,0:0:0:0:
192,192,123831,1,0,0:0:0:0:
320,192,123858,1,0,0:0:0:0:
448,192,123885,1,0,0:0:0:0:
64,192,123913,1,0,0:0:0:0:
192,192,123940,1,0,0:0:0:0:
320,192,123967,1,0,0:0:0:0:
448,192,123994,1,0,0:0:0:0:
64,192,124021,1,0,0:0:0:0:
192,192,124048,1,0,0:0:0:0:
320,192,124076,1,0,0:0:0:0:
448,192,124103,1,0,0:0:0:0:
64,192,124130,1,0,0:0:0:0:
192,192,124157,1,0,0:0:0:0:
320,192,124184,1,0,0:0:0:0:
448,192,124211,1,0,0:0:0:0:
64,192,124239,1,0,0:0:0:0:
192,192,124266,1,0,0:0:0:0:
320,192,124293,1,0,0:0:0:0:
448,192,124320,1,0,0:0:0:0:
64,192,124347,1,0,0:0:0:0:
192,192,124374,1,0,0:0:0:0:
320,192,124402,1,0,0:0:0:0:
448,192,124429,1,0,0:0:0:0:
64,192,124456,1,0,0:0:0:0:
192,192,124483,1,0,0:0:0:0:
320,192,124510,1,0,0:0:0:0:
448,192,124538,1,0,0:0:0:0:
64,192,124565,1,0,0:0:0:0:
192,192,124592,1,0,0:0:0:0:
320,192,124619,1,0,0:0:0:0:
448,192,124646,1,0,0:0:0:0:
64,192,124673,1,0,0:0:0:0:
192,192,124701,1,0,0:0:0:0:
320,192,124728,1,0,0:0:0:0:
448,192,124755,1,0,0:0:0:0:
64,192,124782,1,0,0:0:0:0:
192,192,124809,1,0,0:0:0:0:
320,192,124836,1,0,0:0:0:0:
448,192,124864,1,0,0:0:0:0:
64,192,124891,1,0,0:0:0:0:
192,192,124918,1,0,0:0:0:0:
320,192,124945,1,0,0:0:0:0:
448,192,124972,1,0,0:0:0:0:
320,192,124999,1,0,0:0:0:0:
320,192,125217,1,0,0:0:0:0:
64,192,125434,1,0,0:0:0:0:
192,192,125461,1,0,0:0:0:0:
448,192,125489,1,0,0:0:0:0:
320,192,125516,1,0,0:0:0:0:
64,192,125543,1,0,0:0:0:0:
192,192,125570,1,0,0:0:0:0:
448,192,125597,1,0,0:0:0:0:
320,192,125624,1,0,0:0:0:0:
64,192,125652,1,0,0:0:0:0:
192,192,125679,1,0,0:0:0:0:
448,192,125706,1,0,0:0:0:0:
320,192,125733,1,0,0:0:0:0:
64,192,125760,1,0,0:0:0:0:
192,192,125788,1,0,0:0:0:0:
448,192,125815,1,0,0:0:0:0:
320,192,125842,1,0,0:0:0:0:
64,192,125869,1,0,0:0:0:0:
192,192,125896,1,0,0:0:0:0:
448,192,125923,1,0,0:0:0:0:
320,192,125951,1,0,0:0:0:0:
64,192,125978,1,0,0:0:0:0:
192,192,126005,1,0,0:0:0:0:
448,192,126032,1,0,0:0:0:0:
320,192,126059,1,0,0:0:0:0:
64,192,126086,1,0,0:0:0:0:
192,192,126114,1,0,0:0:0:0:
448,192,126141,1,0,0:0:0:0:
320,192,126168,1,0,0:0:0:0:
64,192,126195,1,0,0:0:0:0:
192,192,126222,1,0,0:0:0:0:
448,192,126249,1,0,0:0:0:0:
320,192,126277,1,0,0:0:0:0:
192,192,126331,1,0,0:0:0:0:
64,192,126331,1,0,0:0:0:0:
320,192,126358,1,0,0:0:0:0:
448,192,126385,1,0,0:0:0:0:
192,192,126413,1,0,0:0:0:0:
64,192,126467,1,0,0:0:0:0:
320,192,126494,1,0,0:0:0:0:
448,192,126494,1,0,0:0:0:0:
192,192,126521,1,0,0:0:0:0:
64,192,126548,1,0,0:0:0:0:
320,192,126603,1,0,0:0:0:0:
448,192,126630,1,0,0:0:0:0:
192,192,126630,1,0,0:0:0:0:
64,192,126657,1,0,0:0:0:0:
320,192,126684,1,0,0:0:0:0:
448,192,126739,1,0,0:0:0:0:
192,192,126766,1,0,0:0:0:0:
64,192,126793,1,0,0:0:0:0:
320,192,126793,1,0,0:0:0:0:
448,192,126820,1,0,0:0:0:0:
192,192,126847,1,0,0:0:0:0:
64,192,126902,1,0,0:0:0:0:
320,192,126929,1,0,0:0:0:0:
448,192,126956,1,0,0:0:0:0:
192,192,126956,1,0,0:0:0:0:
64,192,126983,1,0,0:0:0:0:
320,192,127038,1,0,0:0:0:0:
448,192,127065,1,0,0:0:0:0:
192,192,127092,1,0,0:0:0:0:
64,192,127119,1,0,0:0:0:0:
320,192,127119,1,0,0:0:0:0:
448,192,127173,1,0,0:0:0:0:
64,192,127201,1,0,0:0:0:0:
192,192,127228,1,0,0:0:0:0:
320,192,127255,1,0,0:0:0:0:
448,192,127255,1,0,0:0:0:0:
64,192,127309,1,0,0:0:0:0:
192,192,127336,1,0,0:0:0:0:
320,192,127364,1,0,0:0:0:0:
448,192,127391,1,0,0:0:0:0:
64,192,127418,1,0,0:0:0:0:
192,192,127445,1,0,0:0:0:0:
320,192,127472,1,0,0:0:0:0:
448,192,127499,1,0,0:0:0:0:
64,192,127527,1,0,0:0:0:0:
192,192,127554,1,0,0:0:0:0:
320,192,127581,1,0,0:0:0:0:
448,192,127608,1,0,0:0:0:0:
64,192,127635,1,0,0:0:0:0:
192,192,127663,1,0,0:0:0:0:
320,192,127690,1,0,0:0:0:0:
448,192,127717,1,0,0:0:0:0:
64,192,127744,1,0,0:0:0:0:
192,192,127771,1,0,0:0:0:0:
320,192,127798,1,0,0:0:0:0:
448,192,127826,1,0,0:0:0:0:
64,192,127853,1,0,0:0:0:0:
192,192,127880,1,0,0:0:0:0:
320,192,127907,1,0,0:0:0:0:
448,192,127934,1,0,0:0:0:0:
64,192,127961,1,0,0:0:0:0:
192,192,127989,1,0,0:0:0:0:
320,192,128016,1,0,0:0:0:0:
448,192,128043,1,0,0:0:0:0:
64,192,128070,1,0,0:0:0:0:
192,192,128097,1,0,0:0:0:0:
320,192,128124,1,0,0:0:0:0:
448,192,128152,1,0,0:0:0:0:
64,192,128179,1,0,0:0:0:0:
192,192,128206,1,0,0:0:0:0:
320,192,128233,1,0,0:0:0:0:
448,192,128260,1,0,0:0:0:0:
64,192,128288,1,0,0:0:0:0:
192,192,128315,1,0,0:0:0:0:
320,192,128342,1,0,0:0:0:0:
448,192,128369,1,0,0:0:0:0:
64,192,128396,1,0,0:0:0:0:
192,192,128423,1,0,0:0:0:0:
320,192,128451,1,0,0:0:0:0:
448,192,128478,1,0,0:0:0:0:
192,192,128505,1,0,0:0:0:0:
192,192,128722,1,0,0:0:0:0:
64,192,128940,1,0,0:0:0:0:
192,192,128967,1,0,0:0:0:0:
320,192,128994,1,0,0:0:0:0:
448,192,129021,1,0,0:0:0:0:
64,192,129048,1,0,0:0:0:0:
192,192,129076,1,0,0:0:0:0:
320,192,129103,1,0,0:0:0:0:
448,192,129130,1,0,0:0:0:0:
64,192,129157,1,0,0:0:0:0:
192,192,129184,1,0,0:0:0:0:
320,192,129211,1,0,0:0:0:0:
448,192,129239,1,0,0:0:0:0:
64,192,129266,1,0,0:0:0:0:
192,192,129293,1,0,0:0:0:0:
320,192,129320,1,0,0:0:0:0:
448,192,129347,1,0,0:0:0:0:
64,192,129374,1,0,0:0:0:0:
192,192,129402,1,0,0:0:0:0:
320,192,129429,1,0,0:0:0:0:
448,192,129456,1,0,0:0:0:0:
64,192,129483,1,0,0:0:0:0:
192,192,129510,1,0,0:0:0:0:
320,192,129538,1,0,0:0:0:0:
448,192,129565,1,0,0:0:0:0:
64,192,129592,1,0,0:0:0:0:
192,192,129619,1,0,0:0:0:0:
320,192,129646,1,0,0:0:0:0:
448,192,129673,1,0,0:0:0:0:
64,192,129701,1,0,0:0:0:0:
192,192,129728,1,0,0:0:0:0:
320,192,129755,1,0,0:0:0:0:
448,192,129782,1,0,0:0:0:0:
64,192,129809,1,0,0:0:0:0:
192,192,129836,1,0,0:0:0:0:
320,192,129864,1,0,0:0:0:0:
448,192,129891,1,0,0:0:0:0:
64,192,129918,1,0,0:0:0:0:
192,192,129945,1,0,0:0:0:0:
320,192,129972,1,0,0:0:0:0:
448,192,129999,1,0,0:0:0:0:
64,192,130027,1,0,0:0:0:0:
192,192,130054,1,0,0:0:0:0:
320,192,130081,1,0,0:0:0:0:
448,192,130108,1,0,0:0:0:0:
64,192,130135,1,0,0:0:0:0:
192,192,130163,1,0,0:0:0:0:
320,192,130190,1,0,0:0:0:0:
448,192,130217,1,0,0:0:0:0:
192,192,130244,1,0,0:0:0:0:
320,192,130461,1,0,0:0:0:0:
64,192,130679,1,0,0:0:0:0:
192,192,130706,1,0,0:0:0:0:
320,192,130733,1,0,0:0:0:0:
448,192,130760,1,0,0:0:0:0:
64,192,130788,1,0,0:0:0:0:
192,192,130815,1,0,0:0:0:0:
320,192,130842,1,0,0:0:0:0:
448,192,130869,1,0,0:0:0:0:
64,192,130896,1,0,0:0:0:0:
192,192,130923,1,0,0:0:0:0:
320,192,130951,1,0,0:0:0:0:
448,192,130978,1,0,0:0:0:0:
64,192,131005,1,0,0:0:0:0:
192,192,131032,1,0,0:0:0:0:
320,192,131059,1,0,0:0:0:0:
448,192,131086,1,0,0:0:0:0:
64,192,131114,1,0,0:0:0:0:
192,192,131141,1,0,0:0:0:0:
320,192,131168,1,0,0:0:0:0:
448,192,131195,1,0,0:0:0:0:
64,192,131222,1,0,0:0:0:0:
192,192,131249,1,0,0:0:0:0:
320,192,131277,1,0,0:0:0:0:
448,192,131304,1,0,0:0:0:0:
64,192,131331,1,0,0:0:0:0:
192,192,131358,1,0,0:0:0:0:
320,192,131385,1,0,0:0:0:0:
448,192,131413,1,0,0:0:0:0:
64,192,131440,1,0,0:0:0:0:
192,192,131467,1,0,0:0:0:0:
320,192,131494,1,0,0:0:0:0:
448,192,131521,1,0,0:0:0:0:
64,192,131548,1,0,0:0:0:0:
192,192,131576,1,0,0:0:0:0:
320,192,131603,1,0,0:0:0:0:
448,192,131630,1,0,0:0:0:0:
64,192,131657,1,0,0:0:0:0:
192,192,131684,1,0,0:0:0:0:
320,192,131711,1,0,0:0:0:0:
448,192,131739,1,0,0:0:0:0:
64,192,131766,1,0,0:0:0:0:
192,192,131793,1,0,0:0:0:0:
320,192,131820,1,0,0:0:0:0:
448,192,131847,1,0,0:0:0:0:
64,192,131874,1,0,0:0:0:0:
192,192,131902,1,0,0:0:0:0:
320,192,131929,1,0,0:0:0:0:
448,192,131956,1,0,0:0:0:0:
320,192,131983,1,0,0:0:0:0:
320,192,132201,1,0,0:0:0:0:
64,192,132418,1,0,0:0:0:0:
192,192,132445,1,0,0:0:0:0:
448,192,132472,1,0,0:0:0:0:
320,192,132499,1,0,0:0:0:0:
64,192,132527,1,0,0:0:0:0:
192,192,132554,1,0,0:0:0:0:
448,192,132581,1,0,0:0:0:0:
320,192,132608,1,0,0:0:0:0:
64,192,132635,1,0,0:0:0:0:
192,192,132663,1,0,0:0:0:0:
448,192,132690,1,0,0:0:0:0:
320,192,132717,1,0,0:0:0:0:
64,192,132744,1,0,0:0:0:0:
192,192,132771,1,0,0:0:0:0:
448,192,132798,1,0,0:0:0:0:
320,192,132826,1,0,0:0:0:0:
64,192,132853,1,0,0:0:0:0:
192,192,132880,1,0,0:0:0:0:
448,192,132907,1,0,0:0:0:0:
320,192,132934,1,0,0:0:0:0:
64,192,132961,1,0,0:0:0:0:
192,192,132989,1,0,0:0:0:0:
448,192,133016,1,0,0:0:0:0:
320,192,133043,1,0,0:0:0:0:
64,192,133070,1,0,0:0:0:0:
192,192,133097,1,0,0:0:0:0:
448,192,133124,1,0,0:0:0:0:
320,192,133152,1,0,0:0:0:0:
64,192,133179,1,0,0:0:0:0:
192,192,133206,1,0,0:0:0:0:
448,192,133233,1,0,0:0:0:0:
320,192,133260,1,0,0:0:0:0:
192,192,133288,1,0,0:0:0:0:
64,192,133315,1,0,0:0:0:0:
320,192,133342,1,0,0:0:0:0:
448,192,133369,1,0,0:0:0:0:
192,192,133396,1,0,0:0:0:0:
64,192,133423,1,0,0:0:0:0:
320,192,133451,1,0,0:0:0:0:
448,192,133478,1,0,0:0:0:0:
192,192,133505,1,0,0:0:0:0:
64,192,133532,1,0,0:0:0:0:
320,192,133559,1,0,0:0:0:0:
448,192,133586,1,0,0:0:0:0:
192,192,133614,1,0,0:0:0:0:
64,192,133641,1,0,0:0:0:0:
320,192,133668,1,0,0:0:0:0:
448,192,133695,1,0,0:0:0:0:
192,192,133722,1,0,0:0:0:0:
64,192,133749,1,0,0:0:0:0:
320,192,133777,1,0,0:0:0:0:
448,192,133804,1,0,0:0:0:0:
192,192,133831,1,0,0:0:0:0:
64,192,133858,1,0,0:0:0:0:
320,192,133885,1,0,0:0:0:0:
448,192,133913,1,0,0:0:0:0:
192,192,133940,1,0,0:0:0:0:
64,192,133967,1,0,0:0:0:0:
320,192,133994,1,0,0:0:0:0:
448,192,134021,1,0,0:0:0:0:
192,192,134048,1,0,0:0:0:0:
64,192,134076,1,0,0:0:0:0:
320,192,134103,1,0,0:0:0:0:
448,192,134130,1,0,0:0:0:0:
64,192,134157,1,0,0:0:0:0:
192,192,134184,1,0,0:0:0:0:
320,192,134211,1,0,0:0:0:0:
448,192,134239,1,0,0:0:0:0:
64,192,134266,1,0,0:0:0:0:
192,192,134293,1,0,0:0:0:0:
320,192,134320,1,0,0:0:0:0:
448,192,134347,1,0,0:0:0:0:
64,192,134374,1,0,0:0:0:0:
192,192,134402,1,0,0:0:0:0:
320,192,134429,1,0,0:0:0:0:
448,192,134456,1,0,0:0:0:0:
64,192,134483,1,0,0:0:0:0:
192,192,134510,1,0,0:0:0:0:
320,192,134538,1,0,0:0:0:0:
448,192,134565,1,0,0:0:0:0:
64,192,134592,1,0,0:0:0:0:
192,192,134619,1,0,0:0:0:0:
320,192,134646,1,0,0:0:0:0:
448,192,134673,1,0,0:0:0:0:
64,192,134701,1,0,0:0:0:0:
192,192,134728,1,0,0:0:0:0:
320,192,134755,1,0,0:0:0:0:
448,192,134782,1,0,0:0:0:0:
64,192,134809,1,0,0:0:0:0:
192,192,134836,1,0,0:0:0:0:
320,192,134864,1,0,0:0:0:0:
448,192,134891,1,0,0:0:0:0:
64,192,134918,1,0,0:0:0:0:
192,192,134945,1,0,0:0:0:0:
320,192,134972,1,0,0:0:0:0:
448,192,134999,1,0,0:0:0:0:
64,192,135027,1,0,0:0:0:0:
192,192,135054,1,0,0:0:0:0:
320,192,135081,1,0,0:0:0:0:
448,192,135108,1,0,0:0:0:0:
64,192,135135,1,0,0:0:0:0:
192,192,135163,1,0,0:0:0:0:
320,192,135190,1,0,0:0:0:0:
448,192,135217,1,0,0:0:0:0:
64,192,135244,1,0,0:0:0:0:
192,192,135271,1,0,0:0:0:0:
320,192,135298,1,0,0:0:0:0:
448,192,135326,1,0,0:0:0:0:
64,192,135353,1,0,0:0:0:0:
192,192,135380,1,0,0:0:0:0:
320,192,135407,1,0,0:0:0:0:
448,192,135434,1,0,0:0:0:0:
192,192,135461,1,0,0:0:0:0:
192,192,135679,1,0,0:0:0:0:
64,192,135896,1,0,0:0:0:0:
192,192,135923,1,0,0:0:0:0:
320,192,135951,1,0,0:0:0:0:
448,192,135978,1,0,0:0:0:0:
64,192,136005,1,0,0:0:0:0:
192,192,136032,1,0,0:0:0:0:
320,192,136059,1,0,0:0:0:0:
448,192,136086,1,0,0:0:0:0:
64,192,136114,1,0,0:0:0:0:
192,192,136141,1,0,0:0:0:0:
320,192,136168,1,0,0:0:0:0:
448,192,136195,1,0,0:0:0:0:
64,192,136222,1,0,0:0:0:0:
192,192,136249,1,0,0:0:0:0:
320,192,136277,1,0,0:0:0:0:
448,192,136304,1,0,0:0:0:0:
64,192,136331,1,0,0:0:0:0:
192,192,136358,1,0,0:0:0:0:
320,192,136385,1,0,0:0:0:0:
448,192,136413,1,0,0:0:0:0:
64,192,136440,1,0,0:0:0:0:
192,192,136467,1,0,0:0:0:0:
320,192,136494,1,0,0:0:0:0:
448,192,136521,1,0,0:0:0:0:
64,192,136548,1,0,0:0:0:0:
192,192,136576,1,0,0:0:0:0:
320,192,136603,1,0,0:0:0:0:
448,192,136630,1,0,0:0:0:0:
64,192,136657,1,0,0:0:0:0:
192,192,136684,1,0,0:0:0:0:
320,192,136711,1,0,0:0:0:0:
448,192,136739,1,0,0:0:0:0:
64,192,136766,1,0,0:0:0:0:
192,192,136793,1,0,0:0:0:0:
320,192,136820,1,0,0:0:0:0:
448,192,136847,1,0,0:0:0:0:
64,192,136874,1,0,0:0:0:0:
192,192,136902,1,0,0:0:0:0:
320,192,136929,1,0,0:0:0:0:
448,192,136956,1,0,0:0:0:0:
64,192,136983,1,0,0:0:0:0:
192,192,137010,1,0,0:0:0:0:
320,192,137038,1,0,0:0:0:0:
448,192,137065,1,0,0:0:0:0:
64,192,137092,1,0,0:0:0:0:
192,192,137119,1,0,0:0:0:0:
320,192,137146,1,0,0:0:0:0:
448,192,137173,1,0,0:0:0:0:
192,192,137201,1,0,0:0:0:0:
320,192,137418,1,0,0:0:0:0:
64,192,137635,1,0,0:0:0:0:
192,192,137663,1,0,0:0:0:0:
320,192,137690,1,0,0:0:0:0:
448,192,137717,1,0,0:0:0:0:
64,192,137744,1,0,0:0:0:0:
192,192,137771,1,0,0:0:0:0:
320,192,137798,1,0,0:0:0:0:
448,192,137826,1,0,0:0:0:0:
64,192,137853,1,0,0:0:0:0:
192,192,137880,1,0,0:0:0:0:
320,192,137907,1,0,0:0:0:0:
448,192,137934,1,0,0:0:0:0:
64,192,137961,1,0,0:0:0:0:
192,192,137989,1,0,0:0:0:0:
320,192,138016,1,0,0:0:0:0:
448,192,138043,1,0,0:0:0:0:
64,192,138070,1,0,0:0:0:0:
192,192,138097,1,0,0:0:0:0:
320,192,138124,1,0,0:0:0:0:
448,192,138152,1,0,0:0:0:0:
64,192,138179,1,0,0:0:0:0:
192,192,138206,1,0,0:0:0:0:
320,192,138233,1,0,0:0:0:0:
448,192,138260,1,0,0:0:0:0:
64,192,138288,1,0,0:0:0:0:
192,192,138315,1,0,0:0:0:0:
320,192,138342,1,0,0:0:0:0:
448,192,138369,1,0,0:0:0:0:
64,192,138396,1,0,0:0:0:0:
192,192,138423,1,0,0:0:0:0:
320,192,138451,1,0,0:0:0:0:
448,192,138478,1,0,0:0:0:0:
64,192,138505,1,0,0:0:0:0:
192,192,138532,1,0,0:0:0:0:
320,192,138559,1,0,0:0:0:0:
448,192,138586,1,0,0:0:0:0:
64,192,138614,1,0,0:0:0:0:
192,192,138641,1,0,0:0:0:0:
320,192,138668,1,0,0:0:0:0:
448,192,138695,1,0,0:0:0:0:
64,192,138722,1,0,0:0:0:0:
192,192,138749,1,0,0:0:0:0:
320,192,138777,1,0,0:0:0:0:
448,192,138804,1,0,0:0:0:0:
64,192,138831,1,0,0:0:0:0:
192,192,138858,1,0,0:0:0:0:
320,192,138885,1,0,0:0:0:0:
448,192,138913,1,0,0:0:0:0:
320,192,138940,1,0,0:0:0:0:
320,192,139157,1,0,0:0:0:0:
64,192,139374,1,0,0:0:0:0:
192,192,139402,1,0,0:0:0:0:
448,192,139429,1,0,0:0:0:0:
320,192,139456,1,0,0:0:0:0:
64,192,139483,1,0,0:0:0:0:
192,192,139510,1,0,0:0:0:0:
448,192,139538,1,0,0:0:0:0:
320,192,139565,1,0,0:0:0:0:
64,192,139592,1,0,0:0:0:0:
192,192,139619,1,0,0:0:0:0:
448,192,139646,1,0,0:0:0:0:
320,192,139673,1,0,0:0:0:0:
64,192,139701,1,0,0:0:0:0:
192,192,139728,1,0,0:0:0:0:
448,192,139755,1,0,0:0:0:0:
320,192,139782,1,0,0:0:0:0:
64,192,139809,1,0,0:0:0:0:
192,192,139836,1,0,0:0:0:0:
448,192,139864,1,0,0:0:0:0:
320,192,139891,1,0,0:0:0:0:
64,192,139918,1,0,0:0:0:0:
192,192,139945,1,0,0:0:0:0:
448,192,139972,1,0,0:0:0:0:
320,192,139999,1,0,0:0:0:0:
64,192,140027,1,0,0:0:0:0:
192,192,140054,1,0,0:0:0:0:
448,192,140081,1,0,0:0:0:0:
320,192,140108,1,0,0:0:0:0:
64,192,140135,1,0,0:0:0:0:
192,192,140163,1,0,0:0:0:0:
448,192,140190,1,0,0:0:0:0:
320,192,140217,1,0,0:0:0:0:
192,192,140244,1,0,0:0:0:0:
64,192,140271,1,0,0:0:0:0:
320,192,140298,1,0,0:0:0:0:
448,192,140326,1,0,0:0:0:0:
192,192,140353,1,0,0:0:0:0:
64,192,140380,1,0,0:0:0:0:
320,192,140407,1,0,0:0:0:0:
448,192,140434,1,0,0:0:0:0:
192,192,140461,1,0,0:0:0:0:
64,192,140489,1,0,0:0:0:0:
320,192,140516,1,0,0:0:0:0:
448,192,140543,1,0,0:0:0:0:
192,192,140570,1,0,0:0:0:0:
64,192,140597,1,0,0:0:0:0:
320,192,140624,1,0,0:0:0:0:
448,192,140652,1,0,0:0:0:0:
192,192,140679,1,0,0:0:0:0:
64,192,140706,1,0,0:0:0:0:
320,192,140733,1,0,0:0:0:0:
448,192,140760,1,0,0:0:0:0:
192,192,140788,1,0,0:0:0:0:
64,192,140815,1,0,0:0:0:0:
320,192,140842,1,0,0:0:0:0:
448,192,140869,1,0,0:0:0:0:
192,192,140896,1,0,0:0:0:0:
64,192,140923,1,0,0:0:0:0:
320,192,140951,1,0,0:0:0:0:
448,192,140978,1,0,0:0:0:0:
192,192,141005,1,0,0:0:0:0:
64,192,141032,1,0,0:0:0:0:
320,192,141059,1,0,0:0:0:0:
448,192,141086,1,0,0:0:0:0:
64,192,141114,1,0,0:0:0:0:
192,192,141141,1,0,0:0:0:0:
320,192,141168,1,0,0:0:0:0:
448,192,141195,1,0,0:0:0:0:
64,192,141222,1,0,0:0:0:0:
192,192,141249,1,0,0:0:0:0:
320,192,141277,1,0,0:0:0:0:
448,192,141304,1,0,0:0:0:0:
64,192,141331,1,0,0:0:0:0:
192,192,141358,1,0,0:0:0:0:
320,192,141385,1,0,0:0:0:0:
448,192,141413,1,0,0:0:0:0:
64,192,141440,1,0,0:0:0:0:
192,192,141467,1,0,0:0:0:0:
320,192,141494,1,0,0:0:0:0:
448,192,141521,1,0,0:0:0:0:
64,192,141548,1,0,0:0:0:0:
192,192,141576,1,0,0:0:0:0:
320,192,141603,1,0,0:0:0:0:
448,192,141630,1,0,0:0:0:0:
64,192,141657,1,0,0:0:0:0:
192,192,141684,1,0,0:0:0:0:
320,192,141711,1,0,0:0:0:0:
448,192,141739,1,0,0:0:0:0:
64,192,141766,1,0,0:0:0:0:
192,192,141793,1,0,0:0:0:0:
320,192,141820,1,0,0:0:0:0:
448,192,141847,1,0,0:0:0:0:
64,192,141874,1,0,0:0:0:0:
192,192,141902,1,0,0:0:0:0:
320,192,141929,1,0,0:0:0:0:
448,192,141956,1,0,0:0:0:0:
64,192,141983,1,0,0:0:0:0:
192,192,142010,1,0,0:0:0:0:
320,192,142038,1,0,0:0:0:0:
448,192,142065,1,0,0:0:0:0:
64,192,142092,1,0,0:0:0:0:
192,192,142119,1,0,0:0:0:0:
320,192,142146,1,0,0:0:0:0:
448,192,142173,1,0,0:0:0:0:
64,192,142201,1,0,0:0:0:0:
192,192,142228,1,0,0:0:0:0:
320,192,142255,1,0,0:0:0:0:
448,192,142282,1,0,0:0:0:0:
64,192,142309,1,0,0:0:0:0:
192,192,142336,1,0,0:0:0:0:
320,192,142364,1,0,0:0:0:0:
448,192,142391,1,0,0:0:0:0:
64,192,142418,1,0,0:0:0:0:
320,192,142445,1,0,0:0:0:0:
192,192,142472,1,0,0:0:0:0:
448,192,142499,1,0,0:0:0:0:
64,192,142527,1,0,0:0:0:0:
320,192,142554,1,0,0:0:0:0:
192,192,142581,1,0,0:0:0:0:
448,192,142608,1,0,0:0:0:0:
64,192,142635,1,0,0:0:0:0:
320,192,142663,1,0,0:0:0:0:
192,192,142690,1,0,0:0:0:0:
448,192,142717,1,0,0:0:0:0:
64,192,142744,1,0,0:0:0:0:
320,192,142771,1,0,0:0:0:0:
192,192,142798,1,0,0:0:0:0:
448,192,142826,1,0,0:0:0:0:
64,192,142853,1,0,0:0:0:0:
192,192,142880,1,0,0:0:0:0:
320,192,142907,1,0,0:0:0:0:
448,192,142934,1,0,0:0:0:0:
64,192,142961,1,0,0:0:0:0:
192,192,142989,1,0,0:0:0:0:
320,192,143016,1,0,0:0:0:0:
448,192,143043,1,0,0:0:0:0:
64,192,143070,1,0,0:0:0:0:
192,192,143097,1,0,0:0:0:0:
320,192,143124,1,0,0:0:0:0:
448,192,143152,1,0,0:0:0:0:
64,192,143179,1,0,0:0:0:0:
192,192,143206,1,0,0:0:0:0:
320,192,143233,1,0,0:0:0:0:
448,192,143260,1,0,0:0:0:0:
64,192,143288,1,0,0:0:0:0:
192,192,143315,1,0,0:0:0:0:
320,192,143342,1,0,0:0:0:0:
448,192,143369,1,0,0:0:0:0:
64,192,143396,1,0,0:0:0:0:
192,192,143423,1,0,0:0:0:0:
320,192,143451,1,0,0:0:0:0:
448,192,143478,1,0,0:0:0:0:
64,192,143505,1,0,0:0:0:0:
192,192,143532,1,0,0:0:0:0:
320,192,143559,1,0,0:0:0:0:
448,192,143586,1,0,0:0:0:0:
64,192,143614,1,0,0:0:0:0:
192,192,143641,1,0,0:0:0:0:
320,192,143668,1,0,0:0:0:0:
448,192,143695,1,0,0:0:0:0:
64,192,143722,1,0,0:0:0:0:
192,192,143749,1,0,0:0:0:0:
320,192,143777,1,0,0:0:0:0:
448,192,143804,1,0,0:0:0:0:
64,192,143831,1,0,0:0:0:0:
192,192,143858,1,0,0:0:0:0:
320,192,143885,1,0,0:0:0:0:
448,192,143913,1,0,0:0:0:0:
64,192,143940,1,0,0:0:0:0:
192,192,143967,1,0,0:0:0:0:
320,192,143994,1,0,0:0:0:0:
448,192,144021,1,0,0:0:0:0:
64,192,144048,1,0,0:0:0:0:
192,192,144076,1,0,0:0:0:0:
320,192,144103,1,0,0:0:0:0:
448,192,144130,1,0,0:0:0:0:
64,192,144157,1,0,0:0:0:0:
320,192,144184,1,0,0:0:0:0:
192,192,144211,1,0,0:0:0:0:
448,192,144239,1,0,0:0:0:0:
64,192,144266,1,0,0:0:0:0:
320,192,144293,1,0,0:0:0:0:
192,192,144320,1,0,0:0:0:0:
448,192,144347,1,0,0:0:0:0:
64,192,144374,1,0,0:0:0:0:
320,192,144402,1,0,0:0:0:0:
192,192,144429,1,0,0:0:0:0:
448,192,144456,1,0,0:0:0:0:
64,192,144483,1,0,0:0:0:0:
320,192,144510,1,0,0:0:0:0:
192,192,144538,1,0,0:0:0:0:
448,192,144565,1,0,0:0:0:0:
64,192,144592,1,0,0:0:0:0:
192,192,144619,1,0,0:0:0:0:
320,192,144646,1,0,0:0:0:0:
448,192,144673,1,0,0:0:0:0:
64,192,144701,1,0,0:0:0:0:
192,192,144728,1,0,0:0:0:0:
320,192,144755,1,0,0:0:0:0:
448,192,144782,1,0,0:0:0:0:
64,192,144809,1,0,0:0:0:0:
192,192,144836,1,0,0:0:0:0:
320,192,144864,1,0,0:0:0:0:
448,192,144891,1,0,0:0:0:0:
64,192,144918,1,0,0:0:0:0:
192,192,144945,1,0,0:0:0:0:
320,192,144972,1,0,0:0:0:0:
448,192,144999,1,0,0:0:0:0:
64,192,145027,1,0,0:0:0:0:
192,192,145054,1,0,0:0:0:0:
320,192,145081,1,0,0:0:0:0:
448,192,145108,1,0,0:0:0:0:
64,192,145135,1,0,0:0:0:0:
192,192,145163,1,0,0:0:0:0:
320,192,145190,1,0,0:0:0:0:
448,192,145217,1,0,0:0:0:0:
64,192,145244,1,0,0:0:0:0:
192,192,145271,1,0,0:0:0:0:
320,192,145298,1,0,0:0:0:0:
448,192,145326,1,0,0:0:0:0:
64,192,145353,1,0,0:0:0:0:
192,192,145380,1,0,0:0:0:0:
320,192,145407,1,0,0:0:0:0:
448,192,145434,1,0,0:0:0:0:
64,192,145461,1,0,0:0:0:0:
192,192,145489,1,0,0:0:0:0:
320,192,145516,1,0,0:0:0:0:
448,192,145543,1,0,0:0:0:0:
64,192,145570,1,0,0:0:0:0:
192,192,145597,1,0,0:0:0:0:
320,192,145624,1,0,0:0:0:0:
448,192,145652,1,0,0:0:0:0:
64,192,145679,1,0,0:0:0:0:
192,192,145706,1,0,0:0:0:0:
320,192,145733,1,0,0:0:0:0:
448,192,145760,1,0,0:0:0:0:
64,192,145788,1,0,0:0:0:0:
192,192,145815,1,0,0:0:0:0:
320,192,145842,1,0,0:0:0:0:
448,192,145869,1,0,0:0:0:0:
64,192,145896,1,0,0:0:0:0:
320,192,145923,1,0,0:0:0:0:
192,192,145951,1,0,0:0:0:0:
448,192,145978,1,0,0:0:0:0:
64,192,146005,1,0,0:0:0:0:
320,192,146032,1,0,0:0:0:0:
192,192,146059,1,0,0:0:0:0:
448,192,146086,1,0,0:0:0:0:
64,192,146114,1,0,0:0:0:0:
320,192,146141,1,0,0:0:0:0:
192,192,146168,1,0,0:0:0:0:
448,192,146195,1,0,0:0:0:0:
64,192,146222,1,0,0:0:0:0:
320,192,146249,1,0,0:0:0:0:
192,192,146277,1,0,0:0:0:0:
448,192,146304,1,0,0:0:0:0:
64,192,146331,1,0,0:0:0:0:
192,192,146358,1,0,0:0:0:0:
448,192,146385,1,0,0:0:0:0:
320,192,146413,1,0,0:0:0:0:
64,192,146440,1,0,0:0:0:0:
192,192,146467,1,0,0:0:0:0:
448,192,146494,1,0,0:0:0:0:
320,192,146521,1,0,0:0:0:0:
64,192,146548,1,0,0:0:0:0:
192,192,146576,1,0,0:0:0:0:
448,192,146603,1,0,0:0:0:0:
320,192,146630,1,0,0:0:0:0:
64,192,146657,1,0,0:0:0:0:
192,192,146684,1,0,0:0:0:0:
448,192,146711,1,0,0:0:0:0:
320,192,146739,1,0,0:0:0:0:
64,192,146766,1,0,0:0:0:0:
192,192,146793,1,0,0:0:0:0:
448,192,146820,1,0,0:0:0:0:
320,192,146847,1,0,0:0:0:0:
64,192,146874,1,0,0:0:0:0:
192,192,146902,1,0,0:0:0:0:
448,192,146929,1,0,0:0:0:0:
320,192,146956,1,0,0:0:0:0:
64,192,146983,1,0,0:0:0:0:
192,192,147010,1,0,0:0:0:0:
448,192,147038,1,0,0:0:0:0:
320,192,147065,1,0,0:0:0:0:
64,192,147092,1,0,0:0:0:0:
192,192,147119,1,0,0:0:0:0:
448,192,147146,1,0,0:0:0:0:
320,192,147173,1,0,0:0:0:0:
192,192,147201,1,0,0:0:0:0:
64,192,147228,1,0,0:0:0:0:
320,192,147255,1,0,0:0:0:0:
448,192,147282,1,0,0:0:0:0:
192,192,147309,1,0,0:0:0:0:
64,192,147336,1,0,0:0:0:0:
320,192,147364,1,0,0:0:0:0:
448,192,147391,1,0,0:0:0:0:
192,192,147418,1,0,0:0:0:0:
64,192,147445,1,0,0:0:0:0:
320,192,147472,1,0,0:0:0:0:
448,192,147499,1,0,0:0:0:0:
192,192,147527,1,0,0:0:0:0:
64,192,147554,1,0,0:0:0:0:
320,192,147581,1,0,0:0:0:0:
448,192,147608,1,0,0:0:0:0:
192,192,147635,1,0,0:0:0:0:
64,192,147663,1,0,0:0:0:0:
320,192,147690,1,0,0:0:0:0:
448,192,147717,1,0,0:0:0:0:
192,192,147744,1,0,0:0:0:0:
64,192,147771,1,0,0:0:0:0:
320,192,147798,1,0,0:0:0:0:
448,192,147826,1,0,0:0:0:0:
192,192,147853,1,0,0:0:0:0:
64,192,147880,1,0,0:0:0:0:
320,192,147907,1,0,0:0:0:0:
448,192,147934,1,0,0:0:0:0:
192,192,147961,1,0,0:0:0:0:
64,192,147989,1,0,0:0:0:0:
320,192,148016,1,0,0:0:0:0:
448,192,148043,1,0,0:0:0:0:
64,192,148070,1,0,0:0:0:0:
192,192,148097,1,0,0:0:0:0:
320,192,148124,1,0,0:0:0:0:
448,192,148152,1,0,0:0:0:0:
64,192,148179,1,0,0:0:0:0:
192,192,148206,1,0,0:0:0:0:
320,192,148233,1,0,0:0:0:0:
448,192,148260,1,0,0:0:0:0:
64,192,148288,1,0,0:0:0:0:
192,192,148315,1,0,0:0:0:0:
320,192,148342,1,0,0:0:0:0:
448,192,148369,1,0,0:0:0:0:
64,192,148396,1,0,0:0:0:0:
192,192,148423,1,0,0:0:0:0:
320,192,148451,1,0,0:0:0:0:
448,192,148478,1,0,0:0:0:0:
64,192,148505,1,0,0:0:0:0:
192,192,148532,1,0,0:0:0:0:
320,192,148559,1,0,0:0:0:0:
448,192,148586,1,0,0:0:0:0:
64,192,148614,1,0,0:0:0:0:
192,192,148641,1,0,0:0:0:0:
320,192,148668,1,0,0:0:0:0:
448,192,148695,1,0,0:0:0:0:
64,192,148722,1,0,0:0:0:0:
192,192,148749,1,0,0:0:0:0:
320,192,148777,1,0,0:0:0:0:
448,192,148804,1,0,0:0:0:0:
64,192,148831,1,0,0:0:0:0:
192,192,148858,1,0,0:0:0:0:
320,192,148885,1,0,0:0:0:0:
448,192,148913,1,0,0:0:0:0:
64,192,148940,1,0,0:0:0:0:
192,192,148967,1,0,0:0:0:0:
320,192,148994,1,0,0:0:0:0:
448,192,149021,1,0,0:0:0:0:
64,192,149048,1,0,0:0:0:0:
192,192,149076,1,0,0:0:0:0:
320,192,149103,1,0,0:0:0:0:
448,192,149130,1,0,0:0:0:0:
64,192,149157,1,0,0:0:0:0:
192,192,149184,1,0,0:0:0:0:
320,192,149211,1,0,0:0:0:0:
448,192,149239,1,0,0:0:0:0:
64,192,149266,1,0,0:0:0:0:
192,192,149293,1,0,0:0:0:0:
320,192,149320,1,0,0:0:0:0:
448,192,149347,1,0,0:0:0:0:
64,192,149374,1,0,0:0:0:0:
320,192,149402,1,0,0:0:0:0:
192,192,149429,1,0,0:0:0:0:
448,192,149456,1,0,0:0:0:0:
64,192,149483,1,0,0:0:0:0:
320,192,149510,1,0,0:0:0:0:
192,192,149538,1,0,0:0:0:0:
448,192,149565,1,0,0:0:0:0:
64,192,149592,1,0,0:0:0:0:
320,192,149619,1,0,0:0:0:0:
192,192,149646,1,0,0:0:0:0:
448,192,149673,1,0,0:0:0:0:
64,192,149701,1,0,0:0:0:0:
320,192,149728,1,0,0:0:0:0:
192,192,149755,1,0,0:0:0:0:
448,192,149782,1,0,0:0:0:0:
64,192,149809,1,0,0:0:0:0:
192,192,149836,1,0,0:0:0:0:
320,192,149864,1,0,0:0:0:0:
448,192,149891,1,0,0:0:0:0:
64,192,149918,1,0,0:0:0:0:
192,192,149945,1,0,0:0:0:0:
320,192,149972,1,0,0:0:0:0:
448,192,149999,1,0,0:0:0:0:
64,192,150027,1,0,0:0:0:0:
192,192,150054,1,0,0:0:0:0:
320,192,150081,1,0,0:0:0:0:
448,192,150108,1,0,0:0:0:0:
64,192,150135,1,0,0:0:0:0:
192,192,150163,1,0,0:0:0:0:
320,192,150190,1,0,0:0:0:0:
448,192,150217,1,0,0:0:0:0:
64,192,150244,1,0,0:0:0:0:
192,192,150271,1,0,0:0:0:0:
320,192,150298,1,0,0:0:0:0:
448,192,150326,1,0,0:0:0:0:
64,192,150353,1,0,0:0:0:0:
192,192,150380,1,0,0:0:0:0:
320,192,150407,1,0,0:0:0:0:
448,192,150434,1,0,0:0:0:0:
64,192,150461,1,0,0:0:0:0:
192,192,150489,1,0,0:0:0:0:
320,192,150516,1,0,0:0:0:0:
448,192,150543,1,0,0:0:0:0:
64,192,150570,1,0,0:0:0:0:
192,192,150597,1,0,0:0:0:0:
320,192,150624,1,0,0:0:0:0:
448,192,150652,1,0,0:0:0:0:
64,192,150679,1,0,0:0:0:0:
192,192,150706,1,0,0:0:0:0:
320,192,150733,1,0,0:0:0:0:
448,192,150760,1,0,0:0:0:0:
64,192,150788,1,0,0:0:0:0:
192,192,150815,1,0,0:0:0:0:
320,192,150842,1,0,0:0:0:0:
448,192,150869,1,0,0:0:0:0:
64,192,150896,1,0,0:0:0:0:
192,192,150923,1,0,0:0:0:0:
320,192,150951,1,0,0:0:0:0:
448,192,150978,1,0,0:0:0:0:
64,192,151005,1,0,0:0:0:0:
192,192,151032,1,0,0:0:0:0:
320,192,151059,1,0,0:0:0:0:
448,192,151086,1,0,0:0:0:0:
64,192,151114,1,0,0:0:0:0:
320,192,151141,1,0,0:0:0:0:
192,192,151168,1,0,0:0:0:0:
448,192,151195,1,0,0:0:0:0:
64,192,151222,1,0,0:0:0:0:
320,192,151249,1,0,0:0:0:0:
192,192,151277,1,0,0:0:0:0:
448,192,151304,1,0,0:0:0:0:
64,192,151331,1,0,0:0:0:0:
320,192,151358,1,0,0:0:0:0:
192,192,151385,1,0,0:0:0:0:
448,192,151413,1,0,0:0:0:0:
64,192,151440,1,0,0:0:0:0:
320,192,151467,1,0,0:0:0:0:
192,192,151494,1,0,0:0:0:0:
448,192,151521,1,0,0:0:0:0:
64,192,151548,1,0,0:0:0:0:
192,192,151576,1,0,0:0:0:0:
320,192,151603,1,0,0:0:0:0:
448,192,151630,1,0,0:0:0:0:
64,192,151657,1,0,0:0:0:0:
192,192,151684,1,0,0:0:0:0:
320,192,151711,1,0,0:0:0:0:
448,192,151739,1,0,0:0:0:0:
64,192,151766,1,0,0:0:0:0:
192,192,151793,1,0,0:0:0:0:
320,192,151820,1,0,0:0:0:0:
448,192,151847,1,0,0:0:0:0:
64,192,151874,1,0,0:0:0:0:
192,192,151902,1,0,0:0:0:0:
320,192,151929,1,0,0:0:0:0:
448,192,151956,1,0,0:0:0:0:
64,192,151983,1,0,0:0:0:0:
192,192,152010,1,0,0:0:0:0:
320,192,152038,1,0,0:0:0:0:
448,192,152065,1,0,0:0:0:0:
64,192,152092,1,0,0:0:0:0:
192,192,152119,1,0,0:0:0:0:
320,192,152146,1,0,0:0:0:0:
448,192,152173,1,0,0:0:0:0:
64,192,152201,1,0,0:0:0:0:
192,192,152228,1,0,0:0:0:0:
320,192,152255,1,0,0:0:0:0:
448,192,152282,1,0,0:0:0:0:
64,192,152309,1,0,0:0:0:0:
192,192,152336,1,0,0:0:0:0:
320,192,152364,1,0,0:0:0:0:
448,192,152391,1,0,0:0:0:0:
64,192,152418,1,0,0:0:0:0:
192,192,152445,1,0,0:0:0:0:
320,192,152472,1,0,0:0:0:0:
448,192,152499,1,0,0:0:0:0:
64,192,152527,1,0,0:0:0:0:
192,192,152554,1,0,0:0:0:0:
320,192,152581,1,0,0:0:0:0:
448,192,152608,1,0,0:0:0:0:
64,192,152635,1,0,0:0:0:0:
192,192,152663,1,0,0:0:0:0:
320,192,152690,1,0,0:0:0:0:
448,192,152717,1,0,0:0:0:0:
64,192,152744,1,0,0:0:0:0:
192,192,152771,1,0,0:0:0:0:
320,192,152798,1,0,0:0:0:0:
448,192,152826,1,0,0:0:0:0:
64,192,152853,1,0,0:0:0:0:
320,192,152880,1,0,0:0:0:0:
192,192,152907,1,0,0:0:0:0:
448,192,152934,1,0,0:0:0:0:
64,192,152961,1,0,0:0:0:0:
320,192,152989,1,0,0:0:0:0:
192,192,153016,1,0,0:0:0:0:
448,192,153043,1,0,0:0:0:0:
64,192,153070,1,0,0:0:0:0:
320,192,153097,1,0,0:0:0:0:
192,192,153124,1,0,0:0:0:0:
448,192,153152,1,0,0:0:0:0:
64,192,153179,1,0,0:0:0:0:
320,192,153206,1,0,0:0:0:0:
192,192,153233,1,0,0:0:0:0:
448,192,153260,1,0,0:0:0:0:
64,192,153288,1,0,0:0:0:0:
192,192,153315,1,0,0:0:0:0:
448,192,153342,1,0,0:0:0:0:
320,192,153369,1,0,0:0:0:0:
64,192,153396,1,0,0:0:0:0:
192,192,153423,1,0,0:0:0:0:
448,192,153451,1,0,0:0:0:0:
320,192,153478,1,0,0:0:0:0:
64,192,153505,1,0,0:0:0:0:
192,192,153532,1,0,0:0:0:0:
448,192,153559,1,0,0:0:0:0:
320,192,153586,1,0,0:0:0:0:
64,192,153614,1,0,0:0:0:0:
192,192,153641,1,0,0:0:0:0:
448,192,153668,1,0,0:0:0:0:
320,192,153695,1,0,0:0:0:0:
64,192,153722,1,0,0:0:0:0:
192,192,153749,1,0,0:0:0:0:
448,192,153777,1,0,0:0:0:0:
320,192,153804,1,0,0:0:0:0:
64,192,153831,1,0,0:0:0:0:
192,192,153858,1,0,0:0:0:0:
448,192,153885,1,0,0:0:0:0:
320,192,153913,1,0,0:0:0:0:
64,192,153940,1,0,0:0:0:0:
192,192,153967,1,0,0:0:0:0:
448,192,153994,1,0,0:0:0:0:
320,192,154021,1,0,0:0:0:0:
64,192,154048,1,0,0:0:0:0:
192,192,154076,1,0,0:0:0:0:
448,192,154103,1,0,0:0:0:0:
320,192,154130,1,0,0:0:0:0:
192,192,154157,1,0,0:0:0:0:
64,192,154184,1,0,0:0:0:0:
320,192,154211,1,0,0:0:0:0:
448,192,154239,1,0,0:0:0:0:
192,192,154266,1,0,0:0:0:0:
64,192,154293,1,0,0:0:0:0:
320,192,154320,1,0,0:0:0:0:
448,192,154347,1,0,0:0:0:0:
192,192,154374,1,0,0:0:0:0:
64,192,154402,1,0,0:0:0:0:
320,192,154429,1,0,0:0:0:0:
448,192,154456,1,0,0:0:0:0:
192,192,154483,1,0,0:0:0:0:
64,192,154510,1,0,0:0:0:0:
320,192,154538,1,0,0:0:0:0:
448,192,154565,1,0,0:0:0:0:
192,192,154592,1,0,0:0:0:0:
64,192,154619,1,0,0:0:0:0:
320,192,154646,1,0,0:0:0:0:
448,192,154673,1,0,0:0:0:0:
192,192,154701,1,0,0:0:0:0:
64,192,154728,1,0,0:0:0:0:
320,192,154755,1,0,0:0:0:0:
448,192,154782,1,0,0:0:0:0:
192,192,154809,1,0,0:0:0:0:
64,192,154836,1,0,0:0:0:0:
320,192,154864,1,0,0:0:0:0:
448,192,154891,1,0,0:0:0:0:
192,192,154918,1,0,0:0:0:0:
64,192,154945,1,0,0:0:0:0:
320,192,154972,1,0,0:0:0:0:
448,192,154999,1,0,0:0:0:0:
64,192,155027,1,0,0:0:0:0:
192,192,155054,1,0,0:0:0:0:
320,192,155081,1,0,0:0:0:0:
448,192,155108,1,0,0:0:0:0:
64,192,155135,1,0,0:0:0:0:
192,192,155163,1,0,0:0:0:0:
320,192,155190,1,0,0:0:0:0:
448,192,155217,1,0,0:0:0:0:
64,192,155244,1,0,0:0:0:0:
192,192,155271,1,0,0:0:0:0:
320,192,155298,1,0,0:0:0:0:
448,192,155326,1,0,0:0:0:0:
64,192,155353,1,0,0:0:0:0:
192,192,155380,1,0,0:0:0:0:
320,192,155407,1,0,0:0:0:0:
448,192,155434,1,0,0:0:0:0:
64,192,155461,1,0,0:0:0:0:
192,192,155489,1,0,0:0:0:0:
320,192,155516,1,0,0:0:0:0:
448,192,155543,1,0,0:0:0:0:
64,192,155570,1,0,0:0:0:0:
192,192,155597,1,0,0:0:0:0:
320,192,155624,1,0,0:0:0:0:
448,192,155652,1,0,0:0:0:0:
64,192,155679,1,0,0:0:0:0:
192,192,155706,1,0,0:0:0:0:
320,192,155733,1,0,0:0:0:0:
448,192,155760,1,0,0:0:0:0:
64,192,155788,1,0,0:0:0:0:
192,192,155815,1,0,0:0:0:0:
320,192,155842,1,0,0:0:0:0:
448,192,155869,1,0,0:0:0:0:
64,192,155896,1,0,0:0:0:0:
192,192,155923,1,0,0:0:0:0:
320,192,155951,1,0,0:0:0:0:
448,192,155978,1,0,0:0:0:0:
64,192,156005,1,0,0:0:0:0:
192,192,156032,1,0,0:0:0:0:
320,192,156059,1,0,0:0:0:0:
448,192,156086,1,0,0:0:0:0:
64,192,156114,1,0,0:0:0:0:
192,192,156141,1,0,0:0:0:0:
320,192,156168,1,0,0:0:0:0:
448,192,156195,1,0,0:0:0:0:
64,192,156222,1,0,0:0:0:0:
192,192,156249,1,0,0:0:0:0:
320,192,156277,1,0,0:0:0:0:
448,192,156304,1,0,0:0:0:0:
64,192,156331,1,0,0:0:0:0:
320,192,156358,1,0,0:0:0:0:
192,192,156385,1,0,0:0:0:0:
448,192,156413,1,0,0:0:0:0:
64,192,156440,1,0,0:0:0:0:
320,192,156467,1,0,0:0:0:0:
192,192,156494,1,0,0:0:0:0:
448,192,156521,1,0,0:0:0:0:
64,192,156548,1,0,0:0:0:0:
320,192,156576,1,0,0:0:0:0:
192,192,156603,1,0,0:0:0:0:
448,192,156630,1,0,0:0:0:0:
64,192,156657,1,0,0:0:0:0:
320,192,156684,1,0,0:0:0:0:
192,192,156711,1,0,0:0:0:0:
448,192,156739,1,0,0:0:0:0:
64,192,156766,1,0,0:0:0:0:
192,192,156793,1,0,0:0:0:0:
320,192,156820,1,0,0:0:0:0:
448,192,156847,1,0,0:0:0:0:
64,192,156874,1,0,0:0:0:0:
192,192,156902,1,0,0:0:0:0:
320,192,156929,1,0,0:0:0:0:
448,192,156956,1,0,0:0:0:0:
64,192,156983,1,0,0:0:0:0:
192,192,157010,1,0,0:0:0:0:
320,192,157038,1,0,0:0:0:0:
448,192,157065,1,0,0:0:0:0:
64,192,157092,1,0,0:0:0:0:
192,192,157119,1,0,0:0:0:0:
320,192,157146,1,0,0:0:0:0:
448,192,157173,1,0,0:0:0:0:
64,192,157201,1,0,0:0:0:0:
192,192,157228,1,0,0:0:0:0:
320,192,157255,1,0,0:0:0:0:
448,192,157282,1,0,0:0:0:0:
64,192,157309,1,0,0:0:0:0:
192,192,157336,1,0,0:0:0:0:
320,192,157364,1,0,0:0:0:0:
448,192,157391,1,0,0:0:0:0:
64,192,157418,1,0,0:0:0:0:
192,192,157445,1,0,0:0:0:0:
320,192,157472,1,0,0:0:0:0:
448,192,157499,1,0,0:0:0:0:
64,192,157527,1,0,0:0:0:0:
192,192,157554,1,0,0:0:0:0:
320,192,157581,1,0,0:0:0:0:
448,192,157608,1,0,0:0:0:0:
64,192,157635,1,0,0:0:0:0:
192,192,157663,1,0,0:0:0:0:
320,192,157690,1,0,0:0:0:0:
448,192,157717,1,0,0:0:0:0:
64,192,157744,1,0,0:0:0:0:
192,192,157771,1,0,0:0:0:0:
320,192,157798,1,0,0:0:0:0:
448,192,157826,1,0,0:0:0:0:
64,192,157853,1,0,0:0:0:0:
192,192,157880,1,0,0:0:0:0:
320,192,157907,1,0,0:0:0:0:
448,192,157934,1,0,0:0:0:0:
64,192,157961,1,0,0:0:0:0:
192,192,157989,1,0,0:0:0:0:
320,192,158016,1,0,0:0:0:0:
448,192,158043,1,0,0:0:0:0:
64,192,158070,1,0,0:0:0:0:
320,192,158097,1,0,0:0:0:0:
192,192,158124,1,0,0:0:0:0:
448,192,158152,1,0,0:0:0:0:
64,192,158179,1,0,0:0:0:0:
320,192,158206,1,0,0:0:0:0:
192,192,158233,1,0,0:0:0:0:
448,192,158260,1,0,0:0:0:0:
64,192,158288,1,0,0:0:0:0:
320,192,158315,1,0,0:0:0:0:
192,192,158342,1,0,0:0:0:0:
448,192,158369,1,0,0:0:0:0:
64,192,158396,1,0,0:0:0:0:
320,192,158423,1,0,0:0:0:0:
192,192,158451,1,0,0:0:0:0:
448,192,158478,1,0,0:0:0:0:
64,192,158505,1,0,0:0:0:0:
192,192,158532,1,0,0:0:0:0:
320,192,158559,1,0,0:0:0:0:
448,192,158586,1,0,0:0:0:0:
64,192,158614,1,0,0:0:0:0:
192,192,158641,1,0,0:0:0:0:
320,192,158668,1,0,0:0:0:0:
448,192,158695,1,0,0:0:0:0:
64,192,158722,1,0,0:0:0:0:
192,192,158749,1,0,0:0:0:0:
320,192,158777,1,0,0:0:0:0:
448,192,158804,1,0,0:0:0:0:
64,192,158831,1,0,0:0:0:0:
192,192,158858,1,0,0:0:0:0:
320,192,158885,1,0,0:0:0:0:
448,192,158913,1,0,0:0:0:0:
64,192,158940,1,0,0:0:0:0:
192,192,158967,1,0,0:0:0:0:
320,192,158994,1,0,0:0:0:0:
448,192,159021,1,0,0:0:0:0:
64,192,159048,1,0,0:0:0:0:
192,192,159076,1,0,0:0:0:0:
320,192,159103,1,0,0:0:0:0:
448,192,159130,1,0,0:0:0:0:
64,192,159157,1,0,0:0:0:0:
192,192,159184,1,0,0:0:0:0:
320,192,159211,1,0,0:0:0:0:
448,192,159239,1,0,0:0:0:0:
64,192,159266,1,0,0:0:0:0:
192,192,159293,1,0,0:0:0:0:
320,192,159320,1,0,0:0:0:0:
448,192,159347,1,0,0:0:0:0:
64,192,159374,1,0,0:0:0:0:
192,192,159402,1,0,0:0:0:0:
320,192,159429,1,0,0:0:0:0:
448,192,159456,1,0,0:0:0:0:
64,192,159483,1,0,0:0:0:0:
192,192,159510,1,0,0:0:0:0:
320,192,159538,1,0,0:0:0:0:
448,192,159565,1,0,0:0:0:0:
64,192,159592,1,0,0:0:0:0:
192,192,159619,1,0,0:0:0:0:
320,192,159646,1,0,0:0:0:0:
448,192,159673,1,0,0:0:0:0:
64,192,159701,1,0,0:0:0:0:
192,192,159728,1,0,0:0:0:0:
320,192,159755,1,0,0:0:0:0:
448,192,159782,1,0,0:0:0:0:
64,192,159809,1,0,0:0:0:0:
320,192,159836,1,0,0:0:0:0:
192,192,159864,1,0,0:0:0:0:
448,192,159891,1,0,0:0:0:0:
64,192,159918,1,0,0:0:0:0:
320,192,159945,1,0,0:0:0:0:
192,192,159972,1,0,0:0:0:0:
448,192,159999,1,0,0:0:0:0:
64,192,160027,1,0,0:0:0:0:
320,192,160054,1,0,0:0:0:0:
192,192,160081,1,0,0:0:0:0:
448,192,160108,1,0,0:0:0:0:
64,192,160135,1,0,0:0:0:0:
320,192,160163,1,0,0:0:0:0:
192,192,160190,1,0,0:0:0:0:
448,192,160217,1,0,0:0:0:0:
64,192,160244,1,0,0:0:0:0:
192,192,160271,1,0,0:0:0:0:
448,192,160298,1,0,0:0:0:0:
320,192,160326,1,0,0:0:0:0:
64,192,160353,1,0,0:0:0:0:
192,192,160380,1,0,0:0:0:0:
448,192,160407,1,0,0:0:0:0:
320,192,160434,1,0,0:0:0:0:
64,192,160461,1,0,0:0:0:0:
192,192,160489,1,0,0:0:0:0:
448,192,160516,1,0,0:0:0:0:
320,192,160543,1,0,0:0:0:0:
64,192,160570,1,0,0:0:0:0:
192,192,160597,1,0,0:0:0:0:
448,192,160624,1,0,0:0:0:0:
320,192,160652,1,0,0:0:0:0:
64,192,160679,1,0,0:0:0:0:
192,192,160706,1,0,0:0:0:0:
448,192,160733,1,0,0:0:0:0:
320,192,160760,1,0,0:0:0:0:
64,192,160788,1,0,0:0:0:0:
192,192,160815,1,0,0:0:0:0:
448,192,160842,1,0,0:0:0:0:
320,192,160869,1,0,0:0:0:0:
64,192,160896,1,0,0:0:0:0:
192,192,160923,1,0,0:0:0:0:
448,192,160951,1,0,0:0:0:0:
320,192,160978,1,0,0:0:0:0:
64,192,161005,1,0,0:0:0:0:
192,192,161032,1,0,0:0:0:0:
448,192,161059,1,0,0:0:0:0:
320,192,161086,1,0,0:0:0:0:
64,192,161114,1,0,0:0:0:0:
448,192,161141,1,0,0:0:0:0:
192,192,161168,1,0,0:0:0:0:
320,192,161195,1,0,0:0:0:0:
64,192,161222,1,0,0:0:0:0:
448,192,161249,1,0,0:0:0:0:
192,192,161277,1,0,0:0:0:0:
320,192,161304,1,0,0:0:0:0:
64,192,161331,1,0,0:0:0:0:
448,192,161358,1,0,0:0:0:0:
192,192,161385,1,0,0:0:0:0:
320,192,161413,1,0,0:0:0:0:
64,192,161440,1,0,0:0:0:0:
448,192,161467,1,0,0:0:0:0:
192,192,161494,1,0,0:0:0:0:
320,192,161521,1,0,0:0:0:0:
64,192,161548,1,0,0:0:0:0:
448,192,161576,1,0,0:0:0:0:
192,192,161603,1,0,0:0:0:0:
320,192,161630,1,0,0:0:0:0:
64,192,161657,1,0,0:0:0:0:
448,192,161684,1,0,0:0:0:0:
192,192,161711,1,0,0:0:0:0:
320,192,161739,1,0,0:0:0:0:
64,192,161766,1,0,0:0:0:0:
448,192,161793,1,0,0:0:0:0:
192,192,161820,1,0,0:0:0:0:
320,192,161847,1,0,0:0:0:0:
64,192,161874,1,0,0:0:0:0:
448,192,161902,1,0,0:0:0:0:
192,192,161929,1,0,0:0:0:0:
320,192,161956,1,0,0:0:0:0:
64,192,161983,1,0,0:0:0:0:
192,192,162010,1,0,0:0:0:0:
320,192,162038,1,0,0:0:0:0:
448,192,162065,1,0,0:0:0:0:
64,192,162092,1,0,0:0:0:0:
192,192,162119,1,0,0:0:0:0:
320,192,162146,1,0,0:0:0:0:
448,192,162173,1,0,0:0:0:0:
64,192,162201,1,0,0:0:0:0:
192,192,162228,1,0,0:0:0:0:
320,192,162255,1,0,0:0:0:0:
448,192,162282,1,0,0:0:0:0:
64,192,162309,1,0,0:0:0:0:
192,192,162336,1,0,0:0:0:0:
320,192,162364,1,0,0:0:0:0:
448,192,162391,1,0,0:0:0:0:
64,192,162418,1,0,0:0:0:0:
192,192,162445,1,0,0:0:0:0:
320,192,162472,1,0,0:0:0:0:
448,192,162499,1,0,0:0:0:0:
64,192,162527,1,0,0:0:0:0:
192,192,162554,1,0,0:0:0:0:
320,192,162581,1,0,0:0:0:0:
448,192,162608,1,0,0:0:0:0:
64,192,162635,1,0,0:0:0:0:
192,192,162663,1,0,0:0:0:0:
320,192,162690,1,0,0:0:0:0:
448,192,162717,1,0,0:0:0:0:
64,192,162744,1,0,0:0:0:0:
192,192,162771,1,0,0:0:0:0:
320,192,162798,1,0,0:0:0:0:
448,192,162826,1,0,0:0:0:0:
64,192,162853,1,0,0:0:0:0:
192,192,162880,1,0,0:0:0:0:
320,192,162907,1,0,0:0:0:0:
448,192,162934,1,0,0:0:0:0:
64,192,162961,1,0,0:0:0:0:
192,192,162989,1,0,0:0:0:0:
320,192,163016,1,0,0:0:0:0:
448,192,163043,1,0,0:0:0:0:
64,192,163070,1,0,0:0:0:0:
192,192,163097,1,0,0:0:0:0:
320,192,163124,1,0,0:0:0:0:
448,192,163152,1,0,0:0:0:0:
64,192,163179,1,0,0:0:0:0:
192,192,163206,1,0,0:0:0:0:
320,192,163233,1,0,0:0:0:0:
448,192,163260,1,0,0:0:0:0:
64,192,163288,1,0,0:0:0:0:
320,192,163315,1,0,0:0:0:0:
192,192,163342,1,0,0:0:0:0:
448,192,163369,1,0,0:0:0:0:
64,192,163396,1,0,0:0:0:0:
320,192,163423,1,0,0:0:0:0:
192,192,163451,1,0,0:0:0:0:
448,192,163478,1,0,0:0:0:0:
64,192,163505,1,0,0:0:0:0:
320,192,163532,1,0,0:0:0:0:
192,192,163559,1,0,0:0:0:0:
448,192,163586,1,0,0:0:0:0:
64,192,163614,1,0,0:0:0:0:
320,192,163641,1,0,0:0:0:0:
192,192,163668,1,0,0:0:0:0:
448,192,163695,1,0,0:0:0:0:
64,192,163722,1,0,0:0:0:0:
192,192,163749,1,0,0:0:0:0:
320,192,163777,1,0,0:0:0:0:
448,192,163831,1,0,0:0:0:0:
64,192,163831,1,0,0:0:0:0:
192,192,163858,1,0,0:0:0:0:
320,192,163885,1,0,0:0:0:0:
448,192,163913,1,0,0:0:0:0:
64,192,163967,1,0,0:0:0:0:
192,192,163994,1,0,0:0:0:0:
320,192,163994,1,0,0:0:0:0:
448,192,164021,1,0,0:0:0:0:
64,192,164048,1,0,0:0:0:0:
192,192,164076,1,0,0:0:0:0:
320,192,164130,1,0,0:0:0:0:
448,192,164130,1,0,0:0:0:0:
64,192,164157,1,0,0:0:0:0:
192,192,164184,1,0,0:0:0:0:
320,192,164211,1,0,0:0:0:0:
448,192,164266,1,0,0:0:0:0:
64,192,164293,1,0,0:0:0:0:
192,192,164293,1,0,0:0:0:0:
320,192,164320,1,0,0:0:0:0:
448,192,164347,1,0,0:0:0:0:
64,192,164402,1,0,0:0:0:0:
192,192,164429,1,0,0:0:0:0:
320,192,164456,1,0,0:0:0:0:
448,192,164456,1,0,0:0:0:0:
64,192,164483,1,0,0:0:0:0:
192,192,164538,1,0,0:0:0:0:
320,192,164565,1,0,0:0:0:0:
448,192,164592,1,0,0:0:0:0:
64,192,164619,1,0,0:0:0:0:
192,192,164619,1,0,0:0:0:0:
320,192,164673,1,0,0:0:0:0:
448,192,164701,1,0,0:0:0:0:
64,192,164728,1,0,0:0:0:0:
192,192,164755,1,0,0:0:0:0:
320,192,164755,1,0,0:0:0:0:
448,192,164782,1,0,0:0:0:0:
64,192,164836,1,0,0:0:0:0:
192,192,164864,1,0,0:0:0:0:
320,192,164891,1,0,0:0:0:0:
448,192,164918,1,0,0:0:0:0:
64,192,164918,1,0,0:0:0:0:
192,192,164972,1,0,0:0:0:0:
320,192,164999,1,0,0:0:0:0:
448,192,165027,1,0,0:0:0:0:
64,192,165054,1,0,0:0:0:0:
320,192,165081,1,0,0:0:0:0:
192,192,165108,1,0,0:0:0:0:
448,192,165135,1,0,0:0:0:0:
64,192,165163,1,0,0:0:0:0:
320,192,165190,1,0,0:0:0:0:
192,192,165217,1,0,0:0:0:0:
448,192,165244,1,0,0:0:0:0:
64,192,165271,1,0,0:0:0:0:
320,192,165298,1,0,0:0:0:0:
192,192,165326,1,0,0:0:0:0:
448,192,165353,1,0,0:0:0:0:
64,192,165380,1,0,0:0:0:0:
320,192,165407,1,0,0:0:0:0:
192,192,165434,1,0,0:0:0:0:
448,192,165461,1,0,0:0:0:0:
64,192,165489,1,0,0:0:0:0:
192,192,165516,1,0,0:0:0:0:
320,192,165543,1,0,0:0:0:0:
448,192,165570,1,0,0:0:0:0:
64,192,165597,1,0,0:0:0:0:
192,192,165624,1,0,0:0:0:0:
320,192,165652,1,0,0:0:0:0:
448,192,165679,1,0,0:0:0:0:
64,192,165706,1,0,0:0:0:0:
192,192,165733,1,0,0:0:0:0:
320,192,165760,1,0,0:0:0:0:
448,192,165788,1,0,0:0:0:0:
64,192,165815,1,0,0:0:0:0:
192,192,165842,1,0,0:0:0:0:
320,192,165869,1,0,0:0:0:0:
448,192,165896,1,0,0:0:0:0:
64,192,165923,1,0,0:0:0:0:
192,192,165951,1,0,0:0:0:0:
320,192,165978,1,0,0:0:0:0:
448,192,166005,1,0,0:0:0:0:
64,192,166032,1,0,0:0:0:0:
192,192,166059,1,0,0:0:0:0:
320,192,166086,1,0,0:0:0:0:
448,192,166114,1,0,0:0:0:0:
64,192,166141,1,0,0:0:0:0:
192,192,166168,1,0,0:0:0:0:
320,192,166195,1,0,0:0:0:0:
448,192,166222,1,0,0:0:0:0:
64,192,166249,1,0,0:0:0:0:
192,192,166277,1,0,0:0:0:0:
320,192,166304,1,0,0:0:0:0:
448,192,166331,1,0,0:0:0:0:
64,192,166358,1,0,0:0:0:0:
192,192,166385,1,0,0:0:0:0:
320,192,166413,1,0,0:0:0:0:
448,192,166440,1,0,0:0:0:0:
64,192,166467,1,0,0:0:0:0:
192,192,166494,1,0,0:0:0:0:
320,192,166521,1,0,0:0:0:0:
448,192,166548,1,0,0:0:0:0:
64,192,166576,1,0,0:0:0:0:
192,192,166603,1,0,0:0:0:0:
320,192,166630,1,0,0:0:0:0:
448,192,166657,1,0,0:0:0:0:
64,192,166684,1,0,0:0:0:0:
192,192,166711,1,0,0:0:0:0:
320,192,166739,1,0,0:0:0:0:
448,192,166766,1,0,0:0:0:0:
64,192,166793,1,0,0:0:0:0:
320,192,166820,1,0,0:0:0:0:
192,192,166847,1,0,0:0:0:0:
448,192,166874,1,0,0:0:0:0:
64,192,166902,1,0,0:0:0:0:
320,192,166929,1,0,0:0:0:0:
192,192,166956,1,0,0:0:0:0:
448,192,166983,1,0,0:0:0:0:
64,192,167010,1,0,0:0:0:0:
320,192,167038,1,0,0:0:0:0:
192,192,167065,1,0,0:0:0:0:
448,192,167092,1,0,0:0:0:0:
64,192,167119,1,0,0:0:0:0:
320,192,167146,1,0,0:0:0:0:
192,192,167173,1,0,0:0:0:0:
448,192,167201,1,0,0:0:0:0:
64,192,167228,1,0,0:0:0:0:
192,192,167255,1,0,0:0:0:0:
448,192,167282,1,0,0:0:0:0:
320,192,167309,1,0,0:0:0:0:
64,192,167336,1,0,0:0:0:0:
192,192,167364,1,0,0:0:0:0:
448,192,167391,1,0,0:0:0:0:
320,192,167418,1,0,0:0:0:0:
64,192,167445,1,0,0:0:0:0:
192,192,167472,1,0,0:0:0:0:
448,192,167499,1,0,0:0:0:0:
320,192,167527,1,0,0:0:0:0:
64,192,167554,1,0,0:0:0:0:
192,192,167581,1,0,0:0:0:0:
448,192,167608,1,0,0:0:0:0:
320,192,167635,1,0,0:0:0:0:
64,192,167663,1,0,0:0:0:0:
192,192,167690,1,0,0:0:0:0:
448,192,167717,1,0,0:0:0:0:
320,192,167744,1,0,0:0:0:0:
64,192,167771,1,0,0:0:0:0:
192,192,167798,1,0,0:0:0:0:
448,192,167826,1,0,0:0:0:0:
320,192,167853,1,0,0:0:0:0:
64,192,167880,1,0,0:0:0:0:
192,192,167907,1,0,0:0:0:0:
448,192,167934,1,0,0:0:0:0:
320,192,167961,1,0,0:0:0:0:
64,192,167989,1,0,0:0:0:0:
192,192,168016,1,0,0:0:0:0:
448,192,168043,1,0,0:0:0:0:
320,192,168070,1,0,0:0:0:0:
64,192,168097,1,0,0:0:0:0:
192,192,168124,1,0,0:0:0:0:
448,192,168152,1,0,0:0:0:0:
320,192,168179,1,0,0:0:0:0:
64,192,168206,1,0,0:0:0:0:
192,192,168233,1,0,0:0:0:0:
448,192,168260,1,0,0:0:0:0:
320,192,168288,1,0,0:0:0:0:
192,192,168315,1,0,0:0:0:0:
64,192,168342,1,0,0:0:0:0:
320,192,168369,1,0,0:0:0:0:
448,192,168396,1,0,0:0:0:0:
192,192,168423,1,0,0:0:0:0:
64,192,168451,1,0,0:0:0:0:
320,192,168478,1,0,0:0:0:0:
448,192,168505,1,0,0:0:0:0:
192,192,168532,1,0,0:0:0:0:
64,192,168559,1,0,0:0:0:0:
320,192,168586,1,0,0:0:0:0:
448,192,168614,1,0,0:0:0:0:
192,192,168641,1,0,0:0:0:0:
64,192,168668,1,0,0:0:0:0:
320,192,168695,1,0,0:0:0:0:
448,192,168722,1,0,0:0:0:0:
192,192,168749,1,0,0:0:0:0:
64,192,168777,1,0,0:0:0:0:
320,192,168804,1,0,0:0:0:0:
448,192,168831,1,0,0:0:0:0:
192,192,168858,1,0,0:0:0:0:
64,192,168885,1,0,0:0:0:0:
320,192,168913,1,0,0:0:0:0:
448,192,168940,1,0,0:0:0:0:
64,192,168967,1,0,0:0:0:0:
192,192,168994,1,0,0:0:0:0:
320,192,169021,1,0,0:0:0:0:
448,192,169048,1,0,0:0:0:0:
64,192,169076,1,0,0:0:0:0:
192,192,169103,1,0,0:0:0:0:
320,192,169130,1,0,0:0:0:0:
448,192,169157,1,0,0:0:0:0:
64,192,169184,1,0,0:0:0:0:
192,192,169211,1,0,0:0:0:0:
320,192,169239,1,0,0:0:0:0:
448,192,169266,1,0,0:0:0:0:
64,192,169293,1,0,0:0:0:0:
192,192,169320,1,0,0:0:0:0:
320,192,169347,1,0,0:0:0:0:
448,192,169374,1,0,0:0:0:0:
64,192,169402,1,0,0:0:0:0:
192,192,169429,1,0,0:0:0:0:
320,192,169456,1,0,0:0:0:0:
448,192,169483,1,0,0:0:0:0:
64,192,169510,1,0,0:0:0:0:
192,192,169538,1,0,0:0:0:0:
320,192,169565,1,0,0:0:0:0:
448,192,169592,1,0,0:0:0:0:
64,192,169619,1,0,0:0:0:0:
192,192,169646,1,0,0:0:0:0:
320,192,169673,1,0,0:0:0:0:
448,192,169701,1,0,0:0:0:0:
64,192,169728,1,0,0:0:0:0:
192,192,169755,1,0,0:0:0:0:
320,192,169782,1,0,0:0:0:0:
448,192,169809,1,0,0:0:0:0:
64,192,169836,1,0,0:0:0:0:
192,192,169864,1,0,0:0:0:0:
320,192,169891,1,0,0:0:0:0:
448,192,169918,1,0,0:0:0:0:
64,192,169945,1,0,0:0:0:0:
192,192,169972,1,0,0:0:0:0:
320,192,169999,1,0,0:0:0:0:
448,192,170027,1,0,0:0:0:0:
64,192,170054,1,0,0:0:0:0:
192,192,170081,1,0,0:0:0:0:
320,192,170108,1,0,0:0:0:0:
448,192,170135,1,0,0:0:0:0:
64,192,170163,1,0,0:0:0:0:
192,192,170190,1,0,0:0:0:0:
320,192,170217,1,0,0:0:0:0:
448,192,170244,1,0,0:0:0:0:
64,192,170271,1,0,0:0:0:0:
192,192,170326,1,0,0:0:0:0:
320,192,170380,1,0,0:0:0:0:
448,192,170434,1,0,0:0:0:0:
64,192,170489,1,0,0:0:0:0:
64,192,170706,1,0,0:0:0:0:
192,192,170733,1,0,0:0:0:0:
320,192,170760,1,0,0:0:0:0:
448,192,170788,1,0,0:0:0:0:
64,192,170815,1,0,0:0:0:0:
192,192,170842,1,0,0:0:0:0:
320,192,170869,1,0,0:0:0:0:
448,192,170896,1,0,0:0:0:0:
64,192,170923,1,0,0:0:0:0:
192,192,170951,1,0,0:0:0:0:
320,192,170978,1,0,0:0:0:0:
448,192,171005,1,0,0:0:0:0:
64,192,171032,1,0,0:0:0:0:
192,192,171059,1,0,0:0:0:0:
320,192,171086,1,0,0:0:0:0:
448,192,171114,1,0,0:0:0:0:
64,192,171141,1,0,0:0:0:0:
192,192,171168,1,0,0:0:0:0:
320,192,171195,1,0,0:0:0:0:
448,192,171222,1,0,0:0:0:0:
64,192,171249,1,0,0:0:0:0:
192,192,171277,1,0,0:0:0:0:
320,192,171304,1,0,0:0:0:0:
448,192,171331,1,0,0:0:0:0:
64,192,171358,1,0,0:0:0:0:
192,192,171385,1,0,0:0:0:0:
320,192,171413,1,0,0:0:0:0:
448,192,171440,1,0,0:0:0:0:
64,192,171467,1,0,0:0:0:0:
192,192,171494,1,0,0:0:0:0:
320,192,171521,1,0,0:0:0:0:
448,192,171548,1,0,0:0:0:0:
64,192,171576,1,0,0:0:0:0:
192,192,171603,1,0,0:0:0:0:
320,192,171630,1,0,0:0:0:0:
448,192,171657,1,0,0:0:0:0:
64,192,171684,1,0,0:0:0:0:
192,192,171711,1,0,0:0:0:0:
320,192,171739,1,0,0:0:0:0:
448,192,171766,1,0,0:0:0:0:
64,192,171793,1,0,0:0:0:0:
192,192,171820,1,0,0:0:0:0:
320,192,171847,1,0,0:0:0:0:
448,192,171874,1,0,0:0:0:0:
64,192,171902,1,0,0:0:0:0:
192,192,171929,1,0,0:0:0:0:
320,192,171956,1,0,0:0:0:0:
448,192,171983,1,0,0:0:0:0:
64,192,172010,1,0,0:0:0:0:
192,192,172065,1,0,0:0:0:0:
320,192,172119,1,0,0:0:0:0:
448,192,172173,1,0,0:0:0:0:
64,192,172228,1,0,0:0:0:0:
64,192,172445,1,0,0:0:0:0:
192,192,172472,1,0,0:0:0:0:
320,192,172499,1,0,0:0:0:0:
448,192,172527,1,0,0:0:0:0:
64,192,172554,1,0,0:0:0:0:
192,192,172581,1,0,0:0:0:0:
320,192,172608,1,0,0:0:0:0:
448,192,172635,1,0,0:0:0:0:
64,192,172663,1,0,0:0:0:0:
192,192,172690,1,0,0:0:0:0:
320,192,172717,1,0,0:0:0:0:
448,192,172744,1,0,0:0:0:0:
64,192,172771,1,0,0:0:0:0:
192,192,172798,1,0,0:0:0:0:
320,192,172826,1,0,0:0:0:0:
448,192,172853,1,0,0:0:0:0:
64,192,172880,1,0,0:0:0:0:
192,192,172907,1,0,0:0:0:0:
320,192,172934,1,0,0:0:0:0:
448,192,172961,1,0,0:0:0:0:
64,192,172989,1,0,0:0:0:0:
192,192,173016,1,0,0:0:0:0:
320,192,173043,1,0,0:0:0:0:
448,192,173070,1,0,0:0:0:0:
64,192,173097,1,0,0:0:0:0:
192,192,173124,1,0,0:0:0:0:
320,192,173152,1,0,0:0:0:0:
448,192,173179,1,0,0:0:0:0:
64,192,173206,1,0,0:0:0:0:
192,192,173233,1,0,0:0:0:0:
320,192,173260,1,0,0:0:0:0:
448,192,173288,1,0,0:0:0:0:
64,192,173315,1,0,0:0:0:0:
192,192,173342,1,0,0:0:0:0:
320,192,173369,1,0,0:0:0:0:
448,192,173396,1,0,0:0:0:0:
64,192,173423,1,0,0:0:0:0:
192,192,173451,1,0,0:0:0:0:
320,192,173478,1,0,0:0:0:0:
448,192,173505,1,0,0:0:0:0:
64,192,173532,1,0,0:0:0:0:
192,192,173559,1,0,0:0:0:0:
320,192,173586,1,0,0:0:0:0:
448,192,173614,1,0,0:0:0:0:
64,192,173641,1,0,0:0:0:0:
192,192,173668,1,0,0:0:0:0:
320,192,173695,1,0,0:0:0:0:
448,192,173722,1,0,0:0:0:0:
64,192,173749,1,0,0:0:0:0:
192,192,173804,1,0,0:0:0:0:
320,192,173858,1,0,0:0:0:0:
448,192,173913,1,0,0:0:0:0:
64,192,173967,1,0,0:0:0:0:
64,192,174184,1,0,0:0:0:0:
192,192,174211,1,0,0:0:0:0:
448,192,174239,1,0,0:0:0:0:
320,192,174266,1,0,0:0:0:0:
64,192,174293,1,0,0:0:0:0:
192,192,174320,1,0,0:0:0:0:
448,192,174347,1,0,0:0:0:0:
320,192,174374,1,0,0:0:0:0:
64,192,174402,1,0,0:0:0:0:
192,192,174429,1,0,0:0:0:0:
448,192,174456,1,0,0:0:0:0:
320,192,174483,1,0,0:0:0:0:
64,192,174510,1,0,0:0:0:0:
192,192,174538,1,0,0:0:0:0:
448,192,174565,1,0,0:0:0:0:
320,192,174592,1,0,0:0:0:0:
64,192,174619,1,0,0:0:0:0:
192,192,174646,1,0,0:0:0:0:
448,192,174673,1,0,0:0:0:0:
320,192,174701,1,0,0:0:0:0:
64,192,174728,1,0,0:0:0:0:
192,192,174755,1,0,0:0:0:0:
448,192,174782,1,0,0:0:0:0:
320,192,174809,1,0,0:0:0:0:
64,192,174836,1,0,0:0:0:0:
192,192,174864,1,0,0:0:0:0:
448,192,174891,1,0,0:0:0:0:
320,192,174918,1,0,0:0:0:0:
64,192,174945,1,0,0:0:0:0:
192,192,174972,1,0,0:0:0:0:
448,192,174999,1,0,0:0:0:0:
320,192,175027,1,0,0:0:0:0:
192,192,175054,1,0,0:0:0:0:
64,192,175081,1,0,0:0:0:0:
320,192,175108,1,0,0:0:0:0:
448,192,175135,1,0,0:0:0:0:
192,192,175163,1,0,0:0:0:0:
64,192,175190,1,0,0:0:0:0:
320,192,175217,1,0,0:0:0:0:
448,192,175244,1,0,0:0:0:0:
192,192,175271,1,0,0:0:0:0:
64,192,175298,1,0,0:0:0:0:
320,192,175326,1,0,0:0:0:0:
448,192,175353,1,0,0:0:0:0:
192,192,175380,1,0,0:0:0:0:
64,192,175407,1,0,0:0:0:0:
320,192,175434,1,0,0:0:0:0:
448,192,175461,1,0,0:0:0:0:
192,192,175489,1,0,0:0:0:0:
64,192,175516,1,0,0:0:0:0:
320,192,175543,1,0,0:0:0:0:
448,192,175570,1,0,0:0:0:0:
192,192,175597,1,0,0:0:0:0:
64,192,175624,1,0,0:0:0:0:
320,192,175652,1,0,0:0:0:0:
448,192,175679,1,0,0:0:0:0:
192,192,175706,1,0,0:0:0:0:
64,192,175733,1,0,0:0:0:0:
320,192,175760,1,0,0:0:0:0:
448,192,175788,1,0,0:0:0:0:
192,192,175815,1,0,0:0:0:0:
64,192,175842,1,0,0:0:0:0:
320,192,175869,1,0,0:0:0:0:
448,192,175896,1,0,0:0:0:0:
64,192,175923,1,0,0:0:0:0:
192,192,175951,1,0,0:0:0:0:
320,192,175978,1,0,0:0:0:0:
448,192,176005,1,0,0:0:0:0:
64,192,176032,1,0,0:0:0:0:
192,192,176059,1,0,0:0:0:0:
320,192,176086,1,0,0:0:0:0:
448,192,176114,1,0,0:0:0:0:
64,192,176141,1,0,0:0:0:0:
192,192,176168,1,0,0:0:0:0:
320,192,176195,1,0,0:0:0:0:
448,192,176222,1,0,0:0:0:0:
64,192,176249,1,0,0:0:0:0:
192,192,176277,1,0,0:0:0:0:
320,192,176304,1,0,0:0:0:0:
448,192,176331,1,0,0:0:0:0:
64,192,176358,1,0,0:0:0:0:
192,192,176385,1,0,0:0:0:0:
320,192,176413,1,0,0:0:0:0:
448,192,176440,1,0,0:0:0:0:
64,192,176467,1,0,0:0:0:0:
192,192,176494,1,0,0:0:0:0:
320,192,176521,1,0,0:0:0:0:
448,192,176548,1,0,0:0:0:0:
64,192,176576,1,0,0:0:0:0:
192,192,176603,1,0,0:0:0:0:
320,192,176630,1,0,0:0:0:0:
448,192,176657,1,0,0:0:0:0:
64,192,176684,1,0,0:0:0:0:
192,192,176711,1,0,0:0:0:0:
320,192,176739,1,0,0:0:0:0:
448,192,176766,1,0,0:0:0:0:
64,192,176793,1,0,0:0:0:0:
192,192,176820,1,0,0:0:0:0:
320,192,176847,1,0,0:0:0:0:
448,192,176874,1,0,0:0:0:0:
64,192,176902,1,0,0:0:0:0:
192,192,176929,1,0,0:0:0:0:
320,192,176956,1,0,0:0:0:0:
448,192,176983,1,0,0:0:0:0:
64,192,177010,1,0,0:0:0:0:
192,192,177038,1,0,0:0:0:0:
320,192,177065,1,0,0:0:0:0:
448,192,177092,1,0,0:0:0:0:
64,192,177119,1,0,0:0:0:0:
192,192,177146,1,0,0:0:0:0:
320,192,177173,1,0,0:0:0:0:
448,192,177201,1,0,0:0:0:0:
64,192,177228,1,0,0:0:0:0:
192,192,177282,1,0,0:0:0:0:
320,192,177336,1,0,0:0:0:0:
448,192,177391,1,0,0:0:0:0:
64,192,177445,1,0,0:0:0:0:
64,192,177663,1,0,0:0:0:0:
192,192,177690,1,0,0:0:0:0:
320,192,177717,1,0,0:0:0:0:
448,192,177744,1,0,0:0:0:0:
64,192,177771,1,0,0:0:0:0:
192,192,177798,1,0,0:0:0:0:
320,192,177826,1,0,0:0:0:0:
448,192,177853,1,0,0:0:0:0:
64,192,177880,1,0,0:0:0:0:
192,192,177907,1,0,0:0:0:0:
320,192,177934,1,0,0:0:0:0:
448,192,177961,1,0,0:0:0:0:
64,192,177989,1,0,0:0:0:0:
192,192,178016,1,0,0:0:0:0:
320,192,178043,1,0,0:0:0:0:
448,192,178070,1,0,0:0:0:0:
64,192,178097,1,0,0:0:0:0:
192,192,178124,1,0,0:0:0:0:
320,192,178152,1,0,0:0:0:0:
448,192,178179,1,0,0:0:0:0:
64,192,178206,1,0,0:0:0:0:
192,192,178233,1,0,0:0:0:0:
320,192,178260,1,0,0:0:0:0:
448,192,178288,1,0,0:0:0:0:
64,192,178315,1,0,0:0:0:0:
192,192,178342,1,0,0:0:0:0:
320,192,178369,1,0,0:0:0:0:
448,192,178396,1,0,0:0:0:0:
64,192,178423,1,0,0:0:0:0:
192,192,178451,1,0,0:0:0:0:
320,192,178478,1,0,0:0:0:0:
448,192,178505,1,0,0:0:0:0:
64,192,178532,1,0,0:0:0:0:
192,192,178559,1,0,0:0:0:0:
320,192,178586,1,0,0:0:0:0:
448,192,178614,1,0,0:0:0:0:
64,192,178641,1,0,0:0:0:0:
192,192,178668,1,0,0:0:0:0:
320,192,178695,1,0,0:0:0:0:
448,192,178722,1,0,0:0:0:0:
64,192,178749,1,0,0:0:0:0:
192,192,178777,1,0,0:0:0:0:
320,192,178804,1,0,0:0:0:0:
448,192,178831,1,0,0:0:0:0:
64,192,178858,1,0,0:0:0:0:
192,192,178885,1,0,0:0:0:0:
320,192,178913,1,0,0:0:0:0:
448,192,178940,1,0,0:0:0:0:
64,192,178967,1,0,0:0:0:0:
448,192,179021,1,0,0:0:0:0:
320,192,179076,1,0,0:0:0:0:
192,192,179130,1,0,0:0:0:0:
64,192,179184,1,0,0:0:0:0:
64,192,179402,1,0,0:0:0:0:
192,192,179429,1,0,0:0:0:0:
320,192,179456,1,0,0:0:0:0:
448,192,179483,1,0,0:0:0:0:
64,192,179510,1,0,0:0:0:0:
192,192,179538,1,0,0:0:0:0:
320,192,179565,1,0,0:0:0:0:
448,192,179592,1,0,0:0:0:0:
64,192,179619,1,0,0:0:0:0:
192,192,179646,1,0,0:0:0:0:
320,192,179673,1,0,0:0:0:0:
448,192,179701,1,0,0:0:0:0:
64,192,179728,1,0,0:0:0:0:
192,192,179755,1,0,0:0:0:0:
320,192,179782,1,0,0:0:0:0:
448,192,179809,1,0,0:0:0:0:
64,192,179836,1,0,0:0:0:0:
192,192,179864,1,0,0:0:0:0:
320,192,179891,1,0,0:0:0:0:
448,192,179918,1,0,0:0:0:0:
64,192,179945,1,0,0:0:0:0:
192,192,179972,1,0,0:0:0:0:
320,192,179999,1,0,0:0:0:0:
448,192,180027,1,0,0:0:0:0:
64,192,180054,1,0,0:0:0:0:
192,192,180081,1,0,0:0:0:0:
320,192,180108,1,0,0:0:0:0:
448,192,180135,1,0,0:0:0:0:
64,192,180163,1,0,0:0:0:0:
192,192,180190,1,0,0:0:0:0:
320,192,180217,1,0,0:0:0:0:
448,192,180244,1,0,0:0:0:0:
64,192,180271,1,0,0:0:0:0:
192,192,180298,1,0,0:0:0:0:
320,192,180326,1,0,0:0:0:0:
448,192,180353,1,0,0:0:0:0:
64,192,180380,1,0,0:0:0:0:
192,192,180407,1,0,0:0:0:0:
320,192,180434,1,0,0:0:0:0:
448,192,180461,1,0,0:0:0:0:
64,192,180489,1,0,0:0:0:0:
192,192,180516,1,0,0:0:0:0:
320,192,180543,1,0,0:0:0:0:
448,192,180570,1,0,0:0:0:0:
64,192,180597,1,0,0:0:0:0:
192,192,180624,1,0,0:0:0:0:
320,192,180652,1,0,0:0:0:0:
448,192,180679,1,0,0:0:0:0:
64,192,180706,1,0,0:0:0:0:
192,192,180760,1,0,0:0:0:0:
320,192,180815,1,0,0:0:0:0:
448,192,180869,1,0,0:0:0:0:
64,192,180923,1,0,0:0:0:0:
64,192,181141,1,0,0:0:0:0:
192,192,181168,1,0,0:0:0:0:
448,192,181195,1,0,0:0:0:0:
320,192,181222,1,0,0:0:0:0:
64,192,181249,1,0,0:0:0:0:
192,192,181277,1,0,0:0:0:0:
448,192,181304,1,0,0:0:0:0:
320,192,181331,1,0,0:0:0:0:
64,192,181358,1,0,0:0:0:0:
192,192,181385,1,0,0:0:0:0:
448,192,181413,1,0,0:0:0:0:
320,192,181440,1,0,0:0:0:0:
64,192,181467,1,0,0:0:0:0:
192,192,181494,1,0,0:0:0:0:
448,192,181521,1,0,0:0:0:0:
320,192,181548,1,0,0:0:0:0:
64,192,181576,1,0,0:0:0:0:
192,192,181603,1,0,0:0:0:0:
448,192,181630,1,0,0:0:0:0:
320,192,181657,1,0,0:0:0:0:
64,192,181684,1,0,0:0:0:0:
192,192,181711,1,0,0:0:0:0:
448,192,181739,1,0,0:0:0:0:
320,192,181766,1,0,0:0:0:0:
64,192,181793,1,0,0:0:0:0:
192,192,181820,1,0,0:0:0:0:
448,192,181847,1,0,0:0:0:0:
320,192,181874,1,0,0:0:0:0:
64,192,181902,1,0,0:0:0:0:
192,192,181929,1,0,0:0:0:0:
448,192,181956,1,0,0:0:0:0:
320,192,181983,1,0,0:0:0:0:
192,192,182010,1,0,0:0:0:0:
64,192,182038,1,0,0:0:0:0:
320,192,182065,1,0,0:0:0:0:
448,192,182092,1,0,0:0:0:0:
192,192,182119,1,0,0:0:0:0:
64,192,182146,1,0,0:0:0:0:
320,192,182173,1,0,0:0:0:0:
448,192,182201,1,0,0:0:0:0:
192,192,182228,1,0,0:0:0:0:
64,192,182255,1,0,0:0:0:0:
320,192,182282,1,0,0:0:0:0:
448,192,182309,1,0,0:0:0:0:
192,192,182336,1,0,0:0:0:0:
64,192,182364,1,0,0:0:0:0:
320,192,182391,1,0,0:0:0:0:
448,192,182418,1,0,0:0:0:0:
192,192,182445,1,0,0:0:0:0:
64,192,182472,1,0,0:0:0:0:
320,192,182499,1,0,0:0:0:0:
448,192,182527,1,0,0:0:0:0:
192,192,182554,1,0,0:0:0:0:
64,192,182581,1,0,0:0:0:0:
320,192,182608,1,0,0:0:0:0:
448,192,182635,1,0,0:0:0:0:
192,192,182663,1,0,0:0:0:0:
64,192,182690,1,0,0:0:0:0:
320,192,182717,1,0,0:0:0:0:
448,192,182744,1,0,0:0:0:0:
192,192,182771,1,0,0:0:0:0:
64,192,182798,1,0,0:0:0:0:
320,192,182826,1,0,0:0:0:0:
448,192,182853,1,0,0:0:0:0:
64,192,182880,1,0,0:0:0:0:
192,192,182907,1,0,0:0:0:0:
320,192,182934,1,0,0:0:0:0:
448,192,182961,1,0,0:0:0:0:
64,192,182989,1,0,0:0:0:0:
192,192,183016,1,0,0:0:0:0:
320,192,183043,1,0,0:0:0:0:
448,192,183070,1,0,0:0:0:0:
64,192,183097,1,0,0:0:0:0:
192,192,183124,1,0,0:0:0:0:
320,192,183152,1,0,0:0:0:0:
448,192,183179,1,0,0:0:0:0:
64,192,183206,1,0,0:0:0:0:
192,192,183233,1,0,0:0:0:0:
320,192,183260,1,0,0:0:0:0:
448,192,183288,1,0,0:0:0:0:
64,192,183315,1,0,0:0:0:0:
192,192,183342,1,0,0:0:0:0:
320,192,183369,1,0,0:0:0:0:
448,192,183396,1,0,0:0:0:0:
64,192,183423,1,0,0:0:0:0:
192,192,183451,1,0,0:0:0:0:
320,192,183478,1,0,0:0:0:0:
448,192,183505,1,0,0:0:0:0:
64,192,183532,1,0,0:0:0:0:
192,192,183559,1,0,0:0:0:0:
320,192,183586,1,0,0:0:0:0:
448,192,183614,1,0,0:0:0:0:
64,192,183641,1,0,0:0:0:0:
192,192,183668,1,0,0:0:0:0:
320,192,183695,1,0,0:0:0:0:
448,192,183722,1,0,0:0:0:0:
64,192,183749,1,0,0:0:0:0:
192,192,183777,1,0,0:0:0:0:
320,192,183804,1,0,0:0:0:0:
448,192,183831,1,0,0:0:0:0:
64,192,183858,1,0,0:0:0:0:
192,192,183885,1,0,0:0:0:0:
320,192,183913,1,0,0:0:0:0:
448,192,183940,1,0,0:0:0:0:
64,192,183967,1,0,0:0:0:0:
192,192,183994,1,0,0:0:0:0:
320,192,184021,1,0,0:0:0:0:
448,192,184048,1,0,0:0:0:0:
64,192,184076,1,0,0:0:0:0:
192,192,184103,1,0,0:0:0:0:
320,192,184130,1,0,0:0:0:0:
448,192,184157,1,0,0:0:0:0:
64,192,184184,1,0,0:0:0:0:
192,192,184184,1,0,0:0:0:0:
448,192,184293,1,0,0:0:0:0:
320,192,184402,1,0,0:0:0:0:
192,192,184510,1,0,0:0:0:0:
64,192,184619,1,0,0:0:0:0:
192,192,184646,1,0,0:0:0:0:
320,192,184673,1,0,0:0:0:0:
448,192,184701,1,0,0:0:0:0:
64,192,184728,1,0,0:0:0:0:
192,192,184755,1,0,0:0:0:0:
320,192,184782,1,0,0:0:0:0:
448,192,184809,1,0,0:0:0:0:
64,192,184836,1,0,0:0:0:0:
192,192,184864,1,0,0:0:0:0:
320,192,184891,1,0,0:0:0:0:
448,192,184918,1,0,0:0:0:0:
64,192,184945,1,0,0:0:0:0:
192,192,184972,1,0,0:0:0:0:
320,192,184999,1,0,0:0:0:0:
448,192,185027,1,0,0:0:0:0:
64,192,185054,1,0,0:0:0:0:
192,192,185081,1,0,0:0:0:0:
320,192,185108,1,0,0:0:0:0:
448,192,185135,1,0,0:0:0:0:
64,192,185163,1,0,0:0:0:0:
192,192,185190,1,0,0:0:0:0:
320,192,185217,1,0,0:0:0:0:
448,192,185244,1,0,0:0:0:0:
64,192,185271,1,0,0:0:0:0:
192,192,185298,1,0,0:0:0:0:
320,192,185326,1,0,0:0:0:0:
448,192,185353,1,0,0:0:0:0:
64,192,185380,1,0,0:0:0:0:
192,192,185407,1,0,0:0:0:0:
320,192,185434,1,0,0:0:0:0:
448,192,185461,1,0,0:0:0:0:
64,192,185489,1,0,0:0:0:0:
192,192,185516,1,0,0:0:0:0:
320,192,185543,1,0,0:0:0:0:
448,192,185570,1,0,0:0:0:0:
64,192,185597,1,0,0:0:0:0:
192,192,185624,1,0,0:0:0:0:
320,192,185652,1,0,0:0:0:0:
448,192,185679,1,0,0:0:0:0:
64,192,185706,1,0,0:0:0:0:
192,192,185733,1,0,0:0:0:0:
320,192,185760,1,0,0:0:0:0:
448,192,185788,1,0,0:0:0:0:
64,192,185815,1,0,0:0:0:0:
192,192,185842,1,0,0:0:0:0:
320,192,185869,1,0,0:0:0:0:
448,192,185896,1,0,0:0:0:0:
64,192,185923,1,0,0:0:0:0:
192,192,185923,1,0,0:0:0:0:
64,192,186032,1,0,0:0:0:0:
192,192,186032,1,0,0:0:0:0:
320,192,186141,1,0,0:0:0:0:
64,192,186358,1,0,0:0:0:0:
192,192,186385,1,0,0:0:0:0:
320,192,186413,1,0,0:0:0:0:
448,192,186440,1,0,0:0:0:0:
64,192,186467,1,0,0:0:0:0:
192,192,186494,1,0,0:0:0:0:
320,192,186521,1,0,0:0:0:0:
448,192,186548,1,0,0:0:0:0:
64,192,186576,1,0,0:0:0:0:
192,192,186603,1,0,0:0:0:0:
320,192,186630,1,0,0:0:0:0:
448,192,186657,1,0,0:0:0:0:
64,192,186684,1,0,0:0:0:0:
192,192,186711,1,0,0:0:0:0:
320,192,186739,1,0,0:0:0:0:
448,192,186766,1,0,0:0:0:0:
64,192,186793,1,0,0:0:0:0:
192,192,186820,1,0,0:0:0:0:
320,192,186847,1,0,0:0:0:0:
448,192,186874,1,0,0:0:0:0:
64,192,186902,1,0,0:0:0:0:
192,192,186929,1,0,0:0:0:0:
320,192,186956,1,0,0:0:0:0:
448,192,186983,1,0,0:0:0:0:
64,192,187010,1,0,0:0:0:0:
192,192,187038,1,0,0:0:0:0:
320,192,187065,1,0,0:0:0:0:
448,192,187092,1,0,0:0:0:0:
64,192,187119,1,0,0:0:0:0:
192,192,187146,1,0,0:0:0:0:
320,192,187173,1,0,0:0:0:0:
448,192,187201,1,0,0:0:0:0:
64,192,187228,1,0,0:0:0:0:
192,192,187255,1,0,0:0:0:0:
320,192,187282,1,0,0:0:0:0:
448,192,187309,1,0,0:0:0:0:
64,192,187336,1,0,0:0:0:0:
192,192,187364,1,0,0:0:0:0:
320,192,187391,1,0,0:0:0:0:
448,192,187418,1,0,0:0:0:0:
64,192,187445,1,0,0:0:0:0:
192,192,187472,1,0,0:0:0:0:
320,192,187499,1,0,0:0:0:0:
448,192,187527,1,0,0:0:0:0:
64,192,187554,1,0,0:0:0:0:
192,192,187581,1,0,0:0:0:0:
320,192,187608,1,0,0:0:0:0:
448,192,187635,1,0,0:0:0:0:
64,192,187663,1,0,0:0:0:0:
192,192,187663,1,0,0:0:0:0:
320,192,187880,1,0,0:0:0:0:
64,192,188097,1,0,0:0:0:0:
192,192,188124,1,0,0:0:0:0:
448,192,188152,1,0,0:0:0:0:
320,192,188179,1,0,0:0:0:0:
64,192,188206,1,0,0:0:0:0:
192,192,188233,1,0,0:0:0:0:
448,192,188260,1,0,0:0:0:0:
320,192,188288,1,0,0:0:0:0:
64,192,188315,1,0,0:0:0:0:
192,192,188342,1,0,0:0:0:0:
448,192,188369,1,0,0:0:0:0:
320,192,188396,1,0,0:0:0:0:
64,192,188423,1,0,0:0:0:0:
192,192,188451,1,0,0:0:0:0:
448,192,188478,1,0,0:0:0:0:
320,192,188505,1,0,0:0:0:0:
64,192,188532,1,0,0:0:0:0:
192,192,188559,1,0,0:0:0:0:
448,192,188586,1,0,0:0:0:0:
320,192,188614,1,0,0:0:0:0:
64,192,188641,1,0,0:0:0:0:
192,192,188668,1,0,0:0:0:0:
448,192,188695,1,0,0:0:0:0:
320,192,188722,1,0,0:0:0:0:
64,192,188749,1,0,0:0:0:0:
192,192,188777,1,0,0:0:0:0:
448,192,188804,1,0,0:0:0:0:
320,192,188831,1,0,0:0:0:0:
64,192,188858,1,0,0:0:0:0:
192,192,188885,1,0,0:0:0:0:
448,192,188913,1,0,0:0:0:0:
320,192,188940,1,0,0:0:0:0:
192,192,188967,1,0,0:0:0:0:
64,192,188994,1,0,0:0:0:0:
320,192,189021,1,0,0:0:0:0:
448,192,189048,1,0,0:0:0:0:
192,192,189076,1,0,0:0:0:0:
64,192,189103,1,0,0:0:0:0:
320,192,189130,1,0,0:0:0:0:
448,192,189157,1,0,0:0:0:0:
192,192,189184,1,0,0:0:0:0:
64,192,189211,1,0,0:0:0:0:
320,192,189239,1,0,0:0:0:0:
448,192,189266,1,0,0:0:0:0:
192,192,189293,1,0,0:0:0:0:
64,192,189320,1,0,0:0:0:0:
320,192,189347,1,0,0:0:0:0:
448,192,189374,1,0,0:0:0:0:
192,192,189402,1,0,0:0:0:0:
64,192,189429,1,0,0:0:0:0:
320,192,189456,1,0,0:0:0:0:
448,192,189483,1,0,0:0:0:0:
192,192,189510,1,0,0:0:0:0:
64,192,189538,1,0,0:0:0:0:
320,192,189565,1,0,0:0:0:0:
448,192,189592,1,0,0:0:0:0:
192,192,189619,1,0,0:0:0:0:
64,192,189646,1,0,0:0:0:0:
320,192,189673,1,0,0:0:0:0:
448,192,189701,1,0,0:0:0:0:
192,192,189728,1,0,0:0:0:0:
64,192,189755,1,0,0:0:0:0:
320,192,189782,1,0,0:0:0:0:
448,192,189809,1,0,0:0:0:0:
64,192,189836,1,0,0:0:0:0:
192,192,189864,1,0,0:0:0:0:
320,192,189891,1,0,0:0:0:0:
448,192,189918,1,0,0:0:0:0:
64,192,189945,1,0,0:0:0:0:
192,192,189972,1,0,0:0:0:0:
320,192,189999,1,0,0:0:0:0:
448,192,190027,1,0,0:0:0:0:
64,192,190054,1,0,0:0:0:0:
192,192,190081,1,0,0:0:0:0:
320,192,190108,1,0,0:0:0:0:
448,192,190135,1,0,0:0:0:0:
64,192,190163,1,0,0:0:0:0:
192,192,190190,1,0,0:0:0:0:
320,192,190217,1,0,0:0:0:0:
448,192,190244,1,0,0:0:0:0:
64,192,190271,1,0,0:0:0:0:
192,192,190298,1,0,0:0:0:0:
320,192,190326,1,0,0:0:0:0:
448,192,190353,1,0,0:0:0:0:
64,192,190380,1,0,0:0:0:0:
192,192,190407,1,0,0:0:0:0:
320,192,190434,1,0,0:0:0:0:
448,192,190461,1,0,0:0:0:0:
64,192,190489,1,0,0:0:0:0:
192,192,190516,1,0,0:0:0:0:
320,192,190543,1,0,0:0:0:0:
448,192,190570,1,0,0:0:0:0:
64,192,190597,1,0,0:0:0:0:
192,192,190624,1,0,0:0:0:0:
320,192,190652,1,0,0:0:0:0:
448,192,190679,1,0,0:0:0:0:
64,192,190706,1,0,0:0:0:0:
192,192,190733,1,0,0:0:0:0:
320,192,190760,1,0,0:0:0:0:
448,192,190788,1,0,0:0:0:0:
64,192,190815,1,0,0:0:0:0:
192,192,190842,1,0,0:0:0:0:
320,192,190869,1,0,0:0:0:0:
448,192,190896,1,0,0:0:0:0:
64,192,190923,1,0,0:0:0:0:
192,192,190951,1,0,0:0:0:0:
320,192,190978,1,0,0:0:0:0:
448,192,191005,1,0,0:0:0:0:
64,192,191032,1,0,0:0:0:0:
192,192,191059,1,0,0:0:0:0:
320,192,191086,1,0,0:0:0:0:
448,192,191114,1,0,0:0:0:0:
64,192,191141,1,0,0:0:0:0:
192,192,191141,1,0,0:0:0:0:
448,192,191249,1,0,0:0:0:0:
320,192,191358,1,0,0:0:0:0:
192,192,191467,1,0,0:0:0:0:
64,192,191576,1,0,0:0:0:0:
192,192,191603,1,0,0:0:0:0:
320,192,191630,1,0,0:0:0:0:
448,192,191657,1,0,0:0:0:0:
64,192,191684,1,0,0:0:0:0:
192,192,191711,1,0,0:0:0:0:
320,192,191739,1,0,0:0:0:0:
448,192,191766,1,0,0:0:0:0:
64,192,191793,1,0,0:0:0:0:
192,192,191820,1,0,0:0:0:0:
320,192,191847,1,0,0:0:0:0:
448,192,191874,1,0,0:0:0:0:
64,192,191902,1,0,0:0:0:0:
192,192,191929,1,0,0:0:0:0:
320,192,191956,1,0,0:0:0:0:
448,192,191983,1,0,0:0:0:0:
64,192,192010,1,0,0:0:0:0:
192,192,192038,1,0,0:0:0:0:
320,192,192065,1,0,0:0:0:0:
448,192,192092,1,0,0:0:0:0:
64,192,192119,1,0,0:0:0:0:
192,192,192146,1,0,0:0:0:0:
320,192,192173,1,0,0:0:0:0:
448,192,192201,1,0,0:0:0:0:
64,192,192228,1,0,0:0:0:0:
192,192,192255,1,0,0:0:0:0:
320,192,192282,1,0,0:0:0:0:
448,192,192309,1,0,0:0:0:0:
64,192,192336,1,0,0:0:0:0:
192,192,192364,1,0,0:0:0:0:
320,192,192391,1,0,0:0:0:0:
448,192,192418,1,0,0:0:0:0:
64,192,192445,1,0,0:0:0:0:
192,192,192472,1,0,0:0:0:0:
320,192,192499,1,0,0:0:0:0:
448,192,192527,1,0,0:0:0:0:
64,192,192554,1,0,0:0:0:0:
192,192,192581,1,0,0:0:0:0:
320,192,192608,1,0,0:0:0:0:
448,192,192635,1,0,0:0:0:0:
64,192,192663,1,0,0:0:0:0:
192,192,192690,1,0,0:0:0:0:
320,192,192717,1,0,0:0:0:0:
448,192,192744,1,0,0:0:0:0:
64,192,192771,1,0,0:0:0:0:
192,192,192798,1,0,0:0:0:0:
320,192,192826,1,0,0:0:0:0:
448,192,192853,1,0,0:0:0:0:
64,192,192880,1,0,0:0:0:0:
192,192,192880,1,0,0:0:0:0:
64,192,192989,1,0,0:0:0:0:
192,192,192989,1,0,0:0:0:0:
320,192,193097,1,0,0:0:0:0:
448,192,193097,1,0,0:0:0:0:
64,192,193315,1,0,0:0:0:0:
192,192,193342,1,0,0:0:0:0:
320,192,193369,1,0,0:0:0:0:
448,192,193396,1,0,0:0:0:0:
64,192,193423,1,0,0:0:0:0:
192,192,193451,1,0,0:0:0:0:
320,192,193478,1,0,0:0:0:0:
448,192,193505,1,0,0:0:0:0:
64,192,193532,1,0,0:0:0:0:
192,192,193559,1,0,0:0:0:0:
320,192,193586,1,0,0:0:0:0:
448,192,193614,1,0,0:0:0:0:
64,192,193641,1,0,0:0:0:0:
192,192,193668,1,0,0:0:0:0:
320,192,193695,1,0,0:0:0:0:
448,192,193722,1,0,0:0:0:0:
64,192,193749,1,0,0:0:0:0:
192,192,193777,1,0,0:0:0:0:
320,192,193804,1,0,0:0:0:0:
448,192,193831,1,0,0:0:0:0:
64,192,193858,1,0,0:0:0:0:
192,192,193885,1,0,0:0:0:0:
320,192,193913,1,0,0:0:0:0:
448,192,193940,1,0,0:0:0:0:
64,192,193967,1,0,0:0:0:0:
192,192,193994,1,0,0:0:0:0:
320,192,194021,1,0,0:0:0:0:
448,192,194048,1,0,0:0:0:0:
64,192,194076,1,0,0:0:0:0:
192,192,194103,1,0,0:0:0:0:
320,192,194130,1,0,0:0:0:0:
448,192,194157,1,0,0:0:0:0:
64,192,194184,1,0,0:0:0:0:
192,192,194211,1,0,0:0:0:0:
320,192,194239,1,0,0:0:0:0:
448,192,194266,1,0,0:0:0:0:
64,192,194293,1,0,0:0:0:0:
192,192,194320,1,0,0:0:0:0:
320,192,194347,1,0,0:0:0:0:
448,192,194374,1,0,0:0:0:0:
64,192,194402,1,0,0:0:0:0:
192,192,194429,1,0,0:0:0:0:
320,192,194456,1,0,0:0:0:0:
448,192,194483,1,0,0:0:0:0:
64,192,194510,1,0,0:0:0:0:
192,192,194538,1,0,0:0:0:0:
320,192,194565,1,0,0:0:0:0:
448,192,194592,1,0,0:0:0:0:
64,192,194619,1,0,0:0:0:0:
192,192,194619,1,0,0:0:0:0:
320,192,194836,1,0,0:0:0:0:
64,192,195054,1,0,0:0:0:0:
192,192,195081,1,0,0:0:0:0:
448,192,195108,1,0,0:0:0:0:
320,192,195135,1,0,0:0:0:0:
64,192,195163,1,0,0:0:0:0:
192,192,195190,1,0,0:0:0:0:
448,192,195217,1,0,0:0:0:0:
320,192,195244,1,0,0:0:0:0:
64,192,195271,1,0,0:0:0:0:
192,192,195298,1,0,0:0:0:0:
448,192,195326,1,0,0:0:0:0:
320,192,195353,1,0,0:0:0:0:
64,192,195380,1,0,0:0:0:0:
192,192,195407,1,0,0:0:0:0:
448,192,195434,1,0,0:0:0:0:
320,192,195461,1,0,0:0:0:0:
64,192,195489,1,0,0:0:0:0:
192,192,195516,1,0,0:0:0:0:
448,192,195543,1,0,0:0:0:0:
320,192,195570,1,0,0:0:0:0:
64,192,195597,1,0,0:0:0:0:
192,192,195624,1,0,0:0:0:0:
448,192,195652,1,0,0:0:0:0:
320,192,195679,1,0,0:0:0:0:
64,192,195706,1,0,0:0:0:0:
192,192,195733,1,0,0:0:0:0:
448,192,195760,1,0,0:0:0:0:
320,192,195788,1,0,0:0:0:0:
64,192,195815,1,0,0:0:0:0:
192,192,195842,1,0,0:0:0:0:
448,192,195869,1,0,0:0:0:0:
320,192,195896,1,0,0:0:0:0:
192,192,195923,1,0,0:0:0:0:
64,192,195951,1,0,0:0:0:0:
320,192,195978,1,0,0:0:0:0:
448,192,196005,1,0,0:0:0:0:
192,192,196032,1,0,0:0:0:0:
64,192,196059,1,0,0:0:0:0:
320,192,196086,1,0,0:0:0:0:
448,192,196114,1,0,0:0:0:0:
192,192,196141,1,0,0:0:0:0:
64,192,196168,1,0,0:0:0:0:
320,192,196195,1,0,0:0:0:0:
448,192,196222,1,0,0:0:0:0:
192,192,196249,1,0,0:0:0:0:
64,192,196277,1,0,0:0:0:0:
320,192,196304,1,0,0:0:0:0:
448,192,196331,1,0,0:0:0:0:
192,192,196358,1,0,0:0:0:0:
64,192,196385,1,0,0:0:0:0:
320,192,196413,1,0,0:0:0:0:
448,192,196440,1,0,0:0:0:0:
192,192,196467,1,0,0:0:0:0:
64,192,196494,1,0,0:0:0:0:
320,192,196521,1,0,0:0:0:0:
448,192,196548,1,0,0:0:0:0:
192,192,196576,1,0,0:0:0:0:
64,192,196603,1,0,0:0:0:0:
320,192,196630,1,0,0:0:0:0:
448,192,196657,1,0,0:0:0:0:
192,192,196684,1,0,0:0:0:0:
64,192,196711,1,0,0:0:0:0:
320,192,196739,1,0,0:0:0:0:
448,192,196766,1,0,0:0:0:0:
64,192,196793,1,0,0:0:0:0:
192,192,196820,1,0,0:0:0:0:
320,192,196847,1,0,0:0:0:0:
448,192,196874,1,0,0:0:0:0:
64,192,196902,1,0,0:0:0:0:
192,192,196929,1,0,0:0:0:0:
320,192,196956,1,0,0:0:0:0:
448,192,196983,1,0,0:0:0:0:
64,192,197010,1,0,0:0:0:0:
192,192,197038,1,0,0:0:0:0:
320,192,197065,1,0,0:0:0:0:
448,192,197092,1,0,0:0:0:0:
64,192,197119,1,0,0:0:0:0:
192,192,197146,1,0,0:0:0:0:
320,192,197173,1,0,0:0:0:0:
448,192,197201,1,0,0:0:0:0:
64,192,197228,1,0,0:0:0:0:
192,192,197255,1,0,0:0:0:0:
320,192,197282,1,0,0:0:0:0:
448,192,197309,1,0,0:0:0:0:
64,192,197336,1,0,0:0:0:0:
192,192,197364,1,0,0:0:0:0:
320,192,197391,1,0,0:0:0:0:
448,192,197418,1,0,0:0:0:0:
64,192,197445,1,0,0:0:0:0:
192,192,197472,1,0,0:0:0:0:
320,192,197499,1,0,0:0:0:0:
448,192,197527,1,0,0:0:0:0:
64,192,197554,1,0,0:0:0:0:
192,192,197581,1,0,0:0:0:0:
320,192,197608,1,0,0:0:0:0:
448,192,197635,1,0,0:0:0:0:
64,192,197663,1,0,0:0:0:0:
192,192,197690,1,0,0:0:0:0:
320,192,197717,1,0,0:0:0:0:
448,192,197744,1,0,0:0:0:0:
64,192,197771,1,0,0:0:0:0:
192,192,197798,1,0,0:0:0:0:
320,192,197826,1,0,0:0:0:0:
448,192,197853,1,0,0:0:0:0:
64,192,197880,1,0,0:0:0:0:
192,192,197907,1,0,0:0:0:0:
320,192,197934,1,0,0:0:0:0:
448,192,197961,1,0,0:0:0:0:
64,192,197989,1,0,0:0:0:0:
192,192,198016,1,0,0:0:0:0:
320,192,198043,1,0,0:0:0:0:
448,192,198070,1,0,0:0:0:0:
64,192,198097,1,0,0:0:0:0:
192,192,198206,1,0,0:0:0:0:
320,192,198315,1,0,0:0:0:0:
448,192,198423,1,0,0:0:0:0:
64,192,198532,1,0,0:0:0:0:
192,192,198559,1,0,0:0:0:0:
320,192,198586,1,0,0:0:0:0:
448,192,198614,1,0,0:0:0:0:
64,192,198641,1,0,0:0:0:0:
192,192,198668,1,0,0:0:0:0:
320,192,198695,1,0,0:0:0:0:
448,192,198722,1,0,0:0:0:0:
64,192,198749,1,0,0:0:0:0:
192,192,198777,1,0,0:0:0:0:
320,192,198804,1,0,0:0:0:0:
448,192,198831,1,0,0:0:0:0:
64,192,198858,1,0,0:0:0:0:
192,192,198885,1,0,0:0:0:0:
320,192,198913,1,0,0:0:0:0:
448,192,198940,1,0,0:0:0:0:
64,192,198967,1,0,0:0:0:0:
192,192,198994,1,0,0:0:0:0:
320,192,199021,1,0,0:0:0:0:
448,192,199048,1,0,0:0:0:0:
64,192,199076,1,0,0:0:0:0:
192,192,199103,1,0,0:0:0:0:
320,192,199130,1,0,0:0:0:0:
448,192,199157,1,0,0:0:0:0:
64,192,199184,1,0,0:0:0:0:
192,192,199211,1,0,0:0:0:0:
320,192,199239,1,0,0:0:0:0:
448,192,199266,1,0,0:0:0:0:
64,192,199293,1,0,0:0:0:0:
192,192,199320,1,0,0:0:0:0:
320,192,199347,1,0,0:0:0:0:
448,192,199374,1,0,0:0:0:0:
64,192,199402,1,0,0:0:0:0:
192,192,199429,1,0,0:0:0:0:
320,192,199456,1,0,0:0:0:0:
448,192,199483,1,0,0:0:0:0:
64,192,199510,1,0,0:0:0:0:
192,192,199538,1,0,0:0:0:0:
320,192,199565,1,0,0:0:0:0:
448,192,199592,1,0,0:0:0:0:
64,192,199619,1,0,0:0:0:0:
192,192,199646,1,0,0:0:0:0:
320,192,199673,1,0,0:0:0:0:
448,192,199701,1,0,0:0:0:0:
64,192,199728,1,0,0:0:0:0:
192,192,199755,1,0,0:0:0:0:
320,192,199782,1,0,0:0:0:0:
448,192,199809,1,0,0:0:0:0:
192,0,199836,128,0,199945:1:0:0:0:
64,0,200054,128,0,200163:1:0:0:0:
64,192,200271,1,0,0:0:0:0:
192,192,200298,1,0,0:0:0:0:
320,192,200326,1,0,0:0:0:0:
448,192,200353,1,0,0:0:0:0:
64,192,200380,1,0,0:0:0:0:
192,192,200407,1,0,0:0:0:0:
320,192,200434,1,0,0:0:0:0:
448,192,200461,1,0,0:0:0:0:
64,192,200489,1,0,0:0:0:0:
192,192,200516,1,0,0:0:0:0:
320,192,200543,1,0,0:0:0:0:
448,192,200570,1,0,0:0:0:0:
64,192,200597,1,0,0:0:0:0:
192,192,200624,1,0,0:0:0:0:
320,192,200652,1,0,0:0:0:0:
448,192,200679,1,0,0:0:0:0:
64,192,200706,1,0,0:0:0:0:
192,192,200733,1,0,0:0:0:0:
320,192,200760,1,0,0:0:0:0:
448,192,200788,1,0,0:0:0:0:
64,192,200815,1,0,0:0:0:0:
192,192,200842,1,0,0:0:0:0:
320,192,200869,1,0,0:0:0:0:
448,192,200896,1,0,0:0:0:0:
64,192,200923,1,0,0:0:0:0:
192,192,200951,1,0,0:0:0:0:
320,192,200978,1,0,0:0:0:0:
448,192,201005,1,0,0:0:0:0:
64,192,201032,1,0,0:0:0:0:
192,192,201059,1,0,0:0:0:0:
320,192,201086,1,0,0:0:0:0:
448,192,201114,1,0,0:0:0:0:
64,192,201141,1,0,0:0:0:0:
192,192,201168,1,0,0:0:0:0:
320,192,201195,1,0,0:0:0:0:
448,192,201222,1,0,0:0:0:0:
64,192,201249,1,0,0:0:0:0:
192,192,201277,1,0,0:0:0:0:
320,192,201304,1,0,0:0:0:0:
448,192,201331,1,0,0:0:0:0:
64,192,201358,1,0,0:0:0:0:
192,192,201385,1,0,0:0:0:0:
320,192,201413,1,0,0:0:0:0:
448,192,201440,1,0,0:0:0:0:
64,192,201494,1,0,0:0:0:0:
192,192,201494,1,0,0:0:0:0:
320,192,201521,1,0,0:0:0:0:
448,192,201548,1,0,0:0:0:0:
192,0,201576,128,0,201684:1:0:0:0:
320,0,201684,128,0,201793:1:0:0:0:
192,0,201793,128,0,201902:1:0:0:0:
320,0,201929,128,0,202038:1:0:0:0:
64,192,202010,1,0,0:0:0:0:
192,192,202065,1,0,0:0:0:0:
448,192,202092,1,0,0:0:0:0:
320,192,202119,1,0,0:0:0:0:
64,192,202119,1,0,0:0:0:0:
192,192,202146,1,0,0:0:0:0:
448,192,202201,1,0,0:0:0:0:
320,192,202228,1,0,0:0:0:0:
64,192,202255,1,0,0:0:0:0:
192,192,202255,1,0,0:0:0:0:
448,192,202282,1,0,0:0:0:0:
320,192,202336,1,0,0:0:0:0:
64,192,202364,1,0,0:0:0:0:
192,192,202391,1,0,0:0:0:0:
448,192,202418,1,0,0:0:0:0:
320,192,202418,1,0,0:0:0:0:
64,192,202472,1,0,0:0:0:0:
192,192,202499,1,0,0:0:0:0:
448,192,202527,1,0,0:0:0:0:
320,192,202554,1,0,0:0:0:0:
64,192,202581,1,0,0:0:0:0:
192,192,202608,1,0,0:0:0:0:
448,192,202635,1,0,0:0:0:0:
320,192,202663,1,0,0:0:0:0:
64,192,202690,1,0,0:0:0:0:
192,192,202717,1,0,0:0:0:0:
448,192,202744,1,0,0:0:0:0:
320,192,202771,1,0,0:0:0:0:
64,192,202798,1,0,0:0:0:0:
192,192,202826,1,0,0:0:0:0:
448,192,202853,1,0,0:0:0:0:
320,192,202880,1,0,0:0:0:0:
192,192,202907,1,0,0:0:0:0:
64,192,202934,1,0,0:0:0:0:
320,192,202961,1,0,0:0:0:0:
448,192,202989,1,0,0:0:0:0:
192,192,203016,1,0,0:0:0:0:
64,192,203043,1,0,0:0:0:0:
320,192,203070,1,0,0:0:0:0:
448,192,203097,1,0,0:0:0:0:
192,192,203124,1,0,0:0:0:0:
64,192,203152,1,0,0:0:0:0:
320,192,203179,1,0,0:0:0:0:
448,192,203206,1,0,0:0:0:0:
192,192,203233,1,0,0:0:0:0:
64,192,203260,1,0,0:0:0:0:
320,192,203288,1,0,0:0:0:0:
448,192,203315,1,0,0:0:0:0:
192,192,203342,1,0,0:0:0:0:
64,192,203369,1,0,0:0:0:0:
320,192,203396,1,0,0:0:0:0:
448,192,203423,1,0,0:0:0:0:
192,192,203451,1,0,0:0:0:0:
64,192,203478,1,0,0:0:0:0:
320,192,203505,1,0,0:0:0:0:
448,192,203532,1,0,0:0:0:0:
192,192,203559,1,0,0:0:0:0:
64,192,203586,1,0,0:0:0:0:
320,192,203614,1,0,0:0:0:0:
448,192,203641,1,0,0:0:0:0:
192,192,203668,1,0,0:0:0:0:
64,192,203695,1,0,0:0:0:0:
320,192,203722,1,0,0:0:0:0:
448,192,203749,1,0,0:0:0:0:
64,192,203777,1,0,0:0:0:0:
192,192,203804,1,0,0:0:0:0:
320,192,203831,1,0,0:0:0:0:
448,192,203858,1,0,0:0:0:0:
64,192,203885,1,0,0:0:0:0:
192,192,203913,1,0,0:0:0:0:
320,192,203940,1,0,0:0:0:0:
448,192,203967,1,0,0:0:0:0:
64,192,203994,1,0,0:0:0:0:
192,192,204021,1,0,0:0:0:0:
320,192,204048,1,0,0:0:0:0:
448,192,204076,1,0,0:0:0:0:
64,192,204103,1,0,0:0:0:0:
192,192,204130,1,0,0:0:0:0:
320,192,204157,1,0,0:0:0:0:
448,192,204184,1,0,0:0:0:0:
64,192,204211,1,0,0:0:0:0:
192,192,204239,1,0,0:0:0:0:
320,192,204266,1,0,0:0:0:0:
448,192,204293,1,0,0:0:0:0:
64,192,204320,1,0,0:0:0:0:
192,192,204347,1,0,0:0:0:0:
320,192,204374,1,0,0:0:0:0:
448,192,204402,1,0,0:0:0:0:
64,192,204429,1,0,0:0:0:0:
192,192,204456,1,0,0:0:0:0:
320,192,204483,1,0,0:0:0:0:
448,192,204510,1,0,0:0:0:0:
64,192,204538,1,0,0:0:0:0:
192,192,204565,1,0,0:0:0:0:
320,192,204592,1,0,0:0:0:0:
448,192,204619,1,0,0:0:0:0:
64,192,204646,1,0,0:0:0:0:
192,192,204673,1,0,0:0:0:0:
320,192,204701,1,0,0:0:0:0:
448,192,204728,1,0,0:0:0:0:
64,192,204755,1,0,0:0:0:0:
192,192,204782,1,0,0:0:0:0:
320,192,204809,1,0,0:0:0:0:
448,192,204836,1,0,0:0:0:0:
64,192,204864,1,0,0:0:0:0:
192,192,204891,1,0,0:0:0:0:
320,192,204918,1,0,0:0:0:0:
448,192,204945,1,0,0:0:0:0:
64,192,204972,1,0,0:0:0:0:
192,192,204999,1,0,0:0:0:0:
320,192,205027,1,0,0:0:0:0:
448,192,205054,1,0,0:0:0:0:
64,192,205081,1,0,0:0:0:0:
192,192,205081,1,0,0:0:0:0:
320,192,205298,1,0,0:0:0:0:
448,192,205298,1,0,0:0:0:0:
64,192,205516,1,0,0:0:0:0:
192,192,205543,1,0,0:0:0:0:
320,192,205570,1,0,0:0:0:0:
448,192,205597,1,0,0:0:0:0:
64,192,205624,1,0,0:0:0:0:
192,192,205652,1,0,0:0:0:0:
320,192,205679,1,0,0:0:0:0:
448,192,205706,1,0,0:0:0:0:
64,192,205733,1,0,0:0:0:0:
192,192,205760,1,0,0:0:0:0:
320,192,205788,1,0,0:0:0:0:
448,192,205815,1,0,0:0:0:0:
64,192,205842,1,0,0:0:0:0:
192,192,205869,1,0,0:0:0:0:
320,192,205896,1,0,0:0:0:0:
448,192,205923,1,0,0:0:0:0:
64,192,205951,1,0,0:0:0:0:
192,192,205978,1,0,0:0:0:0:
320,192,206005,1,0,0:0:0:0:
448,192,206032,1,0,0:0:0:0:
64,192,206059,1,0,0:0:0:0:
192,192,206086,1,0,0:0:0:0:
320,192,206114,1,0,0:0:0:0:
448,192,206141,1,0,0:0:0:0:
64,192,206168,1,0,0:0:0:0:
192,192,206195,1,0,0:0:0:0:
320,192,206222,1,0,0:0:0:0:
448,192,206249,1,0,0:0:0:0:
64,192,206277,1,0,0:0:0:0:
192,192,206304,1,0,0:0:0:0:
320,192,206331,1,0,0:0:0:0:
448,192,206358,1,0,0:0:0:0:
64,192,206385,1,0,0:0:0:0:
192,192,206413,1,0,0:0:0:0:
320,192,206440,1,0,0:0:0:0:
448,192,206467,1,0,0:0:0:0:
64,192,206494,1,0,0:0:0:0:
192,192,206521,1,0,0:0:0:0:
320,192,206548,1,0,0:0:0:0:
448,192,206576,1,0,0:0:0:0:
64,192,206603,1,0,0:0:0:0:
192,192,206630,1,0,0:0:0:0:
320,192,206657,1,0,0:0:0:0:
448,192,206684,1,0,0:0:0:0:
64,192,206711,1,0,0:0:0:0:
192,192,206739,1,0,0:0:0:0:
320,192,206766,1,0,0:0:0:0:
448,192,206793,1,0,0:0:0:0:
64,192,206820,1,0,0:0:0:0:
192,192,206820,1,0,0:0:0:0:
320,192,207038,1,0,0:0:0:0:
448,192,207038,1,0,0:0:0:0:
64,192,207255,1,0,0:0:0:0:
192,192,207282,1,0,0:0:0:0:
320,192,207309,1,0,0:0:0:0:
448,192,207336,1,0,0:0:0:0:
64,192,207364,1,0,0:0:0:0:
192,192,207391,1,0,0:0:0:0:
320,192,207418,1,0,0:0:0:0:
448,192,207445,1,0,0:0:0:0:
64,192,207472,1,0,0:0:0:0:
192,192,207499,1,0,0:0:0:0:
320,192,207527,1,0,0:0:0:0:
448,192,207554,1,0,0:0:0:0:
64,192,207581,1,0,0:0:0:0:
192,192,207608,1,0,0:0:0:0:
320,192,207635,1,0,0:0:0:0:
448,192,207663,1,0,0:0:0:0:
64,192,207690,1,0,0:0:0:0:
192,192,207717,1,0,0:0:0:0:
320,192,207744,1,0,0:0:0:0:
448,192,207771,1,0,0:0:0:0:
64,192,207798,1,0,0:0:0:0:
192,192,207826,1,0,0:0:0:0:
320,192,207853,1,0,0:0:0:0:
448,192,207880,1,0,0:0:0:0:
64,192,207907,1,0,0:0:0:0:
192,192,207934,1,0,0:0:0:0:
320,192,207961,1,0,0:0:0:0:
448,192,207989,1,0,0:0:0:0:
64,192,208016,1,0,0:0:0:0:
192,192,208043,1,0,0:0:0:0:
320,192,208070,1,0,0:0:0:0:
448,192,208097,1,0,0:0:0:0:
64,192,208124,1,0,0:0:0:0:
192,192,208152,1,0,0:0:0:0:
320,192,208179,1,0,0:0:0:0:
448,192,208206,1,0,0:0:0:0:
64,192,208233,1,0,0:0:0:0:
192,192,208260,1,0,0:0:0:0:
320,192,208288,1,0,0:0:0:0:
448,192,208315,1,0,0:0:0:0:
64,192,208342,1,0,0:0:0:0:
192,192,208369,1,0,0:0:0:0:
320,192,208396,1,0,0:0:0:0:
448,192,208423,1,0,0:0:0:0:
64,192,208451,1,0,0:0:0:0:
192,192,208478,1,0,0:0:0:0:
320,192,208505,1,0,0:0:0:0:
448,192,208532,1,0,0:0:0:0:
64,192,208559,1,0,0:0:0:0:
192,192,208559,1,0,0:0:0:0:
320,192,208777,1,0,0:0:0:0:
448,192,208777,1,0,0:0:0:0:
64,192,208994,1,0,0:0:0:0:
192,192,209021,1,0,0:0:0:0:
448,192,209048,1,0,0:0:0:0:
320,192,209076,1,0,0:0:0:0:
64,192,209103,1,0,0:0:0:0:
192,192,209130,1,0,0:0:0:0:
448,192,209157,1,0,0:0:0:0:
320,192,209184,1,0,0:0:0:0:
64,192,209211,1,0,0:0:0:0:
192,192,209239,1,0,0:0:0:0:
448,192,209266,1,0,0:0:0:0:
320,192,209293,1,0,0:0:0:0:
64,192,209320,1,0,0:0:0:0:
192,192,209347,1,0,0:0:0:0:
448,192,209374,1,0,0:0:0:0:
320,192,209402,1,0,0:0:0:0:
64,192,209429,1,0,0:0:0:0:
192,192,209456,1,0,0:0:0:0:
448,192,209483,1,0,0:0:0:0:
320,192,209510,1,0,0:0:0:0:
64,192,209538,1,0,0:0:0:0:
192,192,209565,1,0,0:0:0:0:
448,192,209592,1,0,0:0:0:0:
320,192,209619,1,0,0:0:0:0:
64,192,209646,1,0,0:0:0:0:
192,192,209673,1,0,0:0:0:0:
448,192,209701,1,0,0:0:0:0:
320,192,209728,1,0,0:0:0:0:
64,192,209755,1,0,0:0:0:0:
192,192,209782,1,0,0:0:0:0:
448,192,209809,1,0,0:0:0:0:
320,192,209836,1,0,0:0:0:0:
64,192,209864,1,0,0:0:0:0:
192,192,209864,1,0,0:0:0:0:
320,192,210081,1,0,0:0:0:0:
448,192,210081,1,0,0:0:0:0:
64,192,210298,1,0,0:0:0:0:
192,192,210298,1,0,0:0:0:0:
320,0,210516,128,0,210624:1:0:0:0:
64,192,210733,1,0,0:0:0:0:
192,192,210788,1,0,0:0:0:0:
320,192,210842,1,0,0:0:0:0:
448,192,210896,1,0,0:0:0:0:
64,192,210951,1,0,0:0:0:0:
192,192,211005,1,0,0:0:0:0:
320,0,211059,128,0,211114:1:0:0:0:
448,192,211168,1,0,0:0:0:0:
320,192,211222,1,0,0:0:0:0:
192,192,211277,1,0,0:0:0:0:
64,192,211331,1,0,0:0:0:0:
448,192,211385,1,0,0:0:0:0:
320,192,211440,1,0,0:0:0:0:
192,0,211494,128,0,211548:1:0:0:0:
64,192,211603,1,0,0:0:0:0:
192,192,211657,1,0,0:0:0:0:
320,192,211711,1,0,0:0:0:0:
448,192,211766,1,0,0:0:0:0:
64,192,211820,1,0,0:0:0:0:
192,192,211874,1,0,0:0:0:0:
320,0,211929,128,0,211983:1:0:0:0:
