osu file format v12

[General]
AudioFilename: ZED.mp3
AudioLeadIn: 0
PreviewTime: 34783
Countdown: 0
SampleSet: Soft
StackLeniency: 0.7
Mode: 0
LetterboxInBreaks: 0
WidescreenStoryboard: 0

[Editor]
DistanceSpacing: 1.1
BeatDivisor: 8
GridSize: 4

[Metadata]
Title:ZED
TitleUnicode:ZED
Artist:USAO
ArtistUnicode:USAO
Creator:Mr Color
Version:Znother
Source:beatmaniaIIDX
Tags:20 tricoro DUBSTEP DUB STEP Nyquill
BeatmapID:246748
BeatmapSetID:60115

[Difficulty]
HPDrainRate:7
CircleSize:4
OverallDifficulty:8
ApproachRate:9
SliderMultiplier:1.9
SliderTickRate:2

[Events]
//Background and Video events
0,0,"wallpaper-2397213.jpg",0,0
//Break Periods
2,21087,25340
2,66561,75867
//Storyboard Layer 0 (Background)
//Storyboard Layer 1 (Fail)
//Storyboard Layer 2 (Pass)
//Storyboard Layer 3 (Foreground)
//Storyboard Sound Samples
//Background Colour Transformations
3,100,163,162,255

[TimingPoints]
10783,315.789473684211,4,2,0,90,1,0
25940,-100,4,2,0,60,0,0
27204,-100,4,2,0,70,0,0
28467,-100,4,2,0,80,0,0
29730,-100,4,2,0,90,0,0
36046,-76.9230769230769,4,2,0,90,0,1
43625,-100,4,2,0,90,0,0
46151,-76.9230769230769,4,2,0,90,0,1
53730,-100,4,2,0,90,0,0
56256,-76.9230769230769,4,2,0,90,0,1
63835,-100,4,2,0,90,0,0
91625,-71.4285714285714,4,2,0,90,0,1
101730,-71.4285714285714,4,2,0,90,0,0

[Colours]
Combo1 : 0,128,192
Combo2 : 0,255,255
Combo3 : 128,128,255
Combo4 : 0,0,255

[HitObjects]
52,168,10782,6,0,B|116:132|192:168|188:248,1,190,0|0,1:0|0:0,0:0:0:0:
136,320,11256,1,0,0:0:0:0:
220,368,11414,2,0,B|252:320|304:340,1,95,8|0,1:0|0:0,0:0:0:0:
476,336,11730,2,0,B|444:384|392:364,1,95,0|0,1:0|0:0,0:0:0:0:
348,272,12046,6,0,B|324:224|324:224|344:188|344:188|320:140,2,142.5,0|0|0,1:0|1:0|1:0,0:0:0:0:
436,236,12677,1,8,1:0:0:0:
436,236,12835,1,0,0:0:0:0:
420,144,12993,1,2,0:3:0:0:
404,52,13151,1,0,0:0:0:0:
308,80,13309,6,0,B|208:116|124:40,1,190,0|0,1:0|0:0,0:0:0:0:
44,88,13783,2,0,B|68:136|44:188,1,95,0|8,1:0|1:0,0:0:0:0:
136,328,14098,2,0,B|88:352|36:328,2,95,0|0|0,0:0|1:0|0:0,0:0:0:0:
200,256,14572,6,0,B|248:264|248:264|268:300|268:300|320:308,2,142.5,0|0|0,1:0|1:0|1:0,0:0:0:0:
184,252,15125,1,0,1:0:0:0:
168,248,15204,1,8,1:0:0:0:
136,160,15361,2,0,B|148:108|128:64,2,95,0|2|0,0:0|0:3|0:0,0:0:0:0:
16,320,15835,6,0,B|80:272|148:304|160:376,1,190,0|0,1:0|0:0,0:0:0:0:
248,340,16309,1,0,0:0:0:0:
248,340,16467,2,0,B|344:332,1,95,8|0,1:0|0:0,0:0:0:0:
456,384,16783,2,0,B|448:288,1,95,0|0,1:0|0:0,0:0:0:0:
376,184,17098,6,0,B|392:36,2,142.5,0|0|0,1:0|1:0|1:0,0:0:0:0:
296,240,17730,1,8,1:0:0:0:
220,184,17888,1,0,0:0:0:0:
128,216,18046,1,2,0:3:0:0:
124,312,18204,1,0,0:0:0:0:
212,276,18361,6,0,B|192:208|108:192|56:236,1,190,0|0,1:0|0:0,0:0:0:0:
4,316,18835,1,0,1:0:0:0:
24,160,18993,2,0,B|8:56,1,95,8|0,1:0|0:0,0:0:0:0:
184,12,19309,2,0,B|200:116,1,95,0|0,1:0|0:0,0:0:0:0:
336,312,19625,6,0,B|384:328|436:316|464:268,2,142.5,0|0|0,1:0|1:0|1:0,0:0:0:0:
320,308,20177,1,0,1:0:0:0:
304,304,20256,1,8,1:0:0:0:
216,340,20414,1,2,0:3:0:0:
216,340,20572,2,0,B|148:328|148:328|124:280|124:280|56:268,1,190,2|0,0:0|2:0,0:0:0:0:
24,104,25940,6,0,B|92:140|168:108|184:40,1,190,2|0,2:1|2:0,0:0:0:0:
392,72,26414,1,2,0:1:0:0:
392,72,26572,2,0,B|328:40|256:64|232:136,1,190,0|2,2:0|2:1,0:0:0:0:
296,200,27046,1,0,0:0:0:0:
296,200,27204,6,0,B|404:216,1,95,2|0,0:1|0:0,0:0:0:0:
472,352,27519,1,0,0:0:0:0:
472,352,27677,2,0,B|364:336,1,95,2|0,0:1|0:0,0:1:0:0:
292,300,27993,1,0,0:0:0:0:
272,312,28072,1,0,0:0:0:0:
248,316,28151,1,2,0:1:0:0:
224,312,28230,1,0,0:0:0:0:
204,300,28309,1,0,0:0:0:0:
180,292,28388,1,0,0:0:0:0:
156,296,28467,6,0,B|108:300|80:352,1,95,2|0,0:1|0:0,0:0:0:0:
52,240,28783,1,0,0:0:0:0:
52,240,28940,2,0,B|40:136,1,95,2|0,0:1|0:0,0:0:0:0:
132,16,29256,2,0,B|180:36|228:16,2,95,0|2|0,0:0|0:1|0:0,0:0:0:0:
80,80,29730,6,0,B|176:120|272:80,1,190,2|0,0:1|0:0,0:0:0:0:
340,32,30204,2,0,P|436:24|484:108,1,190,2|0,0:1|0:0,0:0:0:0:
456,192,30677,1,2,0:1:0:0:
484,288,30835,1,0,0:0:0:0:
384,336,30993,6,0,B|344:300|296:316,1,95,0|0,1:0|0:0,0:0:0:0:
112,320,31309,2,0,B|148:280|132:232,1,95,0|0,1:0|0:0,0:0:0:0:
128,48,31625,2,0,B|168:84|216:68,1,95,0|0,1:0|0:0,0:0:0:0:
400,64,31940,2,0,B|364:104|380:152,1,95,0|0,1:0|0:0,0:0:0:0:
332,252,32256,5,0,1:0:0:0:
196,268,32414,1,0,1:0:0:0:
180,132,32572,1,0,1:0:0:0:
316,116,32730,1,0,1:0:0:0:
302,308,32888,1,0,1:0:0:0:
139,238,33046,1,0,1:0:0:0:
209,75,33204,1,0,1:0:0:0:
372,145,33361,1,0,1:0:0:0:
468,52,33519,5,0,1:0:0:0:
440,80,33598,1,0,1:0:0:0:
408,100,33677,1,0,1:0:0:0:
372,108,33756,1,0,1:0:0:0:
336,100,33835,1,0,1:0:0:0:
302,76,33914,1,0,1:0:0:0:
268,60,33993,1,0,1:0:0:0:
228,60,34072,1,0,1:0:0:0:
192,76,34151,1,0,1:0:0:0:
168,108,34230,1,0,1:0:0:0:
164,144,34309,1,0,1:0:0:0:
176,180,34388,1,0,1:0:0:0:
200,208,34467,1,0,1:0:0:0:
220,240,34546,1,0,1:0:0:0:
228,276,34625,1,0,1:0:0:0:
216,312,34704,1,0,1:0:0:0:
192,340,34783,6,0,B|168:352,16,23.75
452,52,36046,6,0,B|356:24|288:124|344:212,1,246.999988693238,4|0,1:0|0:0,0:0:0:0:
408,348,36519,1,0,1:0:0:0:
428,260,36677,2,0,B|356:256|324:316,1,123.499994346619,8|0,1:0|0:0,0:0:0:0:
120,332,36993,2,0,B|28:336,2,82.3333295644126,0|2|2,1:3|0:3|0:3,0:0:0:0:
168,256,37309,6,0,B|168:208|200:180,1,82.3333295644126,0|0,1:0|0:0,0:0:0:0:
332,236,37519,2,0,B|290:260|250:246,1,82.3333295644126,0|0,1:0|0:0,0:0:0:0:
232,108,37730,2,0,B|273:132|281:173,1,82.3333295644126,0|0,1:0|1:0,1:0:0:0:
84,228,37940,1,8,1:0:0:0:
68,36,38098,1,0,0:0:0:0:
68,36,38256,2,0,B|128:20|128:20|184:44|184:44|244:28,1,185.249991519928
280,48,38572,6,0,B|312:136,1,82.3333295644126,4|0,1:1|0:0,0:0:0:0:
340,276,38783,2,0,B|247:259,1,82.3333295644126,4|0,1:0|0:0,0:0:0:0:
112,224,38993,2,0,B|172:152,1,82.3333295644126,4|0,1:0|0:0,0:0:0:0:
416,216,39204,2,0,B|468:304|384:404|284:376,1,246.999988693238,8|0,1:0|1:3,0:0:0:0:
236,340,39625,1,2,0:3:0:0:
159,367,39730,1,2,0:3:0:0:
83,332,39835,5,8,1:0:0:0:
62,250,39940,1,8,0:0:0:0:
102,180,40046,1,2,0:0:0:0:
184,176,40151,2,0,B|244:160|244:160|268:192|268:192|328:176,1,164.666659128825,0|0,1:0|0:0,0:0:0:0:
464,244,40467,2,0,B|488:292|448:344,2,82.3333295644126,8|0|2,1:0|0:0|0:0,0:0:0:0:
416,48,40783,1,0,1:3:0:0:
416,48,41098,6,0,B|340:12|232:64|252:192,1,246.999988693238,4|0,1:0|0:0,0:0:0:0:
360,340,41572,1,0,1:0:0:0:
256,272,41730,2,0,B|188:248|136:296,1,123.499994346619,8|0,1:0|0:0,0:0:0:0:
52,340,42046,1,0,1:1:0:0:
64,256,42151,1,2,0:3:0:0:
20,180,42256,1,2,0:3:0:0:
56,104,42361,6,0,B|144:112,1,82.3333295644126,0|0,1:0|0:0,0:0:0:0:
244,72,42572,2,0,B|332:80,1,82.3333295644126,0|0,1:0|0:0,0:0:0:0:
412,160,42783,2,0,B|500:168,1,82.3333295644126,0|0,1:0|1:0,0:0:0:0:
460,316,42993,2,0,B|408:284|336:292,1,123.499994346619,8|0,1:0|0:0,0:0:0:0:
176,344,43309,2,0,L|216:160,1,185.249991519928,0|0,1:0|0:0,0:0:0:0:
180,168,43625,6,0,B|108:124|132:24|208:24,1,190,0|0,1:0|2:0,0:0:0:0:
312,24,44098,2,0,B|372:24|408:120|332:168,1,190,0|0,1:0|0:0,0:0:0:0:
256,116,44572,1,0,1:0:0:0:
256,116,44730,1,0,0:0:0:0:
256,208,44888,6,0,B|240:244|256:280|256:280|272:316|256:352,2,142.5,0|0|0,1:0|1:0|1:0,0:0:0:0:
324,248,45519,2,0,B|356:204|324:156,1,95,8|0,1:0|0:0,0:0:0:0:
200,144,45835,2,0,B|157:177|174:232,1,95,2|0,1:3|0:0,0:0:0:0:
344,348,46151,6,0,B|444:360|507:288|480:191,1,246.999988693238,4|0,1:0|0:0,0:0:0:0:
264,64,46625,1,0,1:0:0:0:
264,64,46783,2,0,B|284:128|240:184,1,123.499994346619,8|0,1:0|0:0,0:0:0:0:
88,312,47098,1,0,1:0:0:0:
164,328,47204,1,2,0:3:0:0:
240,344,47309,1,2,0:3:0:0:
320,360,47414,6,0,B|304:316|332:280,1,82.3333295644126,0|0,1:0|0:0,0:0:0:0:
456,104,47625,2,0,B|472:148|444:184,1,82.3333295644126,0|0,1:0|0:0,0:0:0:0:
504,336,47835,2,0,B|457:327|440:285,1,82.3333295644126,0|0,1:0|1:0,0:0:0:0:
324,176,48046,2,0,B|196:208,1,123.499994346619,8|0,1:0|0:0,0:0:0:0:
68,56,48361,1,0,0:0:0:0:
68,56,48677,6,0,B|152:32,1,82.3333295644126,4|0,1:0|0:0,0:0:0:0:
248,204,48888,2,0,B|164:180,1,82.3333295644126,4|0,1:0|0:0,0:0:0:0:
16,332,49098,2,0,B|100:308,1,82.3333295644126,4|0,1:0|0:0,0:0:0:0:
364,368,49309,2,0,B|457:416|533:312|481:232,1,246.999988693238,8|0,1:0|1:0,0:0:0:0:
468,148,49730,1,2,0:3:0:0:
452,64,49835,1,2,0:3:0:0:
376,100,49940,5,8,0:0:0:0:
296,84,50046,1,8,0:0:0:0:
216,68,50151,1,2,0:0:0:0:
140,20,50256,2,0,B|160:76|108:136|40:112,1,164.666659128825,0|0,1:0|0:0,0:0:0:0:
12,296,50572,2,0,B|20:380,2,82.3333295644126,8|2|2,1:0|0:3|0:0,0:0:0:0:
104,248,50888,1,8,1:0:0:0:
104,248,51204,6,0,B|116:244|116:244|116:256|116:256|128:248|128:248|128:260|128:260|140:252|140:252|140:264|140:264|152:256|152:256|152:268|152:268|164:260|164:260|164:272|164:272|176:264|176:264|176:276|176:276|188:268|188:268|188:280|188:280|200:272|200:272|200:284|200:284|212:276|212:276|212:288|212:288|224:280|224:280|224:292|224:292|236:284|236:284|236:296|236:296|248:288|248:288|248:300|248:300|260:292|260:292|260:304|260:304|272:296|272:296|272:308|272:308|284:300|284:300|284:312|284:312|296:304|296:304|296:316|296:316|308:308|308:308|308:320|308:320|320:312|320:312|320:324|320:324|332:316|332:316|332:328|332:328|344:320|344:320|344:332|344:332|356:324|356:324|356:336|356:336|368:328|368:328|368:340|368:340|380:332|380:332|380:344|380:344|392:336|392:336|392:348|392:348|404:340|404:340|404:352|404:352|416:344|416:344|416:356|416:356|428:348|428:348|428:360|428:360|440:352|440:352|440:364|440:364|452:360,1,740.999966079713,4|4,1:0|1:0,0:0:0:0:
436,48,52467,6,0,B|424:132,1,82.3333295644126,0|0,1:0|0:0,0:0:0:0:
312,72,52677,2,0,B|300:156,1,82.3333295644126,0|0,1:0|0:0,0:0:0:0:
184,88,52888,2,0,B|172:172,1,82.3333295644126,0|0,1:0|1:0,0:0:0:0:
256,320,53098,1,8,1:0:0:0:
256,320,53414,2,0,B|236:256|168:232|104:260,1,185.249991519928,0|0,1:0|0:0,0:0:0:0:
80,280,53730,6,0,B|92:208|92:208|60:176|60:176|72:104,1,190,0|0,1:0|0:0,0:0:0:0:
128,40,54204,1,0,1:0:0:0:
216,68,54361,2,0,B|264:116|336:116|396:80,1,190,8|0,1:0|1:0,0:0:0:0:
472,140,54835,1,0,0:0:0:0:
448,320,54993,6,0,B|404:284|348:300|324:352,2,142.5,0|0|0,1:0|1:0|1:0,0:0:0:0:
464,328,55546,1,0,1:0:0:0:
480,336,55625,1,8,1:0:0:0:
464,232,55783,1,0,0:0:0:0:
376,212,55940,1,2,0:3:0:0:
296,252,56098,1,0,0:0:0:0:
224,368,56256,6,0,B|240:272|144:212|56:268,1,246.999988693238,4|0,1:0|0:0,0:0:0:0:
112,60,56730,1,0,1:0:0:0:
56,152,56888,2,0,B|116:180|172:148|172:148|248:168,1,185.249991519928,8|0,1:0|0:0,0:0:0:0:
380,128,57204,2,0,B|464:152,2,82.3333295644126,0|2|2,1:0|0:3|0:3,0:0:0:0:
176,40,57519,6,0,B|152:76|168:124,1,82.3333295644126,0|0,1:0|0:0,0:0:0:0:
60,224,57730,2,0,B|103:226|136:188,1,82.3333295644126,0|0,1:0|0:0,0:0:0:0:
280,232,57940,2,0,B|260:193|211:183,1,82.3333295644126,0|0,1:0|1:0,0:0:0:0:
100,324,58151,1,8,1:0:0:0:
276,380,58309,1,0,0:0:0:0:
276,380,58467,2,0,B|292:312|368:288|424:328,1,185.249991519928,0|0,1:0|0:0,0:0:0:0:
456,344,58783,6,0,B|448:260,1,82.3333295644126,4|0,1:0|0:0,0:0:0:0:
272,216,58993,2,0,B|279:297,1,82.3333295644126,4|0,1:0|0:0,0:0:0:0:
404,172,59204,2,0,B|396:88,1,82.3333295644126,4|0,1:0|0:0,0:0:0:0:
220,44,59414,2,0,B|212:104|148:128|92:96,1,164.666659128825,8|0,1:0|0:0,0:0:0:0:
16,272,59730,2,0,B|-4:324|24:368,2,82.3333295644126,0|2|2,1:0|0:3|0:3,0:0:0:0:
92,216,60046,5,0,1:0:0:0:
168,260,60151,1,8,0:0:0:0:
248,300,60256,1,2,0:0:0:0:
332,340,60361,2,0,B|396:360|448:316|444:256,1,164.666659128825,0|0,1:0|0:0,0:0:0:0:
404,48,60677,2,0,B|388:128,2,82.3333295644126,8|2|2,1:0|1:3|0:0,0:0:0:0:
312,168,60993,2,0,B|256:120|188:140|164:208,1,185.249991519928,0|0,1:0|0:0,0:0:0:0:
60,292,61309,6,0,B|148:284|148:284|196:328|196:328|288:320,1,246.999988693238,4|0,1:0|0:0,0:0:0:0:
480,244,61783,1,0,1:0:0:0:
480,244,61940,2,0,B|464:368,1,123.499994346619,8|0,1:0|0:0,0:0:0:0:
264,228,62256,1,0,1:0:0:0:
240,144,62361,1,2,0:3:0:0:
216,60,62467,1,2,0:3:0:0:
300,76,62572,6,0,B|336:104|376:88,1,82.3333295644126,0|0,1:0|0:0,0:0:0:0:
488,208,62783,2,0,B|452:180|412:196,1,82.3333295644126,0|0,1:0|0:0,0:0:0:0:
224,252,62993,2,0,B|260:280|300:264,1,82.3333295644126,0|0,1:0|1:0,0:0:0:0:
480,360,63204,2,0,B|424:320|340:352,1,123.499994346619,8|0,1:0|0:0,0:0:0:0:
108,316,63519,1,0,1:0:0:0:
108,316,63835,6,0,B|92:252|92:252|124:204|124:204|108:140,1,190,0|0,1:0|0:0,0:0:0:0:
48,52,64309,1,0,1:0:0:0:
144,16,64467,2,0,B|244:32,1,95,8|0,1:0|0:0,0:0:0:0:
464,120,64783,2,0,B|364:104,1,95,0|0,1:0|0:0,0:0:0:0:
184,216,65098,6,0,B|144:272|184:352,2,142.5,0|0|0,1:0|1:0|1:0,0:0:0:0:
208,192,65651,1,0,1:0:0:0:
232,172,65730,1,8,1:0:0:0:
304,248,65888,2,0,P|396:248|440:332,1,190
336,352,66361,1,4,0:0:0:0:
68,76,76467,6,0,B|168:60,1,95,0|0,1:0|0:0,0:0:0:0:
252,136,76783,2,0,B|280:212|228:276|148:272,1,190,8|0,1:0|0:0,0:0:0:0:
56,228,77256,1,0,1:0:0:0:
12,352,77414,2,0,B|112:376,1,95,8|0,1:0|0:0,0:0:0:0:
364,324,77730,5,0,1:0:0:0:
364,324,78046,2,0,B|392:252|392:252|436:252|436:252|460:188,1,190,8|0,1:0|0:0,0:0:0:0:
400,112,78519,1,0,1:0:0:0:
468,40,78677,1,8,1:0:0:0:
368,12,78835,1,0,1:0:0:0:
208,60,78993,6,0,B|240:128|192:200|112:188,1,190,0|8,1:0|1:0,0:0:0:0:
56,148,79467,2,0,B|24:80|72:8|152:20,1,190,2|0,0:0|1:0,0:0:0:0:
132,104,79940,1,8,1:0:0:0:
132,104,80098,1,0,2:0:0:0:
312,156,80256,6,0,B|280:224|328:296|408:284,1,190,0|8,1:0|1:0,0:0:0:0:
464,244,80730,2,0,B|496:176|448:104|368:116,1,190,2|0,0:0|1:0,0:0:0:0:
388,200,81204,1,8,1:0:0:0:
388,200,81361,1,0,1:0:0:0:
272,240,81519,6,0,L|256:348,1,95,0|0,1:0|0:0,0:0:0:0:
128,360,81835,1,8,1:0:0:0:
128,360,82151,1,0,1:0:0:0:
48,316,82309,1,0,1:0:0:0:
128,268,82467,1,8,1:0:0:0:
48,220,82625,1,0,1:0:0:0:
132,180,82783,6,0,P|144:132|132:84,1,95,0|0,1:0|0:0,0:0:0:0:
44,20,83098,2,0,P|144:56|192:0,1,190,8|0,1:0|1:0,0:0:0:0:
272,64,83572,1,0,1:0:0:0:
272,64,83730,1,8,1:0:0:0:
360,28,83888,1,0,1:0:0:0:
456,64,84046,6,0,P|472:116|456:164,1,95,0|0,1:0|0:0,0:0:0:0:
312,232,84361,2,0,P|296:180|312:132,1,95,8|0,1:0|0:0,0:0:0:0:
452,252,84677,1,0,1:0:0:0:
452,252,84835,1,0,1:0:0:0:
392,340,84993,1,8,1:0:0:0:
284,320,85151,1,0,1:0:0:0:
64,256,85309,6,0,P|52:304|72:360,1,95,0|0,1:0|0:0,0:0:0:0:
168,308,85625,1,8,1:0:0:0:
168,308,85940,2,0,L|184:204,1,95,0|0,1:0|1:0,0:0:0:0:
88,36,86256,2,0,L|72:140,1,95,8|0,1:0|1:0,0:0:0:0:
168,112,86572,5,0,1:0:0:0:
252,144,86730,1,0,1:0:0:0:
324,84,86888,2,0,P|364:56|408:64,1,95,8|0,1:0|1:0,0:0:0:0:
440,156,87204,1,0,1:0:0:0:
404,236,87361,2,0,P|388:288|400:340,1,95,0|8,1:0|1:0,1:0:0:0:
468,296,87677,1,0,1:0:0:0:
320,232,87835,6,0,L|224:252,1,95,0|0,1:0|1:0,1:0:0:0:
36,312,88151,2,0,L|136:328,1,95,8|0,1:0|1:0,1:0:0:0:
284,380,88467,2,0,L|272:284,1,95,0|0,1:0|1:0,1:0:0:0:
84,160,88783,2,0,L|96:256,1,95,8|0,1:0|1:0,1:0:0:0:
52,76,89098,5,0,1:0:0:0:
140,88,89256,2,0,P|232:68|284:96,4,142.5,0|2|2|2|2,1:0|0:0|0:0|0:0|2:0,2:0:0:0:
88,336,90361,6,0,L|76:308,14,23.75,0|0|0|0|0|0|0|0|0|0|0|0|0|0|0,1:0|0:0|0:0|0:0|0:0|0:0|0:0|0:0|0:0|0:0|0:0|0:0|0:0|0:0|0:0,0:0:0:0:
64,356,90993,2,0,B|140:360|140:360|172:344|172:344|256:348,1,190,0|0,2:0|0:0,0:0:0:0:
424,276,91467,1,0,2:0:0:0:
300,96,91625,6,0,P|360:60|424:76,1,132.999995941162,4|0,1:0|0:0,0:0:0:0:
416,240,91940,2,0,P|357:252|297:216,1,132.999995941162,8|0,1:0|0:0,0:0:0:0:
204,152,92256,1,0,1:0:0:0:
156,124,92335,1,0,0:0:0:0:
100,136,92414,1,0,0:0:0:0:
64,340,92572,2,0,B|56:312|56:312|64:284|64:284|56:244,2,88.6666639607748,8|2|2,1:0|0:3|0:3,0:0:0:0:
96,240,92888,6,0,P|196:220|252:308,1,199.499993911743,0|0,1:0|0:0,0:0:0:0:
256,320,93204,1,8,1:0:0:0:
432,352,93361,2,0,L|452:220,1,132.999995941162,0|0,0:0|1:0,0:0:0:0:
312,56,93677,1,0,2:0:0:0:
354,90,93756,1,0,0:0:0:0:
392,124,93835,2,0,P|347:161|275:157,1,132.999995941162,8|0,1:0|1:0,0:0:0:0:
224,136,94072,1,0,1:0:0:0:
176,116,94151,6,0,L|40:132,1,132.999995941162,4|0,1:0|0:0,0:0:0:0:
43,252,94467,2,0,L|176:268,1,132.999995941162,8|0,1:0|0:0,0:0:0:0:
432,292,94783,2,0,P|328:344|292:240,1,199.499993911743,0|0,1:0|0:0,0:0:0:0:
320,144,95098,2,0,P|324:100|308:60,2,88.6666639607748,8|2|2,1:0|3:0|3:0,0:0:0:0:
192,144,95414,6,0,P|188:100|204:60,2,88.6666639607748,0|0|0,1:0|0:0|0:0,0:0:0:0:
107,195,95730,2,0,P|180:248|256:220,1,132.999995941162,8|0,1:0|0:0,0:0:0:0:
352,236,96046,2,0,L|432:276,2,88.6666639607748,0|0|0,1:0|0:0|0:0,0:0:0:0:
288,304,96361,1,8,1:0:0:0:
56,336,96519,1,0,1:0:0:0:
112,348,96598,1,0,1:0:0:0:
168,364,96677,6,0,P|212:316|192:252,1,132.999995941162,4|0,1:0|0:0,0:0:0:0:
52,144,96993,2,0,P|8:192|28:256,1,132.999995941162,8|0,1:0|0:0,0:0:0:0:
152,100,97309,2,0,L|300:120,1,132.999995941162,0|0,1:0|0:0,0:0:0:0:
368,48,97625,2,0,P|416:32|464:40,2,88.6666639607748,8|2|2,1:0|3:0|3:0,0:0:0:0:
424,120,97940,6,0,P|440:188|396:240,1,132.999995941162,0|0,1:0|0:0,0:0:0:0:
364,252,98177,1,0,0:0:0:0:
320,248,98256,1,8,1:0:0:0:
52,280,98414,2,0,P|88:336|168:312,1,132.999995941162,0|0,0:0|1:0,0:0:0:0:
212,220,98730,1,0,0:0:0:0:
224,168,98809,1,0,0:0:0:0:
212,116,98888,2,0,P|172:76|104:92,1,132.999995941162,8|0,1:0|1:0,0:0:0:0:
72,128,99125,1,0,1:0:0:0:
72,184,99204,5,0,1:0:0:0:
144,280,99361,2,0,P|80:304|20:284,1,132.999995941162,0|8,0:0|1:0,0:0:0:0:
245,278,99677,2,0,P|228:216|172:184,1,132.999995941162,0|0,0:0|1:0,0:0:0:0:
315,356,99993,2,0,P|264:380|192:364,1,132.999995941162,0|8,0:0|1:0,0:0:0:0:
332,268,100309,6,0,L|472:296,1,132.999995941162,0|0,0:0|1:0,0:0:0:0:
280,192,100625,2,0,L|140:164,1,132.999995941162,0|8,0:0|1:0,0:0:0:0:
364,144,100940,2,0,L|504:172,1,132.999995941162,0|0,0:0|1:0,0:0:0:0:
320,56,101256,5,0,0:0:0:0:
272,32,101335,1,0,1:0:0:0:
220,40,101414,1,8,1:0:0:0:
180,76,101493,1,0,0:0:0:0:
132,100,101572,1,0,1:0:0:0:
80,88,101651,1,0,1:0:0:0:
40,56,101730,6,0,P|52:136|36:196,1,132.999995941162,6|0,1:0|0:0,0:0:0:0:
168,344,102046,1,8,1:0:0:0:
168,344,102204,2,0,L|32:336,1,132.999995941162,2|0,2:1|1:0,0:0:0:0:
120,248,102519,2,0,L|256:256,2,132.999995941162,0|8|0,0:0|1:0|0:0,0:0:0:0:
268,348,102993,6,0,P|340:288|264:160,1,265.999991882324,2|8,1:0|1:0,0:0:0:0:
28,296,103467,2,0,P|92:328|148:292,1,132.999995941162,2|0,0:1|1:0,0:0:0:0:
200,56,103783,5,0,0:0:0:0:
148,40,103861,1,0,1:0:0:0:
96,52,103940,1,10,1:0:0:0:
68,100,104019,1,0,0:0:0:0:
72,152,104098,1,0,1:0:0:0:
108,192,104177,1,0,1:0:0:0:
160,196,104256,6,0,P|228:176|292:200,1,132.999995941162,2|0,1:0|0:0,0:0:0:0:
368,304,104572,1,8,1:0:0:0:
252,364,104730,2,0,L|116:360,1,132.999995941162,2|0,0:1|1:0,0:0:0:0:
40,248,105046,1,0,0:0:0:0:
24,300,105125,1,0,0:0:0:0:
8,352,105204,1,8,1:0:0:0:
128,272,105361,1,0,0:0:0:0:
144,220,105440,1,0,0:0:0:0:
160,168,105519,6,0,P|120:116|52:120,2,132.999995941162,2|0|8,1:1|0:0|1:0,0:0:0:0:
256,288,105993,1,2,0:1:0:0:
388,344,106151,1,0,1:0:0:0:
440,332,106230,1,0,1:0:0:0:
492,196,106388,1,0,1:0:0:0:
440,188,106467,1,10,1:0:0:0:
344,252,106625,1,0,1:0:0:0:
448,92,106783,6,0,P|388:48|324:64,1,132.999995941162,2|0,1:0|0:0,0:0:0:0:
256,132,107098,1,8,1:0:0:0:
177,57,107256,2,0,P|124:48|64:92,2,132.999995941162,2|0|0,0:1|1:0|0:0,0:0:0:0:
144,160,107730,2,0,P|116:224|148:288,1,132.999995941162,8|0,1:0|0:0,0:0:0:0:
312,336,108046,6,0,P|448:356|480:248,1,265.999991882324,2|8,1:0|1:0,0:0:0:0:
400,156,108519,1,2,0:1:0:0:
384,104,108598,1,0,0:0:0:0:
372,60,108677,2,0,P|272:92|216:38,1,132.999995941162,0|0,1:0|2:0,0:0:0:0:
204,60,108914,1,0,1:0:0:0:
156,44,108993,1,10,1:1:0:0:
104,44,109072,1,0,0:1:0:0:
68,76,109151,1,0,1:0:0:0:
48,124,109230,1,0,1:0:0:0:
56,176,109309,6,0,P|72:244|40:304,2,132.999995941162,2|0|8,1:0|0:0|1:0,0:0:0:0:
160,132,109783,1,2,0:1:0:0:
256,216,109940,1,0,1:0:0:0:
172,316,110098,1,0,0:0:0:0:
212,352,110177,1,0,0:0:0:0:
264,340,110256,1,8,1:0:0:0:
480,332,110414,1,0,1:0:0:0:
440,296,110493,1,0,1:0:0:0:
388,308,110572,6,0,P|328:280|328:100,1,265.999991882324,2|8,1:0|1:0,0:0:0:0:
460,72,111046,1,2,0:1:0:0:
408,200,111204,1,0,1:0:0:0:
364,232,111283,1,0,1:0:0:0:
312,248,111361,1,0,0:0:0:0:
260,236,111440,1,0,1:0:0:0:
220,204,111519,1,8,1:0:0:0:
196,156,111598,1,0,0:0:0:0:
188,104,111677,1,0,1:0:0:0:
208,56,111756,1,0,1:0:0:0:
256,32,111835,6,0,P|324:20|376:52,1,132.999995941162,6|0,1:0|0:0,0:0:0:0:
104,144,112151,1,8,1:0:0:0:
104,144,112309,2,0,L|116:12,2,132.999995941162,2|0|0,0:1|1:0|0:0,0:0:0:0:
24,260,112783,2,0,P|68:316|128:312,1,132.999995941162,8|0,1:0|0:0,0:0:0:0:
288,200,113098,6,0,L|308:344,2,132.999995941162,2|0|8,1:0|0:0|1:0,0:0:0:0:
360,120,113572,1,2,0:1:0:0:
376,172,113651,1,0,0:0:0:0:
368,224,113730,1,0,1:0:0:0:
176,244,113888,1,0,0:0:0:0:
149,196,113967,1,0,1:0:0:0:
148,141,114046,1,10,1:0:0:0:
173,92,114125,1,0,0:0:0:0:
219,62,114204,1,0,1:0:0:0:
274,58,114283,1,0,1:0:0:0:
324,80,114361,6,0,P|396:104|456:84,1,132.999995941162,2|0,1:0|0:0,0:0:0:0:
328,0,114677,1,8,1:0:0:0:
260,136,114835,2,0,L|268:272,2,132.999995941162,2|0|0,0:1|1:0|2:0,0:0:0:0:
464,276,115309,2,0,P|412:328|352:320,1,132.999995941162,8|0,1:0|0:0,0:0:0:0:
154,322,115625,6,0,P|100:328|48:276,2,132.999995941162,2|0|8,1:0|0:0|1:0,0:0:0:0:
256,256,116098,1,2,2:1:0:0:
180,148,116256,1,0,1:0:0:0:
128,164,116335,1,0,1:0:0:0:
72,24,116493,1,0,1:0:0:0:
124,40,116572,1,8,1:0:0:0:
28,120,116730,1,0,1:0:0:0:
248,56,116888,6,0,P|316:48|384:72,1,132.999995941162,2|0,1:0|1:0,0:0:0:0:
464,192,117204,1,8,1:0:0:0:
320,216,117361,1,2,1:1:0:0:
308,268,117440,1,0,0:0:0:0:
332,316,117519,2,0,P|256:320|200:344,1,132.999995941162,0|0,1:0|1:0,0:0:0:0:
28,236,117835,2,0,L|64:376,1,132.999995941162,8|0,1:0|1:0,0:0:0:0:
80,152,118151,6,0,L|44:12,2,132.999995941162,2|0|8,1:0|1:0|1:0,0:0:0:0:
160,220,118625,1,2,1:0:0:0:
212,232,118704,1,0,0:0:0:0:
256,204,118783,1,0,1:0:0:0:
196,128,118940,1,0,1:0:0:0:
168,312,119098,1,10,1:0:0:0:
196,128,119256,1,0,1:0:0:0:
288,288,119414,5,2,1:0:0:0:
330,269,119493,1,0,1:0:0:0:
376,275,119572,1,0,1:0:0:0:
395,317,119651,1,0,1:0:0:0:
436,338,119730,1,0,1:0:0:0:
479,321,119809,1,0,1:0:0:0:
492,276,119888,1,2,1:0:0:0:
465,237,119967,1,0,1:0:0:0:
437,199,120046,1,0,1:0:0:0:
431,152,120125,1,0,1:0:0:0:
444,107,120204,1,0,1:0:0:0:
476,74,120283,1,0,1:0:0:0:
436,50,120361,1,0,1:0:0:0:
389,49,120440,1,0,1:0:0:0:
346,67,120519,1,0,1:0:0:0:
321,106,120598,1,0,1:0:0:0:
334,150,120677,6,0,L|351:186,7,33.2499989852906
301,180,120993,2,0,L|286:149,7,33.2499989852906
259,185,121309,2,0,L|276:221,7,33.2499989852906
226,215,121625,2,0,L|211:184,7,33.2499989852906,0|0|0|0|0|0|0|0,0:0|0:0|0:0|0:0|0:0|0:0|0:0|0:0,0:0:0:0:
