osu file format v14

[General]
AudioFilename: 28. USAO - Night sky.mp3
AudioLeadIn: 0
PreviewTime: 91425
Countdown: 0
SampleSet: Soft
StackLeniency: 0.7
Mode: 0
LetterboxInBreaks: 0
WidescreenStoryboard: 0

[Editor]
Bookmarks: 1738,6738,11738,16738,21738,29238,31738,41738,49238,51113,51581,51601,51620,51640,51659,51679,51698,51718,51757,51777,51796,51816,51835,51855,51874,51894,54472,54863,59784,61738,69238,71738,75409,75488,75566,76659,76738,76816,81738,89238,91738,96738,99159,99238,99316,100409,100488,100566,101738,109238,111738,120488,121738
DistanceSpacing: 1.5
BeatDivisor: 4
GridSize: 4
TimelineZoom: 1.2

[Metadata]
Title:Night sky
TitleUnicode:Night sky
Artist:USAO
ArtistUnicode:USAO
Creator:Mel
Version:Hyper
Source:beatmania IIDX 22 PENDUAL
Tags:sionkotori nishizumi darkvortex lumael tomhet65 jomnhnk
BeatmapID:834577
BeatmapSetID:376397

[Difficulty]
HPDrainRate:6
CircleSize:4
OverallDifficulty:6
ApproachRate:8.3
SliderMultiplier:1.5
SliderTickRate:1

[Events]
//Background and Video events
0,0,"nightsky.png",0,0
//Break Periods
2,31938,36034
//Storyboard Layer 0 (Background)
//Storyboard Layer 1 (Fail)
//Storyboard Layer 2 (Pass)
//Storyboard Layer 3 (Foreground)
//Storyboard Sound Samples

[TimingPoints]
488,312.5,4,2,0,55,1,0
1738,-133.333333333333,4,2,0,30,0,0
6738,-117.647058823529,4,2,0,55,0,0
7050,-117.647058823529,4,2,0,60,0,0
7675,-117.647058823529,4,2,0,66,0,0
8300,-117.647058823529,4,2,0,72,0,0
8613,-117.647058823529,4,2,0,78,0,0
8925,-117.647058823529,4,2,0,80,0,0
10800,-117.647058823529,4,2,0,30,0,0
11425,-117.647058823529,4,2,0,55,0,0
11738,-100,4,2,0,60,0,0
11816,-100,4,2,0,62,0,0
15488,-100,4,2,0,60,0,0
20488,-100,4,2,0,55,0,0
21738,-100,4,2,0,60,0,0
41425,-100,4,2,0,30,0,0
41738,-133.333333333333,4,2,0,60,0,0
51425,-100,4,2,0,20,0,0
51738,-100,4,2,0,60,0,0
61113,-200,4,2,0,60,0,0
61738,-100,4,2,0,60,0,1
61816,-100,4,2,0,60,0,0
71738,-100,4,2,0,60,0,1
71816,-100,4,2,0,60,0,0
81113,-100,4,2,0,40,0,0
81738,-125,4,2,0,60,0,0
91738,-100,4,2,0,60,0,1
100488,-100,4,2,0,60,0,0
101738,-125,4,2,0,60,0,0
110566,-100,4,2,0,40,0,0
110956,-100,4,2,0,60,0,0
111034,-100,4,2,0,40,0,0
111425,-100,4,2,0,60,0,0
111503,-100,4,2,0,40,0,0
111738,-100,4,2,0,80,0,0
111816,-100,4,2,0,60,0,0

[Colours]
Combo1 : 230,70,154
Combo2 : 72,155,224
Combo3 : 17,217,137
Combo4 : 104,40,189

[HitObjects]
40,216,1738,5,0,0:0:0:0:
108,248,1894,1,0,0:0:0:0:
168,204,2050,1,0,0:0:0:0:
168,204,2206,2,0,L|292:200,1,112.500004291535,0|0,0:0|0:0,0:0:0:0:
356,196,2675,1,0,0:0:0:0:
428,160,2831,6,0,P|436:200|384:272,1,112.500004291535,0|0,0:0|0:0,0:0:0:0:
258,230,3456,2,0,P|287:201|375:205,1,112.500004291535,0|0,0:0|0:0,0:0:0:0:
480,296,4081,1,0,0:0:0:0:
448,252,5331,5,0,0:0:0:0:
388,204,5488,1,0,0:0:0:0:
312,208,5644,2,0,P|268:220|252:236,1,56.2500021457673,0|0,0:0|0:0,0:0:0:0:
200,308,5956,2,0,B|204:272|204:272|188:236|188:236|196:176,1,112.500004291535,0|0,0:0|0:0,0:0:0:0:
200,124,6425,1,0,0:0:0:0:
200,128,6738,6,0,P|244:124|324:56,1,127.50000243187,0|0,3:0|3:0,0:0:0:0:
460,128,7363,2,0,P|408:128|336:164,1,127.50000243187,0|0,3:0|3:0,0:0:0:0:
244,260,7988,2,0,P|264:204|236:132,1,127.50000243187,0|0,3:0|3:0,0:0:0:0:
60,184,8613,2,0,P|92:208|188:204,1,127.50000243187,0|0,3:0|3:0,0:0:0:0:
368,148,9238,5,0,0:0:0:0:
385,148,9316,1,0,0:0:0:0:
404,154,9394,1,0,0:0:0:0:
419,162,9472,1,0,0:0:0:0:
432,174,9550,2,0,L|461:203,10,31.8750006079674,0|0|0|0|0|0|0|0|0|0|0,0:0|0:0|0:0|0:0|0:0|0:0|0:0|0:0|0:0|0:0|0:0,0:0:0:0:
376,120,10488,5,0,0:0:0:0:
388,136,11738,6,0,B|340:132|340:132|296:144|296:144|224:136,1,150,8|0,3:0|1:0,0:0:0:0:
156,124,12206,1,0,0:0:0:0:
76,148,12363,2,0,P|104:192|216:184,1,150,8|0,3:0|1:0,0:0:0:0:
368,92,12988,6,0,L|356:244,1,150,8|0,3:0|1:0,0:0:0:0:
324,312,13456,1,0,0:0:0:0:
252,348,13613,2,0,P|204:356|116:288,1,150,8|0,3:0|1:0,0:0:0:0:
16,164,14238,6,0,B|64:176|64:176|192:160,1,150,8|0,3:0|1:0,0:0:0:0:
240,144,14706,1,0,0:0:0:0:
312,112,14863,2,0,P|324:72|312:36,1,75,8|0,3:0|0:0,0:0:0:0:
384,136,15175,2,0,P|372:176|384:212,1,75,0|0,1:0|0:0,0:0:0:0:
452,272,15488,6,0,P|404:296|304:260,1,150,0|0,3:0|3:0,0:0:0:0:
264,212,15956,1,0,0:0:0:0:
208,160,16113,1,0,0:0:0:0:
192,152,16191,1,0,0:0:0:0:
172,148,16269,1,0,0:0:0:0:
156,148,16347,1,0,0:0:0:0:
140,148,16425,2,0,P|104:160|76:196,1,75,0|0,0:0|0:0,0:0:0:0:
32,268,16738,6,0,B|76:292|116:272|116:272|144:280|144:280|196:272,1,150,8|0,3:0|1:0,0:0:0:0:
256,256,17206,1,0,0:0:0:0:
336,264,17363,2,0,P|376:284|396:316,1,75,8|0,3:0|0:0,0:0:0:0:
500,208,17675,2,0,P|464:228|424:228,1,75,0|0,1:0|0:0,0:0:0:0:
344,192,17988,6,0,P|320:160|344:52,1,150,8|0,3:0|1:0,0:0:0:0:
416,32,18456,1,0,0:0:0:0:
452,104,18613,2,0,L|448:184,1,75,8|0,3:0|0:0,0:0:0:0:
348,272,18925,2,0,L|360:172,1,75,0|0,1:0|0:0,0:0:0:0:
256,108,19238,6,0,P|276:156|268:200,1,75,8|0,3:0|0:0,0:0:0:0:
228,268,19550,1,0,1:0:0:0:
212,280,19628,1,0,0:0:0:0:
196,288,19706,1,0,0:0:0:0:
176,292,19784,1,0,0:0:0:0:
156,292,19863,2,0,L|112:288,2,37.5,8|0|0,3:0|0:0|0:0,0:0:0:0:
112,192,20175,2,0,L|160:220,2,37.5,0|0|0,1:0|0:0|0:0,0:0:0:0:
136,104,20488,6,0,P|176:84|276:128,1,150,0|0,0:0|0:0,0:0:0:0:
296,192,20956,1,0,0:0:0:0:
308,268,21113,2,0,L|312:304,8,18.75,0|0|0|0|0|0|0|0|0,0:0|0:0|0:0|0:0|0:0|0:0|0:0|0:0|0:0,0:0:0:0:
156,100,21738,5,0,3:0:0:0:
128,176,21894,1,0,0:0:0:0:
208,160,22050,2,0,P|256:156|292:176,1,75,8|0,3:0|0:0,0:0:0:0:
392,252,22363,5,0,3:0:0:0:
436,188,22519,1,0,0:0:0:0:
408,116,22675,2,0,L|400:40,1,75,8|0,3:0|0:0,0:0:0:0:
284,156,22988,5,0,3:0:0:0:
268,232,23144,1,0,0:0:0:0:
232,300,23300,2,0,P|200:324|148:324,1,75,8|0,3:0|0:0,0:0:0:0:
92,244,23613,2,0,P|144:240|172:256,2,75,0|0|8,3:0|3:0|3:0,0:0:0:0:
248,192,24238,5,0,3:0:0:0:
320,228,24394,1,0,0:0:0:0:
356,160,24550,2,0,B|360:136|360:136|352:108|352:108|360:72,1,75,8|0,3:0|0:0,0:0:0:0:
436,200,24863,5,0,3:0:0:0:
416,276,25019,1,0,0:0:0:0:
356,324,25175,2,0,P|304:332|272:312,1,75,8|0,3:0|0:0,0:0:0:0:
216,272,25488,6,0,P|168:248|56:288,2,150,0|0|0,1:0|1:0|1:0,0:0:0:0:
288,324,26269,1,0,0:0:0:0:
364,284,26425,1,0,1:0:0:0:
376,268,26503,1,0,1:0:0:0:
384,256,26581,1,0,1:0:0:0:
388,240,26659,1,0,1:0:0:0:
392,224,26738,6,0,L|388:140,1,75,0|0,3:0|0:0,0:0:0:0:
328,72,27050,2,0,P|300:116|304:164,1,75,8|0,3:0|0:0,0:0:0:0:
304,220,27363,5,0,3:0:0:0:
236,264,27519,1,0,0:0:0:0:
164,236,27675,2,0,B|136:232|136:232|108:236|108:236|72:232,1,75,8|0,3:0|0:0,0:0:0:0:
152,148,27988,5,0,3:0:0:0:
224,112,28144,1,0,0:0:0:0:
300,132,28300,2,0,P|336:152|356:184,1,75,8|0,3:0|0:0,0:0:0:0:
384,296,28613,5,0,3:0:0:0:
316,336,28769,1,0,0:0:0:0:
240,328,28925,2,0,L|160:320,1,75,8|0,3:0|0:0,0:0:0:0:
84,364,29238,6,0,P|72:308|112:244,1,100,0|0,3:0|3:0,0:0:0:0:
160,224,29550,2,0,B|208:212|208:212|256:220|256:220|332:200,1,150,8|0,3:0|3:0,0:0:0:0:
388,188,29967,2,0,L|444:192,2,50,0|0|8,0:0|0:0|3:0,0:0:0:0:
236,108,30488,5,0,3:0:0:0:
256,192,30644,12,4,31738,3:0:0:0:
256,192,36738,12,0,41425,0:0:0:0:
144,244,41738,6,0,P|192:236|240:168,1,112.500004291535,0|8,3:0|0:0,0:0:0:0:
264,112,42206,1,8,3:0:0:0:
268,112,42519,1,0,3:0:0:0:
336,160,42675,1,8,0:0:0:0:
400,112,42831,1,0,0:0:0:0:
448,172,42988,6,0,P|460:224|424:280,1,112.500004291535,8|8,3:0|0:0,0:0:0:0:
360,308,43456,1,0,3:0:0:0:
360,308,43769,1,8,0:0:0:0:
296,260,43925,1,8,3:0:0:0:
220,248,44081,1,0,0:0:0:0:
144,280,44238,6,0,L|152:156,1,112.500004291535,0|8,3:0|0:0,0:0:0:0:
156,80,44706,1,8,3:0:0:0:
156,80,45019,1,0,3:0:0:0:
220,132,45175,1,8,0:0:0:0:
300,116,45331,1,0,0:0:0:0:
368,156,45488,6,0,P|388:176|400:212,2,56.2500021457673,8|0|8,3:0|0:0|0:0,0:0:0:0:
276,224,45956,1,0,3:0:0:0:
224,284,46113,2,0,P|220:324|224:344,2,56.2500021457673,0|8|8,0:0|0:0|3:0,0:0:0:0:
216,160,46581,1,0,0:0:0:0:
160,96,46738,6,0,P|132:84|40:104,1,112.500004291535,0|8,3:0|0:0,0:0:0:0:
160,224,47363,2,0,P|188:236|280:216,1,112.500004291535,0|8,0:0|3:0,0:0:0:0:
376,120,47988,1,0,3:0:0:0:
376,120,48300,2,0,L|372:248,1,112.500004291535,8|0,0:0|0:0,0:0:0:0:
256,324,48925,1,8,3:0:0:0:
256,320,49238,6,0,P|248:272|228:248,1,56.2500021457673,8|0,3:0|0:0,0:0:0:0:
96,232,49550,2,0,P|132:244|164:240,1,56.2500021457673,8|8,3:0|3:0,0:0:0:0:
308,144,49863,2,0,P|264:148|244:164,1,56.2500021457673,0|8,0:0|3:0,0:0:0:0:
144,324,50175,2,0,P|180:316|200:300,1,56.2500021457673,8|8,3:0|3:0,0:0:0:0:
296,216,50488,5,0,3:0:0:0:
312,208,50566,1,0,3:0:0:0:
328,204,50644,1,0,3:0:0:0:
344,204,50722,1,0,3:0:0:0:
360,208,50800,2,0,L|400:228,4,28.1250010728836,0|0|0|0|8,3:0|3:0|3:0|3:0|3:0,0:0:0:0:
188,228,51425,5,0,0:0:0:0:
188,228,51738,6,0,P|224:236|308:148,1,150,8|0,3:0|0:0,0:0:0:0:
324,72,52206,1,0,0:0:0:0:
412,24,52363,2,0,B|428:76|428:76|408:136,1,112.5,0|0,1:0|0:0,0:0:0:0:
400,152,52675,2,0,P|392:192|408:236,1,75,0|0,0:0|0:0,0:0:0:0:
328,104,52988,6,0,P|288:88|196:136,1,150,8|0,3:0|0:0,0:0:0:0:
160,216,53456,1,8,3:0:0:0:
224,280,53613,2,0,L|312:288,1,75,0|0,1:0|0:0,0:0:0:0:
432,228,53925,2,0,L|352:236,1,75,8|0,3:0|0:0,0:0:0:0:
208,288,54238,6,0,P|169:278|257:253,1,300,8|0,3:0|1:0,0:0:0:0:
296,308,55019,1,0,0:0:0:0:
368,336,55175,1,0,0:0:0:0:
432,284,55331,1,0,0:0:0:0:
480,220,55488,6,0,B|496:176|488:136|488:136|456:164|400:160,1,150,8|0,3:0|0:0,0:0:0:0:
344,156,55956,1,8,3:0:0:0:
260,148,56113,2,0,B|208:144|208:144|172:160|172:160|96:156,1,150,0|8,1:0|3:0,0:0:0:0:
324,88,56738,6,0,P|348:132|296:228,1,150,0|0,1:0|0:0,0:0:0:0:
216,260,57206,1,0,0:0:0:0:
136,204,57363,2,0,B|120:152|120:152|144:84,1,112.5,8|0,3:0|0:0,0:0:0:0:
148,80,57675,2,0,P|108:76|68:48,1,75,0|0,0:0|0:0,0:0:0:0:
224,144,57988,6,0,P|272:132|376:184,1,150,8|0,3:0|0:0,0:0:0:0:
408,240,58456,1,8,3:0:0:0:
452,320,58613,2,0,P|396:328|364:312,1,75,0|0,1:0|0:0,0:0:0:0:
280,208,58925,2,0,P|317:250|321:286,1,75,8|0,3:0|1:0,0:0:0:0:
232,356,59238,6,0,B|192:356|172:344|172:344|132:356|132:356|112:328|84:316|84:316|108:288|120:256|120:216|88:188,1,300,8|0,3:0|1:0,0:0:0:0:
32,140,60019,1,0,0:0:0:0:
116,108,60175,2,0,L|204:96,1,75,0|0,0:0|0:0,0:0:0:0:
288,80,60488,5,8,3:0:0:0:
372,144,60644,1,0,0:0:0:0:
272,192,60800,1,0,0:0:0:0:
304,76,60956,1,8,3:0:0:0:
392,156,61113,6,0,P|412:200|368:280,1,131.25,0|0,1:0|0:0,0:0:0:0:
356,280,61738,6,0,L|184:272,1,150,8|0,3:0|1:0,0:0:0:0:
104,264,62206,1,0,0:0:0:0:
36,196,62363,2,0,P|28:152|56:104,1,75,0|8,0:0|3:0,0:0:0:0:
148,88,62675,2,0,L|112:168,1,75,0|0,1:0|0:0,0:0:0:0:
232,232,62988,2,0,L|196:156,1,75,8|0,3:0|0:0,0:0:0:0:
296,96,63300,6,0,B|284:152|284:152|328:240,1,150,0|0,1:0|0:0,0:0:0:0:
392,304,63769,1,8,3:0:0:0:
480,240,63925,1,0,1:0:0:0:
462,218,64003,1,0,0:0:0:0:
438,203,64081,1,0,0:0:0:0:
411,195,64159,1,0,0:0:0:0:
388,192,64238,6,0,L|284:196,1,75,8|0,3:0|0:0,0:0:0:0:
224,232,64550,1,0,1:0:0:0:
144,188,64706,1,0,0:0:0:0:
80,260,64863,2,0,P|72:308|84:340,1,75,0|8,0:0|3:0,0:0:0:0:
223,304,65175,2,0,P|231:256|219:224,1,75,0|0,1:0|0:0,0:0:0:0:
132,164,65488,6,0,L|40:156,1,75,8|0,3:0|0:0,0:0:0:0:
144,76,65800,2,0,B|188:78|211:110|211:110|256:105|291:139,1,150,0|0,1:0|0:0,0:0:0:0:
364,192,66269,1,8,3:0:0:0:
364,192,66738,6,0,P|388:240|328:320,1,150,8|0,3:0|1:0,0:0:0:0:
240,332,67206,1,0,0:0:0:0:
160,280,67363,2,0,P|144:240|168:180,1,75,0|8,0:0|3:0,0:0:0:0:
236,140,67675,2,0,L|324:132,1,75,0|0,1:0|0:0,0:0:0:0:
432,212,67988,2,0,L|357:218,1,75,8|0,3:0|0:0,0:0:0:0:
239,230,68300,6,0,B|195:233|195:233|168:223|168:223|127:230|78:201,1,150,0|0,1:0|0:0,0:0:0:0:
36,132,68769,1,8,3:0:0:0:
132,76,68925,2,0,P|148:124|136:160,1,75,0|0,1:0|0:0,0:0:0:0:
92,284,69238,6,0,L|76:328,2,37.5,0|0|0,3:0|0:0|0:0,0:0:0:0:
180,320,69550,2,0,L|184:364,2,37.5,8|0|0,3:0|0:0|0:0,0:0:0:0:
244,232,69863,2,0,L|256:188,2,37.5,0|0|0,3:0|0:0|0:0,0:0:0:0:
308,320,70175,2,0,L|344:364,2,37.5,8|0|0,3:0|0:0|0:0,0:0:0:0:
376,232,70488,5,0,0:0:0:0:
388,210,70566,1,0,0:0:0:0:
392,185,70644,1,0,0:0:0:0:
388,161,70722,1,0,0:0:0:0:
376,139,70800,1,0,0:0:0:0:
358,122,70878,1,0,0:0:0:0:
336,108,70956,2,0,L|288:96,8,37.5,0|0|0|0|0|0|0|0|0,0:0|0:0|0:0|0:0|0:0|0:0|0:0|0:0|0:0,0:0:0:0:
232,28,71738,6,0,P|204:80|240:164,1,150,8|0,3:0|1:0,0:0:0:0:
316,208,72206,1,0,0:0:0:0:
400,244,72363,2,0,P|444:252|484:240,1,75,8|0,3:0|0:0,0:0:0:0:
324,296,72675,2,0,P|280:288|240:300,1,75,0|0,1:0|0:0,0:0:0:0:
168,360,72988,6,0,B|164:308|164:308|141:265|141:265|136:197,1,150,8|0,3:0|1:0,0:0:0:0:
164,124,73456,1,0,0:0:0:0:
248,64,73613,1,8,3:0:0:0:
312,140,73769,1,0,0:0:0:0:
400,104,73925,1,0,1:0:0:0:
384,200,74081,5,0,0:0:0:0:
384,200,74159,1,0,0:0:0:0:
384,200,74238,2,0,P|336:228|232:184,1,150,8|0,3:0|1:0,0:0:0:0:
180,136,74706,1,0,0:0:0:0:
104,80,74863,2,0,P|64:68|20:80,1,75,8|0,3:0|0:0,0:0:0:0:
52,176,75175,2,0,P|92:188|136:176,1,75,0|0,1:0|0:0,0:0:0:0:
236,120,75488,6,0,B|256:108|268:92|268:92|304:100|336:144|336:144|376:136,1,150,0|0,3:0|3:0,0:0:0:0:
500,228,76113,2,0,B|472:223|454:206|454:206|425:213|408:228|408:228|335:199,1,150,0|0,3:0|3:0,0:0:0:0:
221,134,76738,6,0,P|190:200|224:264,1,150,8|0,3:0|1:0,0:0:0:0:
316,304,77206,1,0,0:0:0:0:
400,252,77363,2,0,B|412:216|412:216|404:164,1,75,8|0,3:0|0:0,0:0:0:0:
304,116,77675,2,0,L|316:212,1,75,0|0,1:0|0:0,0:0:0:0:
264,288,77988,6,0,B|228:308|192:292|192:292|144:268|96:304,1,150,8|0,3:0|1:0,0:0:0:0:
28,332,78456,1,0,0:0:0:0:
64,228,78613,2,0,L|72:136,1,75,8|0,3:0|0:0,0:0:0:0:
128,52,78925,1,0,1:0:0:0:
148,44,79003,1,0,0:0:0:0:
172,44,79081,1,0,0:0:0:0:
192,52,79159,1,0,0:0:0:0:
204,64,79238,6,0,L|232:100,2,37.5,8|0|0,3:0|0:0|0:0,0:0:0:0:
316,104,79550,2,0,L|304:160,2,37.5,0|0|0,1:0|0:0|0:0,0:0:0:0:
404,160,79863,2,0,L|388:248,1,75,8|0,3:0|0:0,0:0:0:0:
300,328,80175,2,0,L|280:228,1,75,0|0,1:0|0:0,0:0:0:0:
204,172,80488,6,0,B|164:156|128:172|128:172|92:156|92:156|40:172,2,150,0|0|0,0:0|0:0|0:0,0:0:0:0:
384,248,81425,1,0,0:0:0:0:
384,248,81738,6,0,P|352:232|260:248,1,120,0|8,3:0|3:0,0:0:0:0:
84,224,82363,2,0,P|116:240|208:224,1,120,0|8,3:0|3:0,0:0:0:0:
384,168,82988,2,0,P|352:184|260:168,1,120,0|8,3:0|3:0,0:0:0:0:
132,68,83613,2,0,P|124:36|136:0,1,60,0|0,3:0|3:0,0:0:0:0:
224,40,83925,2,0,P|232:72|220:108,1,60,8|0,3:0|0:0,0:0:0:0:
140,160,84238,6,0,L|16:168,1,120,0|8,3:0|3:0,0:0:0:0:
192,224,84863,2,0,P|240:220|312:260,1,120,0|8,3:0|3:0,0:0:0:0:
476,180,85488,2,0,P|440:200|360:192,1,120,0|8,3:0|3:0,0:0:0:0:
224,80,86113,1,0,3:0:0:0:
224,80,86425,2,0,L|228:152,1,60,0|0,0:0|0:0,0:0:0:0:
176,220,86738,6,0,B|113:233|113:233|54:222,2,120,0|8|0,3:0|3:0|3:0,0:0:0:0:
328,168,87675,1,8,3:0:0:0:
328,164,87988,2,0,B|392:160|392:160|448:180,2,120,0|8|0,3:0|3:0|3:0,0:0:0:0:
248,216,88769,2,0,L|240:288,1,60,0|8,3:0|3:0,0:0:0:0:
256,192,89238,12,0,91581,0:0:0:0:
100,252,91738,6,0,P|164:280|248:248,1,150,8|0,3:0|1:0,0:0:0:0:
292,192,92206,1,0,0:0:0:0:
352,128,92363,2,0,B|376:196|376:196|344:276,1,150,8|0,3:0|1:0,0:0:0:0:
172,196,92988,2,0,B|143:123|143:123|167:55,1,150,8|0,3:0|1:0,0:0:0:0:
184,44,93613,2,0,L|262:48,1,75,8|8,3:0|3:0,0:0:0:0:
356,92,93925,1,0,1:0:0:0:
371,117,94003,1,0,0:0:0:0:
376,146,94081,1,0,0:0:0:0:
367,175,94159,1,0,0:0:0:0:
348,192,94238,6,0,L|188:184,1,150,8|0,3:0|1:0,0:0:0:0:
116,204,94706,1,0,0:0:0:0:
44,240,94863,2,0,P|72:272|188:240,1,150,8|0,3:0|1:0,0:0:0:0:
280,128,95488,2,0,B|268:180|268:180|284:228|284:228|272:280,1,150,8|0,3:0|1:0,0:0:0:0:
256,352,95956,1,0,0:0:0:0:
192,292,96113,2,0,P|148:272|52:304,1,150,8|0,3:0|1:0,0:0:0:0:
160,196,96738,6,0,L|320:204,1,150,8|0,3:0|1:0,0:0:0:0:
392,208,97206,1,0,0:0:0:0:
460,164,97363,2,0,P|472:124|444:76,1,75,8|8,3:0|3:0,0:0:0:0:
392,40,97675,1,0,1:0:0:0:
372,36,97753,1,0,0:0:0:0:
356,36,97831,1,0,0:0:0:0:
336,40,97909,1,0,0:0:0:0:
324,48,97988,6,0,L|280:100,2,37.5,0|0|0,3:0|0:0|0:0,0:0:0:0:
220,76,98300,2,0,B|216:120|252:144|252:144|240:172|240:172|252:216,2,150,8|0|8,3:0|3:0|3:0,0:0:0:0:
324,184,99238,5,0,3:0:0:0:
196,292,99550,1,8,3:0:0:0:
148,128,99863,1,0,3:0:0:0:
312,208,100175,1,8,3:0:0:0:
184,280,100488,2,0,P|138:286|229:234,1,450,4|0,3:0|0:0,0:0:0:0:
248,232,101738,6,0,P|288:248|372:232,1,120,0|8,3:0|3:0,0:0:0:0:
308,120,102363,2,0,P|268:104|184:120,1,120,0|8,3:0|3:0,0:0:0:0:
124,232,102988,2,0,L|116:352,1,120,0|8,3:0|3:0,0:0:0:0:
256,300,103613,2,0,L|248:180,1,120,0|8,3:0|3:0,0:0:0:0:
216,104,104081,5,0,0:0:0:0:
204,96,104159,1,0,0:0:0:0:
192,88,104238,2,0,P|152:76|64:124,1,120,0|8,3:0|3:0,0:0:0:0:
52,180,104706,1,0,0:0:0:0:
140,216,104863,2,0,P|148:172|136:136,1,60,0|0,3:0|0:0,0:0:0:0:
216,228,105175,2,0,P|224:272|232:288,1,60,8|0,3:0|0:0,0:0:0:0:
308,328,105488,6,0,L|436:320,1,120,0|8,3:0|3:0,0:0:0:0:
335,220,106113,2,0,L|215:227,1,120,0|8,3:0|3:0,0:0:0:0:
120,296,106738,6,0,P|96:256|120:172,1,120,0|8,3:0|3:0,0:0:0:0:
156,120,107206,1,0,0:0:0:0:
232,88,107363,2,0,L|296:84,1,60,0|0,3:0|0:0,0:0:0:0:
404,144,107675,2,0,P|368:136|336:144,1,60,8|0,3:0|0:0,0:0:0:0:
284,200,107988,6,0,B|272:244|272:244|280:276|280:276|264:336,1,120,0|8,3:0|3:0,0:0:0:0:
192,212,108613,2,0,B|161:177|161:177|130:167|130:167|88:121,1,120,0|8,3:0|3:0,0:0:0:0:
236,116,109238,1,0,3:0:0:0:
256,192,109394,12,2,111425,2:0:0:0:
272,228,111738,5,4,0:0:0:0:
