osu file format v14

[General]
AudioFilename: music.mp3
AudioLeadIn: 0
PreviewTime: 81198
Countdown: 0
SampleSet: Soft
StackLeniency: 0.7
Mode: 0
LetterboxInBreaks: 0
WidescreenStoryboard: 0

[Editor]
Bookmarks: 52145,62250,102671,112777
DistanceSpacing: 1.1
BeatDivisor: 4
GridSize: 4
TimelineZoom: 1.3

[Metadata]
Title:Boss Rush
TitleUnicode:Boss Rush
Artist:USAO
ArtistUnicode:USAO
Creator:eeezzzeee
Version:Normal
Source:jubeat Qubell
Tags:eze deppyforce derandom otaku plus sdvx sound voltex iv heavenly haven drumstep
BeatmapID:1228351
BeatmapSetID:578858

[Difficulty]
HPDrainRate:4
CircleSize:3.5
OverallDifficulty:5
ApproachRate:5
SliderMultiplier:1
SliderTickRate:1

[Events]
//Background and Video events
0,0,"ye.jpg",0,0
//Break Periods
2,63198,71156
//Storyboard Layer 0 (Background)
//Storyboard Layer 1 (Fail)
//Storyboard Layer 2 (Pass)
//Storyboard Layer 3 (Foreground)
//Storyboard Sound Samples

[TimingPoints]
356,315.789473684211,4,2,33,30,1,0
1619,-100,4,2,33,30,0,0
2250,-100,4,2,33,35,0,0
4145,-100,4,2,33,40,0,0
6671,-100,4,2,33,45,0,0
9198,-100,4,2,33,50,0,0
11724,-100,4,2,33,60,0,0
21829,-100,4,2,33,70,0,0
26882,-100,4,2,33,50,0,0
28145,-100,4,2,33,60,0,0
29408,-100,4,2,33,70,0,0
30040,-100,4,2,33,60,0,0
30671,-100,4,2,33,70,0,0
49619,-100,4,2,33,40,0,0
50250,-100,4,2,33,50,0,0
50566,-100,4,2,33,60,0,0
50882,-100,4,2,33,70,0,0
52145,-100,4,2,33,60,0,0
60987,-100,4,2,33,80,0,0
72356,-100,4,2,33,70,0,0
77408,-100,4,2,33,50,0,0
78671,-100,4,2,33,60,0,0
79934,-100,4,2,33,70,0,0
80566,-100,4,2,33,60,0,0
81198,-100,4,2,33,70,0,0
82461,-100,4,2,33,70,0,1
91934,-100,4,2,33,70,0,0
92566,-100,4,2,33,70,0,1
100145,-100,4,2,33,40,0,1
100461,-100,4,2,33,50,0,1
100777,-100,4,2,33,60,0,1
101092,-100,4,2,33,70,0,1
101369,-100,4,2,33,70,0,0
101408,-100,4,2,33,70,0,1
102632,-100,4,2,33,70,0,0
102671,-100,4,2,33,60,0,1
102711,-100,4,2,33,60,0,0
112777,-100,4,2,33,70,0,0
117829,-100,4,2,33,50,0,0
119092,-100,4,2,33,60,0,0
120356,-100,4,2,33,70,0,0

[Colours]
Combo1 : 255,207,128
Combo2 : 0,64,128
Combo3 : 128,0,0
Combo4 : 128,191,255

[HitObjects]
432,332,1619,6,0,B|456:296|456:296|456:268|439:227,1,100,4|0,0:1|0:0,0:0:0:0:
368,160,2250,2,0,P|296:179|253:238,1,150,2|2,0:0|0:0,0:0:0:0:
286,345,3040,1,0,0:0:0:0:
178,322,3356,2,0,P|143:257|157:185,1,150,2|0,0:0|0:0,0:0:0:0:
104,88,4145,6,0,L|204:68,1,100,2|0,0:0|0:0,0:0:0:0:
312,84,4777,2,0,P|352:124|364:172,1,100
352,219,5250,1,0,0:0:0:0:
352,219,5408,2,0,L|252:239,1,100,2|0,0:0|0:0,0:0:0:0:
157,185,6040,1,0,0:0:0:0:
63,243,6356,1,0,0:0:0:0:
62,133,6671,6,0,B|74:105|93:85|93:85|136:77,1,100
240,115,7303,2,0,P|289:127|337:116,2,100,2|0|2,0:0|0:0|0:0,0:0:0:0:
157,185,8250,1,0,0:0:0:0:
157,185,8408,2,0,B|152:240|192:280|192:280|244:280,1,150,2|0,0:0|0:0,0:0:0:0:
332,336,9198,6,0,L|436:336,1,100,2|0,0:0|0:0,0:0:0:0:
496,248,9829,2,0,P|481:201|445:167,1,100
395,192,10303,1,0,0:0:0:0:
395,192,10461,2,0,L|295:192,1,100,2|0,0:0|0:0,0:0:0:0:
200,247,11092,1,0,0:0:0:0:
105,192,11408,1,0,0:0:0:0:
84,84,11724,6,0,B|100:56|100:56|132:36|184:44,1,100,4|4,0:1|0:0,0:0:0:0:
256,104,12356,2,0,L|360:128,1,100,2|4,0:0|0:0,0:0:0:0:
408,116,12829,2,0,P|441:79|452:30,2,100,2|0|2,0:0|0:0|0:0,0:0:0:0:
468,208,13777,1,0,0:0:0:0:
468,208,13934,2,0,P|467:249|456:278,1,50,4|0,0:0|0:0,0:0:0:0:
420,292,14250,6,0,L|316:328,1,100,2|4,0:0|0:0,0:0:0:0:
216,328,14882,2,0,P|184:291|173:242,1,100,0|4,0:0|0:0,0:0:0:0:
196,192,15356,1,0,0:0:0:0:
196,192,15513,2,0,L|300:156,1,100,2|4,0:0|0:0,0:0:0:0:
396,124,16145,1,0,0:0:0:0:
314,49,16461,1,4,0:0:0:0:
211,10,16777,6,0,B|182:23|182:23|159:53|163:106,1,100,0|4,0:0|0:0,0:0:0:0:
101,178,17408,2,0,P|147:195|196:192,1,100,2|4,0:0|0:0,0:0:0:0:
248,174,17882,1,0,0:0:0:0:
248,174,18040,2,0,B|293:218|291:281|291:281|269:318,1,150,2|2,0:0|0:0,0:0:0:0:
168,336,18829,1,0,0:0:0:0:
168,336,18987,2,0,P|128:333|98:323,1,50,4|0,0:0|0:0,0:0:0:0:
83,287,19303,1,2,0:0:0:0:
375,72,21829,6,0,L|395:188,1,100,4|4,0:1|0:0,0:0:0:0:
367,220,22303,2,0,P|311:228|263:272,1,100,2|4,0:0|0:0,0:0:0:0:
256,305,22777,1,4,0:0:0:0:
351,360,23092,2,0,P|407:352|455:308,1,100,2|4,0:0|0:0,0:0:0:0:
462,275,23566,2,0,L|478:176,1,100,2|4,0:0|0:0,0:0:0:0:
440,136,24040,1,4,0:0:0:0:
367,220,24356,6,0,L|231:232,1,100,4|4,0:1|0:0,0:0:0:0:
216,208,24829,2,0,P|188:166|183:117,1,100,2|4,0:0|0:0,0:0:0:0:
208,68,25303,1,4,0:0:0:0:
96,64,25619,2,0,L|36:168,1,100,2|4,0:0|0:0,0:0:0:0:
52,204,26092,1,2,0:0:0:0:
76,312,26408,2,0,L|45:365,2,50,2|4|0,0:0|0:0|0:0,0:0:0:0:
126,288,26882,6,0,P|175:290|216:317,1,100,4|4,1:1|0:0,0:0:0:0:
324,344,27513,2,0,P|351:302|356:253,1,100,4|4,0:0|0:0,0:0:0:0:
320,212,27987,1,4,0:0:0:0:
320,212,28145,2,0,P|292:170|287:121,1,100,4|4,1:1|0:0,0:0:0:0:
351,32,28777,2,0,P|306:12|257:15,1,100,4|4,0:0|0:0,0:0:0:0:
180,94,29408,6,0,P|172:120|172:160,2,50,4|0|0,1:1|0:0|0:0,0:0:0:0:
71,124,30040,2,0,P|94:216|186:246,1,200,2|0,0:0|0:0,0:0:0:0:
451,146,31934,6,0,P|450:83|429:35,1,100,4|0,1:1|1:0,0:0:0:0:
327,66,32566,1,8,0:0:0:0:
327,66,32724,2,0,B|294:104|294:104|236:108,1,100,2|2,0:0|0:0,0:0:0:0:
191,94,33198,1,0,1:0:0:0:
99,152,33513,2,0,L|107:216,1,50,2|0,0:0|1:0,0:0:0:0:
75,248,33829,1,8,0:0:0:0:
294,217,34461,6,0,P|337:242|362:285,1,100,0|0,1:0|1:0,0:0:0:0:
259,321,35092,1,8,0:0:0:0:
259,321,35250,2,0,B|183:344|183:344|153:326,1,100,2|2,0:0|0:0,0:0:0:0:
121,299,35724,2,0,L|105:201,1,100,0|2,1:0|0:0,0:0:0:0:
22,128,36356,2,0,P|86:90|158:105,1,150,8|0,0:0|0:0,0:0:0:0:
197,141,36987,6,0,P|245:154|292:140,1,100,4|0,1:1|1:0,0:0:0:0:
359,52,37619,1,8,0:0:0:0:
359,52,37777,2,0,B|391:76|391:76|407:148,1,100,2|2,0:0|0:0,0:0:0:0:
391,188,38250,1,0,1:0:0:0:
464,268,38566,2,0,L|440:332,1,50,2|0,0:0|1:0,0:0:0:0:
404,350,38882,1,8,0:0:0:0:
210,251,39513,6,0,P|196:203|209:156,2,100,0|0|8,1:0|1:0|0:0,0:0:0:0:
183,300,40303,1,2,0:0:0:0:
183,300,40461,2,0,L|116:312,1,50,2|0,0:0|0:0,0:0:0:0:
79,296,40777,1,0,1:0:0:0:
59,188,41092,1,0,0:0:0:0:
118,95,41408,2,0,P|153:60|200:47,1,100,8|0,0:3|0:0,0:0:0:0:
311,46,42040,6,0,P|359:60|394:95,1,100,4|0,1:1|1:0,0:0:0:0:
384,148,42513,2,0,L|364:208,1,50,0|8,0:0|0:0,0:0:0:0:
264,236,42987,2,0,L|244:296,1,50,2|0,0:0|0:0,0:0:0:0:
210,324,43303,2,0,P|162:336|114:324,1,100,0|0,1:0|0:0,0:0:0:0:
80,220,43934,1,8,0:0:0:0:
133,122,44250,1,2,0:0:0:0:
215,47,44566,6,0,P|262:34|310:46,1,100,0|0,1:0|1:0,0:0:0:0:
352,84,45040,1,0,0:0:0:0:
352,84,45198,2,0,P|339:131|352:179,1,100,8|2,0:0|0:0,0:0:0:0:
438,249,45829,2,0,P|451:227|459:204,2,50,0|0|0,1:0|0:0|0:0,0:0:0:0:
394,282,46303,1,0,1:0:0:0:
340,289,46461,2,0,L|220:272,1,100,8|2,0:0|0:0,0:0:0:0:
195,175,47092,6,0,L|315:158,1,100,4|0,1:1|0:0,0:0:0:0:
340,131,47566,1,0,1:0:0:0:
340,131,47724,2,0,P|353:83|340:35,1,100,8|2,0:0|1:2,0:0:0:0:
228,28,48356,2,0,L|178:34,1,50,0|0,1:0|0:0,0:0:0:0:
144,76,48671,2,0,L|48:112,2,100,0|8|2,0:0|0:0|0:2,0:0:0:0:
195,174,49619,6,0,P|227:240|210:311,1,150,4|0,1:1|1:0,0:0:0:0:
180,356,50250,2,0,L|280:342,1,100,8|0,0:0|1:0,0:0:0:0:
377,291,50882,2,0,P|387:314|389:339,2,50,2|0|0,0:0|0:0|0:0,0:0:0:0:
317,203,51513,1,0,0:0:0:0:
361,103,51829,1,2,0:0:0:0:
469,119,52145,6,0,P|501:185|484:256,1,150,4|0,1:1|1:0,0:0:0:0:
431,277,52777,1,8,0:0:0:0:
340,216,53092,2,0,B|296:191|296:191|180:212,2,150,0|0|8,1:0|1:0|0:0,0:0:0:0:
272,304,54356,1,0,0:0:0:0:
164,284,54671,6,0,P|127:251|116:203,1,100,2|0,1:2|0:0,0:0:0:0:
131,150,55145,1,0,1:0:0:0:
131,150,55303,2,0,L|219:94,1,100,8|0,0:0|1:0,0:0:0:0:
304,160,55934,2,0,L|388:213,2,100,2|0|8,1:2|0:0|0:0,0:0:0:0:
368,72,56882,1,0,1:0:0:0:
280,8,57198,5,4,0:2:0:0:
172,16,57513,2,0,P|147:19|124:29,1,50,4|0,0:0|1:1,0:0:0:0:
84,68,57829,2,0,P|72:140|76:180,1,100,12|4,0:0|1:2,0:0:0:0:
96,216,58303,1,4,0:0:0:0:
96,216,58461,2,0,L|200:184,1,100,4|4,0:0|0:0,0:0:0:0:
284,248,59092,2,0,L|388:216,1,100,12|4,0:0|0:0,0:0:0:0:
484,180,59724,6,0,P|484:130|473:81,2,100,4|4|4,1:2|0:0|0:0,0:0:0:0:
464,289,60671,2,0,L|436:336,1,50,4|4,1:2|0:0,0:0:0:0:
392,360,60987,2,0,B|280:410|324:311|202:360,1,200,2|8,0:0|0:0,0:0:0:0:
100,316,61934,2,0,P|88:272|92:248,1,50,0|0,0:0|0:0,0:0:0:0:
108,216,62250,1,4,1:1:0:0:
137,72,72356,6,0,L|117:188,1,100,4|4,0:1|0:0,0:0:0:0:
145,220,72830,2,0,P|201:228|249:272,1,100,2|4,0:0|0:0,0:0:0:0:
256,305,73304,1,4,0:0:0:0:
161,360,73619,2,0,P|105:352|57:308,1,100,2|4,0:0|0:0,0:0:0:0:
50,275,74093,2,0,L|34:176,1,100,2|4,0:0|0:0,0:0:0:0:
72,136,74567,1,0,0:0:0:0:
145,220,74883,6,0,L|281:232,1,100,4|4,0:1|0:0,0:0:0:0:
296,208,75356,2,0,P|324:166|329:117,1,100,2|4,0:0|0:0,0:0:0:0:
304,68,75830,1,4,0:0:0:0:
412,52,76145,2,0,L|477:11,2,75,2|0|0,1:2|1:0|1:0,0:0:0:0:
413,136,76856,2,0,L|453:201,1,75,0|4,1:0|1:2,0:0:0:0:
386,288,77408,6,0,P|337:290|296:317,1,100,4|4,1:1|0:0,0:0:0:0:
188,344,78040,2,0,P|161:302|156:253,1,100,4|4,0:0|0:0,0:0:0:0:
192,212,78513,1,4,0:0:0:0:
192,212,78671,2,0,P|220:170|225:121,1,100,4|4,1:1|0:0,0:0:0:0:
161,32,79303,2,0,P|206:12|255:15,1,100,4|4,0:0|0:0,0:0:0:0:
332,94,79934,6,0,P|340:120|340:160,2,50,4|0|0,1:1|0:0|0:0,0:0:0:0:
441,124,80566,2,0,P|418:216|326:246,1,200,2|0,0:0|0:0,0:0:0:0:
60,144,82461,6,0,P|61:81|82:33,1,100,4|8,1:1|0:0,0:0:0:0:
128,32,82934,1,2,0:0:0:0:
128,32,83092,2,0,L|248:28,1,100,2|8,0:0|0:0,0:0:0:0:
300,112,83724,2,0,P|296:160|280:184,1,50,0|2,1:0|0:0,0:0:0:0:
247,188,84040,2,0,P|232:235|234:285,1,100,10|2,0:0|0:0,0:0:0:0:
328,344,84671,1,8,0:0:0:0:
422,285,84987,6,0,P|423:235|408:187,1,100,0|8,1:0|0:0,0:0:0:0:
376,144,85461,1,2,0:0:0:0:
376,144,85619,2,0,B|368:104|368:104|400:44,1,100,2|8,0:0|0:0,0:0:0:0:
288,72,86250,2,0,L|204:72,1,50,0|2,1:0|0:0,0:0:0:0:
196,104,86566,2,0,P|194:153|209:201,1,100,10|2,0:0|0:0,0:0:0:0:
200,256,87040,1,0,1:0:0:0:
200,256,87198,2,0,L|116:256,1,50,8|0,0:0|0:0,0:0:0:0:
108,292,87513,6,0,B|40:292|40:292|3:259|36:180,1,150,4|2,1:1|0:0,0:0:0:0:
76,116,88303,2,0,P|72:80|48:60,2,50,2|8|0,1:2|0:0|0:0,0:0:0:0:
116,156,88777,2,0,L|224:156,1,100,2|8,1:2|0:0,0:0:0:0:
300,224,89408,1,0,0:0:0:0:
368,140,89724,1,10,0:0:0:0:
352,30,90040,6,0,P|303:32|259:55,1,100,0|10,1:0|0:0,0:0:0:0:
216,156,90671,2,0,L|216:206,2,50,0|0|8,0:0|1:0|0:0,0:0:0:0:
108,144,91303,2,0,P|58:149|15:126,1,100,2|8,1:2|0:0,0:0:0:0:
82,37,91934,2,0,P|132:32|175:55,1,100,8|0,0:3|0:0,0:0:0:0:
285,59,92566,6,0,B|319:76|319:76|347:116|335:152,1,100,4|8,1:1|0:0,0:0:0:0:
324,188,93040,1,2,0:0:0:0:
324,188,93198,2,0,P|324:237|355:275,1,100,2|8,0:0|0:0,0:0:0:0:
465,287,93829,2,0,P|465:238|434:200,2,100,0|10|2,1:0|0:0|0:0,0:0:0:0:
395,372,94777,1,8,0:0:0:0:
296,324,95092,6,0,B|264:303|264:303|215:298|190:327,1,100,0|8,1:0|0:0,0:0:0:0:
164,352,95566,1,2,0:0:0:0:
164,352,95724,2,0,L|120:236,1,100,2|8,0:0|0:0,0:0:0:0:
44,188,96356,2,0,L|8:281,2,100,0|10|2,1:0|0:0|0:0,0:0:0:0:
52,80,97303,1,8,0:0:0:0:
140,16,97619,6,0,B|240:44|240:44|260:72|244:112,1,150,4|2,1:0|0:0,0:0:0:0:
308,180,98408,2,0,P|286:192|261:197,2,50,2|8|0,1:2|0:0|0:0,0:0:0:0:
345,139,98882,2,0,P|393:146|430:179,1,100,2|8,1:2|0:0,0:0:0:0:
416,288,99513,1,0,0:0:0:0:
320,344,99829,1,10,0:0:0:0:
216,308,100145,6,0,P|189:266|190:217,2,100,0|8|0,1:0|0:0|0:0,0:0:0:0:
299,235,101092,1,8,0:0:0:0:
278,127,101408,2,0,L|244:59,2,75,2|0|0,1:2|1:0|1:0,0:0:0:0:
333,63,102119,2,0,L|400:29,1,75,0|8,1:0|1:2,0:0:0:0:
460,124,102671,6,0,P|468:176|444:224,1,100,4|8,1:1|0:0,0:0:0:0:
340,244,103303,2,0,P|292:229|245:243,1,100,2|8,0:0|0:0,0:0:0:0:
208,284,103777,2,0,P|199:332|218:378,2,100,2|0|2,0:0|0:0|0:0,0:0:0:0:
104,248,104724,1,0,1:0:0:0:
104,248,104882,2,0,L|88:176,1,50,8|0,0:0|0:0,0:0:0:0:
60,156,105198,6,0,L|159:130,1,100,2|8,1:2|0:0,0:0:0:0:
268,120,105829,2,0,P|304:180|304:232,1,100,0|8,0:0|0:0,0:0:0:0:
280,256,106303,1,0,0:0:0:0:
280,256,106461,2,0,L|376:281,1,100,2|8,1:2|0:0,0:0:0:0:
480,244,107092,1,0,0:0:0:0:
472,134,107408,1,8,0:0:0:0:
408,44,107724,6,0,B|362:14|362:14|326:13|317:23,1,100,4|8,1:1|0:0,0:0:0:0:
268,120,108356,2,0,L|160:156,1,100,2|8,0:0|0:0,0:0:0:0:
120,140,108829,1,0,0:0:0:0:
120,140,108987,2,0,B|66:167|64:229|64:229|96:280,1,150,2|2,1:2|0:0,0:0:0:0:
184,312,109777,1,0,1:0:0:0:
184,312,109934,2,0,L|245:294,1,50,8|0,0:0|0:0,0:0:0:0:
284,312,110250,6,0,L|312:204,1,100,2|8,1:2|0:0,0:0:0:0:
405,158,110882,2,0,P|375:119|328:105,1,100,0|8,0:0|0:0,0:0:0:0:
272,112,111356,1,0,0:0:0:0:
272,112,111513,2,0,L|164:141,1,100,2|8,1:2|0:0,0:0:0:0:
78,192,112145,1,0,0:0:0:0:
78,302,112461,1,0,0:0:0:0:
175,356,112777,6,0,B|239:372|239:372|287:352,1,100,4|12,1:0|0:0,0:0:0:0:
364,304,113408,2,0,L|372:248,1,50,2|4,0:0|1:2,0:0:0:0:
336,212,113724,2,0,L|344:156,1,50,12|4,0:0|0:0,0:0:0:0:
308,120,114040,2,0,B|328:56|328:56|368:36,1,100,0|12,1:0|0:0,0:0:0:0:
444,108,114671,2,0,P|466:108|496:116,2,50,2|4|12,0:0|1:2|0:0,0:0:0:0:
457,219,115303,6,0,B|415:256|415:256|371:254,1,100,0|12,1:0|0:0,0:0:0:0:
276,200,115934,2,0,L|224:168,1,50,2|4,0:0|1:2,0:0:0:0:
180,192,116250,2,0,L|128:160,1,50,12|4,0:0|0:0,0:0:0:0:
84,184,116566,2,0,B|36:136|36:136|56:104,1,100,0|12,1:0|0:0,0:0:0:0:
140,44,117198,2,0,P|172:44|212:56,2,50,2|4|12,0:0|1:2|0:0,0:0:0:0:
256,192,117829,12,4,121619,0:1:0:0:
416,248,122566,6,0,P|424:288|420:340,1,75,4|2,1:0|0:0,0:0:0:0:
