osu file format v14

[General]
AudioFilename: music.mp3
AudioLeadIn: 0
PreviewTime: 81198
Countdown: 0
SampleSet: Soft
StackLeniency: 0.7
Mode: 0
LetterboxInBreaks: 0
WidescreenStoryboard: 0

[Editor]
Bookmarks: 52145,62250,102671,112777
DistanceSpacing: 0.8
BeatDivisor: 4
GridSize: 4
TimelineZoom: 1.7

[Metadata]
Title:Boss Rush
TitleUnicode:Boss Rush
Artist:USAO
ArtistUnicode:USAO
Creator:eeezzzeee
Version:Maniac
Source:jubeat Qubell
Tags:eze deppyforce derandom otaku plus sdvx sound voltex iv heavenly haven drumstep
BeatmapID:1225565
BeatmapSetID:578858

[Difficulty]
HPDrainRate:6
CircleSize:4
OverallDifficulty:9
ApproachRate:9.5
SliderMultiplier:1.8
SliderTickRate:1

[Events]
//Background and Video events
0,0,"ye.jpg",0,0
//Break Periods
2,63198,69304
//Storyboard Layer 0 (Background)
//Storyboard Layer 1 (Fail)
//Storyboard Layer 2 (Pass)
//Storyboard Layer 3 (Foreground)
//Storyboard Sound Samples

[TimingPoints]
356,315.789473684211,4,2,2,30,1,0
1619,-125,4,2,2,30,0,0
2250,-125,4,2,2,35,0,0
4145,-125,4,2,2,40,0,0
6671,-125,4,2,2,45,0,0
9198,-125,4,2,2,50,0,0
11250,-100,4,2,2,50,0,0
11724,-111.111111111111,4,2,2,60,0,0
21829,-100,4,2,2,70,0,0
24356,-83.3333333333333,4,2,2,70,0,0
24987,-100,4,2,2,70,0,0
25303,-83.3333333333333,4,2,2,70,0,0
25619,-100,4,2,2,70,0,0
25934,-76.9230769230769,4,2,2,70,0,0
26408,-71.4285714285714,4,2,2,70,0,0
26882,-166.666666666667,4,2,2,50,0,0
28145,-111.111111111111,4,2,2,60,0,0
29408,-83.3333333333333,4,2,2,70,0,0
30040,-83.3333333333333,4,2,2,60,0,0
30671,-71.4285714285714,4,2,2,70,0,0
31934,-71.4285714285714,4,2,1,70,0,0
32250,-83.3333333333333,4,2,1,70,0,0
33829,-99.9999999999999,4,2,1,70,0,0
34145,-66.6666666666667,4,2,1,70,0,0
34461,-71.4285714285714,4,2,1,70,0,0
34777,-83.3333333333333,4,2,1,70,0,0
36987,-71.4285714285714,4,2,1,70,0,0
37777,-83.3333333333333,4,2,1,70,0,0
39198,-100,4,2,1,70,0,0
39513,-71.4285714285714,4,2,1,70,0,0
39987,-83.3333333333333,4,2,1,70,0,0
41092,-100,4,2,1,70,0,0
41408,-100,4,2,2,70,0,0
42040,-71.4285714285714,4,2,1,70,0,0
42356,-71.4285714285714,4,2,12,70,0,0
42671,-71.4285714285714,4,2,1,70,0,0
42829,-83.3333333333333,4,2,1,70,0,0
42987,-83.3333333333333,4,2,11,70,0,0
43066,-83.3333333333333,4,2,1,70,0,0
43461,-83.3333333333333,4,2,12,70,0,0
43619,-83.3333333333333,4,2,11,70,0,0
43698,-83.3333333333333,4,2,1,70,0,0
43934,-100,4,2,1,70,0,0
44250,-100,4,2,12,70,0,0
44566,-71.4285714285714,4,2,1,70,0,0
44882,-71.4285714285714,4,2,12,70,0,0
45198,-71.4285714285714,4,2,1,70,0,0
45356,-83.3333333333333,4,2,1,70,0,0
45513,-83.3333333333333,4,2,11,70,0,0
45592,-83.3333333333333,4,2,1,70,0,0
45987,-83.3333333333333,4,2,12,70,0,0
46145,-83.3333333333333,4,2,11,70,0,0
46224,-83.3333333333333,4,2,1,70,0,0
46461,-100,4,2,1,70,0,0
46777,-100,4,2,12,70,0,0
47092,-83.3333333333333,4,2,1,70,0,0
47408,-83.3333333333333,4,2,12,70,0,0
47724,-83.3333333333333,4,2,1,70,0,0
48040,-83.3333333333333,4,2,12,70,0,0
48356,-71.4285714285714,4,2,12,70,0,0
48987,-83.3333333333333,4,2,1,70,0,0
49303,-83.3333333333333,4,2,12,70,0,0
49619,-142.857142857143,4,2,12,40,0,0
49934,-142.857142857143,4,2,12,45,0,0
50092,-100,4,2,12,45,0,0
50250,-100,4,2,13,50,0,0
50329,-100,4,2,12,50,0,0
50566,-83.3333333333333,4,2,12,60,0,0
50882,-66.6666666666667,4,2,12,70,0,0
51513,-66.6666666666667,4,2,1,70,0,0
51829,-90.9090909090909,4,2,2,70,0,0
52145,-111.111111111111,4,2,1,60,0,0
53092,-90.9090909090908,4,2,1,60,0,0
54040,-111.111111111111,4,2,1,60,0,0
55934,-90.9090909090908,4,2,1,60,0,0
56250,-111.111111111111,4,2,1,60,0,0
56566,-90.9090909090909,4,2,1,60,0,0
57198,-111.111111111111,4,2,2,60,0,0
57671,-111.111111111111,4,2,12,60,0,0
57829,-111.111111111111,4,2,45,60,0,0
58145,-90.9090909090908,4,2,2,60,0,0
58461,-90.9090909090908,4,2,46,60,0,0
59092,-111.111111111111,4,2,45,60,0,0
59171,-111.111111111111,4,2,1,60,0,0
59408,-111.111111111111,4,2,47,60,0,0
59724,-111.111111111111,4,2,46,60,0,0
60198,-111.111111111111,4,2,12,60,0,0
60356,-111.111111111111,4,2,45,60,0,0
60671,-111.111111111111,4,2,2,60,0,0
60987,-71.4285714285714,4,2,2,80,0,0
61303,-71.4285714285714,4,2,12,80,0,0
62250,-71.4285714285714,4,2,1,80,0,0
69829,-71.4285714285714,4,2,2,50,0,0
72356,-90.9090909090909,4,2,2,70,0,0
74566,-125,4,2,2,70,0,0
74882,-83.3333333333333,4,2,2,70,0,0
75356,-90.9090909090909,4,2,2,70,0,0
75829,-83.3333333333333,4,2,2,70,0,0
76619,-71.4285714285714,4,2,2,70,0,0
77408,-111.111111111111,4,2,2,50,0,0
78671,-83.3333333333333,4,2,2,60,0,0
79619,-111.111111111111,4,2,2,60,0,0
79934,-71.4285714285714,4,2,2,70,0,0
80566,-71.4285714285714,4,2,2,60,0,0
81198,-71.4285714285714,4,2,1,70,0,0
81829,-83.3333333333333,4,2,2,70,0,0
82461,-76.9230769230769,4,2,1,70,0,1
89724,-90.9090909090909,4,2,1,70,0,1
90040,-76.9230769230769,4,2,1,70,0,1
91934,-76.9230769230769,4,2,2,70,0,0
92566,-76.9230769230769,4,2,1,70,0,1
92882,-76.9230769230769,4,2,11,70,0,1
93040,-76.9230769230769,4,2,1,70,0,1
93513,-76.9230769230769,4,2,11,70,0,1
93671,-76.9230769230769,4,2,1,70,0,1
94145,-76.9230769230769,4,2,11,70,0,1
94303,-76.9230769230769,4,2,1,70,0,1
94777,-76.9230769230769,4,2,11,70,0,1
94934,-76.9230769230769,4,2,1,70,0,1
95408,-76.9230769230769,4,2,11,70,0,1
95566,-76.9230769230769,4,2,1,70,0,1
96040,-76.9230769230769,4,2,11,70,0,1
96198,-76.9230769230769,4,2,1,70,0,1
96671,-76.9230769230769,4,2,11,70,0,1
96829,-76.9230769230769,4,2,1,70,0,1
97303,-76.9230769230769,4,2,11,70,0,1
97461,-76.9230769230769,4,2,1,70,0,1
100145,-76.9230769230769,4,2,60,40,0,1
100461,-76.9230769230769,4,2,60,50,0,1
100777,-76.9230769230769,4,2,60,60,0,1
101092,-76.9230769230769,4,2,60,70,0,1
101369,-76.9230769230769,4,2,1,70,0,0
101408,-55.5555555555556,4,2,2,70,0,1
102632,-55.5555555555556,4,2,1,70,0,0
102671,-111.111111111111,4,2,1,60,0,1
102711,-111.111111111111,4,2,1,60,0,0
104882,-90.9090909090908,4,2,1,60,0,0
105198,-100,4,2,1,60,0,0
107408,-111.111111111111,4,2,1,60,0,0
109934,-90.9090909090908,4,2,1,60,0,0
110250,-100,4,2,1,60,0,0
112145,-100,4,2,2,60,0,0
112777,-90.9090909090909,4,2,1,70,0,0
113092,-90.9090909090909,4,2,45,70,0,0
114040,-90.9090909090909,4,2,1,70,0,0
114356,-90.9090909090909,4,2,45,70,0,0
115303,-90.9090909090909,4,2,1,70,0,0
115619,-90.9090909090909,4,2,45,70,0,0
116566,-90.9090909090909,4,2,1,70,0,0
116882,-90.9090909090909,4,2,45,70,0,0
117513,-100,4,2,45,70,0,0
117829,-100,4,2,99,50,0,0
118777,-76.9230769230769,4,2,99,50,0,0
119092,-83.3333333333333,4,2,99,60,0,0
120040,-66.6666666666667,4,2,99,60,0,0
120356,-66.6666666666667,4,2,99,70,0,0
120987,-71.4285714285714,4,2,99,70,0,0
121619,-62.5,4,2,2,70,0,0

[Colours]
Combo1 : 255,207,128
Combo2 : 0,64,128
Combo3 : 128,0,0
Combo4 : 128,191,255

[HitObjects]
356,184,1619,6,0,B|376:264|340:324|288:292|316:246,1,144,4|0,0:1|0:0,0:0:0:0:
396,335,2250,5,2,0:0:0:0:
292,259,2408,1,0,0:0:0:0:
228,335,2566,1,0,0:0:0:0:
123,258,2724,2,0,P|98:191|123:125,2,144,2|2|2,0:0|0:0|0:0,0:0:0:0:
292,259,3671,2,0,L|384:259,2,72,0|2|0,0:0|0:0|0:0,0:0:0:0:
184,192,4145,5,2,0:0:0:0:
228,335,4303,1,2,0:0:0:0:
248,115,4461,2,0,P|211:94|180:92,1,72
292,259,4777,2,0,P|327:254|357:235,1,72
395,149,5092,1,0,0:0:0:0:
395,149,5250,1,0,0:0:0:0:
184,192,5408,5,2,0:0:0:0:
228,335,5566,1,2,0:0:0:0:
248,115,5724,2,0,P|211:94|180:92,1,72
72,258,6040,2,0,P|102:277|138:282,1,72
325,158,6356,6,0,B|345:98|329:62|329:62|319:63,1,108
247,115,6671,6,0,P|242:185|288:238,1,144,2|0,0:0|0:0,0:0:0:0:
194,278,7303,6,0,L|123:268,1,72,2|0,0:0|0:0,0:0:0:0:
325,158,7619,2,0,L|396:148,1,72
174,62,7934,1,2,0:0:0:0:
261,245,8092,1,0,0:0:0:0:
316,84,8250,1,0,0:0:0:0:
370,256,8408,6,0,B|479:234|479:234|468:200,1,144,2|0,0:0|0:0,0:0:0:0:
261,245,8882,2,0,P|263:280|277:314,1,72,2|0,0:0|0:0,0:0:0:0:
172,180,9198,5,2,0:0:0:0:
197,365,9356,1,2,0:0:0:0:
370,256,9513,2,0,P|368:221|354:187,1,72,8|0,0:0|0:0,0:0:0:0:
92,268,9829,2,0,P|94:303|108:337,1,72
197,365,10145,1,0,0:0:0:0:
197,365,10303,1,0,0:0:0:0:
172,180,10461,6,0,P|140:164|104:159,1,72,2|2,0:0|0:0,0:0:0:0:
344,250,10777,2,0,P|373:230|395:201,1,72
368,112,11092,1,2,0:0:0:0:
159,208,11250,6,0,L|143:250,1,45
176,344,11408,1,2,0:0:0:0:
208,329,11486,1,0,0:0:0:0:
244,324,11565,1,0,0:0:0:0:
279,329,11644,1,0,0:0:0:0:
311,344,11724,6,0,P|365:286|354:208,1,161.999995056153,4|8,0:1|0:0,0:0:0:0:
456,316,12198,1,0,0:0:0:0:
237,187,12356,2,0,L|145:211,1,80.9999975280763,2|0,0:0|0:0,0:0:0:0:
447,165,12671,1,8,0:0:0:0:
270,89,12829,6,0,L|191:68,1,80.9999975280763,2|0,0:0|0:0,0:0:0:0:
237,187,13145,2,0,L|158:207,1,80.9999975280763,2|8,0:0|0:0,0:0:0:0:
257,288,13461,2,0,B|193:352|193:352|160:360|123:341,1,161.999995056153,2|0,0:0|0:0,0:0:0:0:
335,221,13934,2,0,P|374:214|410:231,1,80.9999975280763,10|0,0:0|0:0,0:0:0:0:
469,316,14250,5,2,0:0:0:0:
480,155,14408,1,2,0:0:0:0:
257,288,14566,2,0,P|218:295|182:278,1,80.9999975280763,8|0,0:0|0:0,0:0:0:0:
145,128,14882,2,0,P|158:90|191:68,1,80.9999975280763
304,68,15198,1,8,0:0:0:0:
304,68,15356,1,0,0:0:0:0:
257,288,15513,5,2,0:0:0:0:
228,144,15671,1,2,0:0:0:0:
393,326,15829,2,0,P|432:333|468:316,1,80.9999975280763,8|0,0:0|0:0,0:0:0:0:
257,288,16145,2,0,P|218:281|182:298,1,80.9999975280763
48,252,16461,6,0,B|16:228|28:180|28:180|72:144,1,121.499996292114,8|0,0:0|0:0,0:0:0:0:
67,59,16777,6,0,P|135:100|151:177,1,161.999995056153,2|8,0:0|0:0,0:0:0:0:
48,252,17250,1,0,0:0:0:0:
240,144,17408,6,0,L|256:44,1,80.9999975280763,2|0,0:0|0:0,0:0:0:0:
223,252,17724,1,8,0:0:0:0:
398,184,17882,1,0,0:0:0:0:
453,348,18040,6,0,L|466:269,2,80.9999975280763,2|0|8,0:0|0:0|0:0,0:0:0:0:
317,163,18513,2,0,P|371:107|449:119,1,161.999995056153,2|0,0:0|0:0,0:0:0:0:
280,312,18987,2,0,P|240:336|196:328,1,80.9999975280763,10|0,0:0|0:0,0:0:0:0:
116,268,19303,1,2,0:0:0:0:
256,192,19461,12,8,21513,0:0:0:0:
104,80,21829,5,4,1:2:0:0:
336,152,21987,2,0,L|247:168,1,90,2|8,0:0|0:0,0:0:0:0:
98,247,22303,1,0,1:0:0:0:
98,247,22382,1,0,0:0:0:0:
98,247,22461,1,2,0:0:0:0:
352,284,22619,5,8,0:0:0:0:
150,165,22777,1,8,0:0:0:0:
336,152,22934,1,8,0:0:0:0:
143,333,23092,6,0,P|95:344|45:328,1,90,2|0,1:2|0:0,0:0:0:0:
202,83,23408,1,8,0:0:0:0:
337,238,23566,2,0,P|346:194|335:151,1,90,2|0,1:2|0:0,0:0:0:0:
150,165,23882,5,8,0:0:0:0:
432,144,24040,1,8,0:0:0:0:
452,124,24356,6,0,L|460:68,2,53.9999983520508,6|0|2,1:2|0:0|0:0,0:0:0:0:
293,325,24671,1,8,0:0:0:0:
214,172,24829,1,0,1:2:0:0:
214,172,24908,1,0,0:0:0:0:
214,172,24987,2,0,L|200:82,1,90,2|8,0:0|0:0,0:0:0:0:
313,107,25303,6,0,L|367:116,1,53.9999983520508,8|0,0:0|0:0,0:0:0:0:
261,264,25461,2,0,L|207:272,1,53.9999983520508,8|0,0:0|0:0,0:0:0:0:
89,140,25619,5,6,0:0:0:0:
121,109,25698,1,0,0:0:0:0:
164,105,25777,1,8,0:0:0:0:
201,129,25856,1,0,0:0:0:0:
214,172,25934,2,0,L|155:180,1,58.4999973220826,10|0,0:0|0:0,0:0:0:0:
367,116,26092,5,6,0:0:0:0:
397,160,26171,1,0,0:0:0:0:
404,213,26250,1,0,0:0:0:0:
386,263,26329,1,0,0:0:0:0:
347,300,26408,2,0,L|282:308,1,62.9999980773926,2|0,1:2|0:0,0:0:0:0:
136,184,26566,1,8,0:0:0:0:
304,28,26724,5,2,1:2:0:0:
377,40,26803,1,2,1:2:0:0:
450,52,26882,2,0,L|453:78,3,26.9999991760254,12|0|0|0,1:2|0:0|0:0|0:0,0:0:0:0:
397,163,27198,2,0,L|400:189,3,26.9999991760254,8|0|0|0,1:2|0:0|0:0|0:0,0:0:0:0:
343,273,27513,2,0,L|346:299,3,26.9999991760254,8|0|0|0,1:2|0:0|0:0|0:0,0:0:0:0:
274,171,27829,6,0,L|232:154,1,26.9999991760254,8|0,1:2|0:0,0:0:0:0:
144,283,27987,2,0,L|185:266,1,26.9999991760254,8|0,0:0|0:0,0:0:0:0:
142,115,28145,6,0,L|104:99,3,40.4999987640381,12|0|0|0,1:2|0:0|0:0|0:0,0:0:0:0:
130,256,28461,2,0,L|168:272,3,40.4999987640381,8|0|0|0,1:2|0:0|0:0|0:0,0:0:0:0:
274,171,28777,2,0,L|236:155,3,40.4999987640381,8|0|0|0,1:2|0:0|0:0|0:0,0:0:0:0:
262,312,29093,2,0,L|300:328,3,40.4999987640381,8|0|0|0,1:2|0:0|0:0|0:0,0:0:0:0:
360,196,29408,6,0,L|353:142,1,53.9999983520508,12|0,1:2|0:0,0:0:0:0:
474,213,29566,2,0,L|481:267,1,53.9999983520508,8|0,1:2|0:0,0:0:0:0:
262,312,29724,6,0,L|255:258,1,53.9999983520508,8|0,1:2|0:0,0:0:0:0:
376,329,29882,2,0,L|383:383,1,53.9999983520508,8|0,1:2|0:0,0:0:0:0:
130,256,30040,5,8,1:2:0:0:
118,203,30119,1,0,1:0:0:0:
141,154,30198,1,0,1:0:0:0:
189,129,30277,1,0,1:0:0:0:
236,155,30356,1,0,1:0:0:0:
288,147,30434,1,0,1:0:0:0:
323,107,30513,1,0,1:0:0:0:
325,55,30592,1,0,1:0:0:0:
268,3,30671,6,0,B|242:29|251:79|251:79|190:35|137:73,1,188.999994232178,2|0,0:0|0:0,0:0:0:0:
359,175,30987,2,0,P|389:185|420:178,3,62.9999980773926,0|0|2|0,1:0|1:0|1:2|1:0,0:0:0:0:
162,232,31303,5,4,0:3:0:0:
146,244,31382,1,0,0:0:0:0:
130,256,31461,2,0,L|114:324,1,62.9999980773926
266,276,31619,6,0,B|278:256|278:256|258:196,1,62.9999980773926,8|0,0:3|0:0,0:0:0:0:
60,189,31777,2,0,B|32:217|32:217|34:240,1,62.9999980773926,2|0,0:3|0:0,0:0:0:0:
314,357,31934,6,0,B|361:385|437:373|437:373|435:338|389:361,1,188.999994232178,4|0,1:0|0:0,0:0:0:0:
375,242,32250,2,0,P|364:294|379:345,1,107.999996704102,0|0,1:0|0:0,0:0:0:0:
444,188,32566,5,8,0:0:0:0:
215,239,32724,6,0,L|161:231,1,53.9999983520508,2|0,0:0|0:0,0:0:0:0:
400,128,32882,2,0,L|433:210,1,53.9999983520508,2|0,0:0|0:0,0:0:0:0:
235,96,33040,2,0,L|147:84,1,53.9999983520508,2|0,0:0|0:0,0:0:0:0:
104,300,33198,5,0,1:0:0:0:
216,112,33356,6,0,L|162:104,1,53.9999983520508,2|0,0:0|0:0,0:0:0:0:
396,166,33513,2,0,L|375:116,1,53.9999983520508,2|0,0:0|0:0,0:0:0:0:
287,293,33671,1,0,1:0:0:0:
287,293,33750,1,0,0:0:0:0:
287,293,33829,6,0,B|298:307|298:307|352:313|352:313|362:303|362:303|410:310,1,135,8|0,0:0|0:0,0:0:0:0:
224,248,34145,6,0,B|208:268|208:268|211:309,1,67.5000025749208,2|0,0:2|0:0,0:0:0:0:
436,304,34303,2,0,B|452:284|452:284|448:232,1,67.5000025749208,4|0,0:2|0:0,0:0:0:0:
195,176,34461,6,0,B|159:160|159:160|78:200|78:200|108:224|89:280,1,188.999994232178,0|0,1:0|0:0,0:0:0:0:
3,203,34777,2,0,B|-1:168|20:149|20:149|20:68,1,107.999996704102,0|0,1:0|0:0,0:0:0:0:
172,248,35092,5,8,0:0:0:0:
340,113,35250,6,0,P|347:87|345:60,1,53.9999983520508,2|0,0:0|0:0,0:0:0:0:
387,325,35408,2,0,P|413:318|435:303,1,53.9999983520508,2|0,0:0|0:0,0:0:0:0:
224,152,35566,2,0,P|216:126|218:99,1,53.9999983520508,2|0,0:0|0:0,0:0:0:0:
263,355,35724,5,0,1:0:0:0:
392,213,35882,6,0,P|411:194|422:169,1,53.9999983520508,2|0,0:0|0:0,0:0:0:0:
189,139,36040,2,0,P|181:113|183:86,1,53.9999983520508,2|0,0:0|0:0,0:0:0:0:
228,342,36198,1,0,1:0:0:0:
228,342,36277,1,0,0:0:0:0:
228,342,36356,6,0,P|175:266|120:340,1,215.999993408203,8|0,0:0|0:0,0:0:0:0:
301,272,36829,1,0,0:0:0:0:
92,217,36987,6,0,B|63:235|51:267|51:267|-8:233|28:143,1,188.999994232178,4|0,1:0|0:0,0:0:0:0:
174,216,37303,2,0,B|188:256|156:306|156:306|130:289,1,125.999996154785,0|0,1:0|0:0,0:0:0:0:
290,125,37619,5,8,0:0:0:0:
439,199,37777,6,0,L|455:250,1,53.9999983520508,2|0,0:0|0:0,0:0:0:0:
328,178,37934,2,0,L|276:167,1,53.9999983520508,2|0,0:0|0:0,0:0:0:0:
396,88,38092,2,0,L|433:49,1,53.9999983520508,2|0,0:0|0:0,0:0:0:0:
255,263,38250,5,0,1:0:0:0:
111,93,38408,6,0,L|74:54,1,53.9999983520508,2|0,0:0|0:0,0:0:0:0:
73,199,38566,2,0,L|57:250,1,53.9999983520508,2|0,0:0|0:0,0:0:0:0:
290,125,38724,5,0,1:0:0:0:
290,125,38802,1,0,0:0:0:0:
290,125,38882,2,0,P|289:98|282:73,1,53.9999983520508,8|0,0:0|0:0,0:0:0:0:
203,283,39040,2,0,P|222:302|246:316,1,53.9999983520508
431,175,39198,6,0,B|439:148|439:148|439:112|439:112|431:88,1,90,2|0,0:3|0:0,0:0:0:0:
309,245,39513,6,0,B|323:265|352:267|352:267|376:236|376:236|422:271|470:247,1,188.999994232178,0|0,1:0|0:0,0:0:0:0:
431,175,39829,1,0,1:0:0:0:
210,108,39987,2,0,P|174:147|171:200,1,107.999996704102,2|8,0:0|0:0,0:0:0:0:
309,245,40303,5,2,0:0:0:0:
69,269,40461,1,0,0:0:0:0:
309,245,40619,1,2,0:0:0:0:
210,108,40777,5,2,1:2:0:0:
177,351,40934,1,0,0:0:0:0:
417,327,41092,2,0,P|414:282|390:245,1,90,0|0,0:0|1:2,0:0:0:0:
350,226,41329,1,0,0:0:0:0:
309,245,41408,1,0,1:2:0:0:
285,282,41487,1,0,1:0:0:0:
282,326,41565,1,0,1:0:0:0:
391,361,41724,6,0,P|349:374|307:363,1,90,2|0,1:2|0:0,0:0:0:0:
110,92,42040,6,0,B|91:122|103:157|103:157|88:187|88:187|99:233|68:268,1,188.999994232178,4|0,1:0|0:0,0:0:0:0:
4,211,42356,5,2,1:2:0:0:
256,128,42513,1,8,0:0:0:0:
168,200,42671,5,8,0:0:0:0:
320,72,42829,2,0,L|328:16,1,53.9999983520508,2|0,0:0|0:0,0:0:0:0:
149,87,42987,5,2,1:2:0:0:
296,273,43145,1,2,0:0:0:0:
80,272,43303,5,0,1:0:0:0:
223,171,43461,2,0,L|279:179,1,53.9999983520508,8|0,0:0|0:0,0:0:0:0:
390,253,43619,5,2,1:2:0:0:
327,18,43777,1,0,1:0:0:0:
444,87,43934,6,0,B|411:115|411:115|376:111|376:111|343:118|343:118|324:105,1,135,8|0,0:0|0:0,0:0:0:0:
327,18,44250,5,2,0:0:0:0:
390,253,44408,1,8,0:0:0:0:
181,199,44566,6,0,B|139:207|126:169|140:133|179:142|179:142|213:131|213:131|236:102,1,188.999994232178,0|0,1:0|0:0,0:0:0:0:
168,64,44882,5,2,1:2:0:0:
231,299,45040,1,8,0:0:0:0:
284,184,45198,5,8,0:0:0:0:
72,136,45356,2,0,P|62:162|65:189,1,53.9999983520508,2|0,0:0|0:0,0:0:0:0:
100,296,45513,5,2,1:2:0:0:
236,101,45671,1,2,0:0:0:0:
332,266,45829,6,0,P|384:277|436:266,1,107.999996704102,0|8,1:0|0:0,0:0:0:0:
384,124,46145,5,2,1:2:0:0:
181,199,46303,1,0,1:0:0:0:
436,48,46461,6,0,B|382:27|332:48|332:48|288:32,1,135,8|0,0:0|0:0,0:0:0:0:
202,80,46777,1,4,0:0:0:0:
202,80,46856,1,0,0:0:0:0:
202,80,46934,1,8,0:0:0:0:
71,249,47092,6,0,P|124:253|169:224,1,107.999996704102,4|0,1:0|0:0,0:0:0:0:
11,165,47408,5,10,0:2:0:0:
139,343,47566,1,0,1:0:0:0:
181,199,47724,5,8,0:0:0:0:
44,272,47882,2,0,L|32:328,1,53.9999983520508
109,110,48040,5,2,1:2:0:0:
253,288,48198,1,8,0:0:0:0:
396,236,48356,6,0,L|412:194,4,31.4999990386963,4|0|0|0|0,1:2|0:0|0:0|0:0|0:0,0:0:0:0:
253,288,48671,5,10,0:0:0:0:
336,75,48829,1,4,1:2:0:0:
336,75,48908,1,0,0:0:0:0:
336,75,48987,6,0,B|323:106|323:106|216:116,1,107.999996704102,8|0,0:0|0:0,0:0:0:0:
164,48,49303,5,10,0:0:0:0:
388,180,49461,1,8,0:0:0:0:
253,288,49619,5,8,1:2:0:0:
234,262,49697,1,8,0:0:0:0:
228,232,49776,1,8,0:0:0:0:
235,201,49855,1,8,0:0:0:0:
254,177,49934,1,8,0:0:0:0:
282,163,50013,1,8,0:0:0:0:
314,162,50092,5,8,1:2:0:0:
315,206,50171,1,8,0:0:0:0:
299,248,50250,1,12,0:0:0:0:
267,279,50328,1,8,0:0:0:0:
226,295,50407,1,8,0:0:0:0:
181,292,50486,1,8,0:0:0:0:
141,272,50568,6,0,P|136:240|140:192,1,53.9999983520508,8|8,1:2|0:0,0:0:0:0:
72,104,50724,2,0,P|97:82|140:62,1,53.9999983520508,8|8,0:0|0:0,0:0:0:0:
281,139,50882,6,0,L|250:126,6,33.7500012874604,4|0|0|0|0|0|0,1:2|0:0|0:0|0:0|0:0|0:0|0:0,0:0:0:0:
415,235,51198,6,0,L|410:201,2,33.7500012874604,4|0|0,0:0|0:0|0:0,0:0:0:0:
398,71,51356,2,0,L|394:38,2,33.7500012874604,0|0|0,1:2|0:0|0:0,0:0:0:0:
299,304,51513,5,2,0:0:0:0:
424,104,51671,1,0,0:0:0:0:
240,228,51829,6,0,B|192:236|192:236|142:202|164:149,1,148.50000453186,2|0,1:2|0:0,0:0:0:0:
256,240,52145,6,0,L|95:270,1,161.999995056153,4|0,1:0|0:0,0:0:0:0:
32,176,52619,1,0,1:2:0:0:
239,76,52777,2,0,P|253:113|250:153,1,80.9999975280763,10|0,0:0|1:0,0:0:0:0:
168,124,53092,5,0,1:0:0:0:
346,125,53250,2,0,L|375:164,1,49.5000015106202,2|0,0:0|0:0,0:0:0:0:
467,256,53408,6,0,L|487:283,2,33.0000010070801,4|0|0,0:0|0:0|0:0,0:0:0:0:
487,162,53566,2,0,L|505:134,2,33.0000010070801,2|0|0,1:2|0:0|0:0,0:0:0:0:
376,288,53724,6,0,L|344:287,2,33.0000010070801,4|0|0,0:0|0:0|0:0,0:0:0:0:
396,192,53882,2,0,L|376:165,2,33.0000010070801,2|0|0,1:2|0:0|0:0,0:0:0:0:
264,328,54040,6,0,B|246:315|246:315|262:239,1,80.9999975280763,8|0,0:0|0:0,0:0:0:0:
258,257,54277,1,0,0:0:0:0:
258,257,54356,1,6,0:0:0:0:
132,328,54514,1,0,0:0:0:0:
72,232,54671,5,6,1:2:0:0:
76,212,54750,1,0,0:0:0:0:
80,192,54829,1,2,0:0:0:0:
84,172,54908,1,0,0:0:0:0:
87,152,54987,6,0,P|129:123|167:125,1,80.9999975280763,4|0,0:0|1:0,0:0:0:0:
258,257,55303,2,0,P|218:264|181:248,1,80.9999975280763,8|0,0:0|0:0,0:0:0:0:
228,176,55619,1,0,1:0:0:0:
228,176,55777,1,0,0:0:0:0:
341,271,55934,5,6,1:2:0:0:
275,104,56092,1,2,0:0:0:0:
181,248,56250,2,0,P|218:264|258:257,1,80.9999975280763,4|0,0:0|1:0,0:0:0:0:
424,284,56566,6,0,L|432:317,5,33.0000010070801,12|0|0|0|0|0,0:0|0:0|0:0|0:0|0:0|0:0,0:0:0:0:
476,220,56882,5,4,1:2:0:0:
484,183,56961,1,0,0:0:0:0:
478,147,57040,1,2,0:0:0:0:
460,115,57119,1,0,0:0:0:0:
428,96,57198,6,0,P|351:75|274:95,1,161.999995056153,12|8,0:2|0:0,0:0:0:0:
188,171,57671,1,12,1:2:0:0:
387,276,57829,2,0,P|402:238|398:198,1,80.9999975280763,10|0,1:2|0:0,0:0:0:0:
273,95,58145,5,12,0:0:0:0:
92,186,58303,2,0,P|98:210|111:231,1,49.5000015106202,8|0,0:0|0:0,0:0:0:0:
283,224,58461,6,0,L|315:226,2,33.0000010070801,14|0|0,0:0|0:0|0:0,0:0:0:0:
188,171,58619,2,0,L|214:135,2,33.0000010070801,0|0|0,0:2|0:0|0:0,0:0:0:0:
300,338,58777,6,0,L|280:364,2,33.0000010070801,12|0|0,0:0|0:0|0:0,0:0:0:0:
205,285,58934,2,0,L|173:283,2,33.0000010070801,2|0|0,1:2|0:0|0:0,0:0:0:0:
387,276,59092,6,0,P|401:238|397:198,1,80.9999975280763,8|0,1:2|0:0,0:0:0:0:
397,198,59329,1,0,0:0:0:0:
397,198,59408,1,14,1:2:0:0:
300,338,59566,1,8,0:0:0:0:
187,312,59724,5,14,1:2:0:0:
159,304,59803,1,0,0:0:0:0:
131,296,59882,1,2,0:0:0:0:
103,288,59961,1,0,0:0:0:0:
75,280,60040,6,0,P|61:242|65:202,1,80.9999975280763,12|8,0:0|1:2,0:0:0:0:
279,160,60356,2,0,P|282:199|268:237,1,80.9999975280763,8|0,1:2|0:0,0:0:0:0:
187,312,60671,1,12,0:0:0:0:
187,312,60829,1,8,0:0:0:0:
65,203,60987,6,0,B|44:152|76:99|76:99|94:142|145:145,1,188.999994232178,4|0,1:3|0:0,0:0:0:0:
157,223,61303,6,0,P|186:213|205:189,1,62.9999980773926,4|0,0:0|0:0,0:0:0:0:
152,65,61461,2,0,P|137:37|105:23,1,62.9999980773926
354,183,61619,5,8,0:0:0:0:
351,130,61697,1,8,0:0:0:0:
314,92,61776,1,8,0:0:0:0:
262,85,61855,1,8,0:0:0:0:
217,112,61934,5,2,0:3:0:0:
279,160,62013,1,0,0:0:0:0:
351,130,62092,2,0,P|363:97|360:61,1,62.9999980773926,0|0,0:2|0:0,0:0:0:0:
266,238,62250,5,4,1:0:0:0:
256,192,69829,12,8,72040,0:0:0:0:
128,132,72356,6,0,P|125:84|148:41,1,99.0000030212403,4|2,1:2|0:0,0:0:0:0:
256,270,72671,1,8,0:0:0:0:
303,121,72829,2,0,P|259:99|211:103,1,99.0000030212403,0|0,1:0|0:0,0:0:0:0:
351,308,73145,5,10,0:0:0:0:
351,308,73224,1,0,0:0:0:0:
351,308,73303,1,10,0:0:0:0:
161,232,73461,1,8,0:0:0:0:
388,212,73619,5,0,1:0:0:0:
176,334,73777,1,2,0:0:0:0:
133,323,73856,1,0,0:0:0:0:
90,312,73934,2,0,B|67:202,1,99.0000030212403,8|0,0:0|1:0,0:0:0:0:
209,45,74250,1,0,0:0:0:0:
256,270,74408,1,10,0:0:0:0:
428,116,74566,6,0,B|399:116|399:116|377:130|377:130|325:116,1,108,0|0,1:0|0:0,0:0:0:0:
258,160,74882,6,0,L|205:146,2,53.9999983520508,6|0|2,1:2|0:0|0:0,0:0:0:0:
452,292,75198,1,8,0:0:0:0:
428,116,75356,2,0,B|407:212,1,99.0000030212403,0|0,1:0|0:0,0:0:0:0:
183,299,75671,5,10,0:0:0:0:
179,316,75750,1,0,0:0:0:0:
175,333,75829,2,0,L|161:281,1,53.9999983520508,10|0,1:2|0:0,0:0:0:0:
205,146,75987,2,0,L|258:160,1,53.9999983520508,8|0,0:0|0:0,0:0:0:0:
342,290,76145,5,4,1:2:0:0:
373,256,76224,1,0,0:0:0:0:
377,211,76303,1,2,0:0:0:0:
332,153,76382,1,4,1:2:0:0:
352,112,76461,1,10,0:0:0:0:
393,93,76540,1,2,0:0:0:0:
463,118,76619,6,0,P|484:137|498:184,2,62.9999980773926,6|0|0,1:2|0:0|0:0,0:0:0:0:
283,89,76856,2,0,P|283:57|297:29,2,62.9999980773926,4|2|0,1:2|0:0|0:0,0:0:0:0:
342,290,77092,1,12,1:2:0:0:
167,193,77250,5,0,1:0:0:0:
93,193,77329,1,0,1:0:0:0:
57,257,77408,2,0,L|69:301,3,40.4999987640381,12|0|0|0,1:2|0:0|0:0|0:0,0:0:0:0:
129,129,77724,2,0,L|141:85,3,40.4999987640381,8|0|0|0,1:2|0:0|0:0|0:0,0:0:0:0:
201,257,78040,2,0,L|213:301,3,40.4999987640381,8|0|0|0,1:2|0:0|0:0|0:0,0:0:0:0:
273,129,78356,6,0,L|285:85,1,40.4999987640381,8|0,1:2|0:0,0:0:0:0:
345,257,78513,2,0,L|357:301,1,40.4999987640381,8|0,1:2|0:0,0:0:0:0:
425,142,78671,6,0,L|426:85,3,53.9999983520508,12|0|0|0,1:2|0:0|0:0|0:0,0:0:0:0:
273,183,78987,2,0,L|274:126,3,53.9999983520508,8|0|0|0,1:2|0:0|0:0|0:0,0:0:0:0:
119,223,79303,2,0,L|119:165,3,53.9999983520508,8|0|0|0,1:2|0:0|0:0|0:0,0:0:0:0:
191,268,79619,6,0,B|202:264|222:270|222:270|244:261|244:261|268:269,1,80.9999975280763,8|0,1:2|0:0,0:0:0:0:
442,149,79934,6,0,L|425:84,1,62.9999980773926,12|0,1:2|0:0,0:0:0:0:
344,280,80092,2,0,L|328:340,1,62.9999980773926,8|0,1:2|0:0,0:0:0:0:
215,71,80250,6,0,L|167:23,1,62.9999980773926,8|0,1:2|0:0,0:0:0:0:
119,223,80408,2,0,L|119:285,1,62.9999980773926,8|0,1:2|0:0,0:0:0:0:
368,264,80566,5,8,1:2:0:0:
401,218,80645,1,0,1:0:0:0:
391,162,80724,1,0,1:0:0:0:
345,129,80803,1,0,1:0:0:0:
289,138,80882,1,0,1:0:0:0:
241,169,80961,1,0,1:0:0:0:
184,167,81040,1,0,1:0:0:0:
137,135,81119,1,0,1:0:0:0:
125,79,81198,5,2,0:0:0:0:
325,203,81356,1,0,0:0:0:0:
108,295,81513,1,0,0:0:0:0:
318,62,81671,1,0,0:0:0:0:
274,334,81829,6,0,B|260:352|260:352|240:248,1,107.999996704102,2|0,1:2|1:0,0:0:0:0:
226,164,82066,1,0,1:0:0:0:
226,164,82145,2,0,L|176:219,1,53.9999983520508,2|0,1:3|0:0,0:0:0:0:
346,308,82303,2,0,L|335:255,1,53.9999983520508,0|0,1:0|0:0,0:0:0:0:
298,84,82461,6,0,B|287:30|287:30|164:96,1,175.499991966248,4|0,1:0|0:0,0:0:0:0:
317,170,82777,5,8,0:0:0:0:
116,149,82934,6,0,L|58:137,1,58.4999973220826,2|0,0:0|0:0,0:0:0:0:
335,255,83092,2,0,L|392:243,1,58.4999973220826,2|0,0:0|0:0,0:0:0:0:
161,282,83250,1,0,1:2:0:0:
180,86,83408,5,8,0:0:0:0:
352,264,83566,6,0,L|409:252,1,58.4999973220826,2|0,0:0|0:0,0:0:0:0:
116,149,83724,1,0,1:0:0:0:
334,179,83882,6,0,L|391:167,1,58.4999973220826,2|0,0:0|0:0,0:0:0:0:
86,234,84040,1,8,0:0:0:0:
316,94,84198,6,0,L|373:82,1,58.4999973220826,2|0,0:0|0:0,0:0:0:0:
82,323,84356,2,0,L|63:378,1,58.4999973220826,2|0,0:0|0:0,0:0:0:0:
51,85,84513,1,0,1:0:0:0:
248,271,84671,6,0,B|291:290|291:290|365:276,1,116.999994644165,8|0,0:0|0:0,0:0:0:0:
284,103,84987,6,0,B|249:156|300:212|300:212|316:191|347:185,1,175.499991966248,0|0,1:0|0:0,0:0:0:0:
300,88,85303,5,8,0:0:0:0:
177,234,85461,6,0,P|167:262|171:291,1,58.4999973220826,2|0,0:0|0:0,0:0:0:0:
431,199,85619,2,0,P|430:168|420:141,1,58.4999973220826,2|0,0:0|0:0,0:0:0:0:
248,271,85777,1,0,1:0:0:0:
425,344,85934,5,8,0:0:0:0:
128,166,86092,6,0,P|107:186|97:214,1,58.4999973220826,2|0,0:0|0:0,0:0:0:0:
382,258,86250,1,0,1:0:0:0:
120,81,86408,6,0,P|92:88|70:107,1,58.4999973220826,2|0,0:0|0:0,0:0:0:0:
341,173,86566,1,8,0:0:0:0:
156,5,86724,6,0,P|128:-2|100:0,1,58.4999973220826,2|0,0:0|0:0,0:0:0:0:
112,264,86882,1,2,0:0:0:0:
300,88,87040,1,0,1:0:0:0:
264,364,87198,6,0,B|320:325|278:248|278:248|236:264,1,175.499991966248,8|0,0:0|0:0,0:0:0:0:
191,281,87513,6,0,B|278:248|278:248|254:214|211:201,1,175.499991966248,4|0,1:0|0:0,0:0:0:0:
124,344,87829,2,0,L|186:368,1,58.4999973220826,8|0,0:0|0:0,0:0:0:0:
392,304,87987,6,0,P|371:222|429:162,1,175.499991966248,2|0,0:0|0:0,0:0:0:0:
459,246,88303,5,2,1:2:0:0:
191,280,88461,1,8,0:0:0:0:
357,102,88619,1,2,0:0:0:0:
108,189,88777,5,2,1:2:0:0:
384,195,88935,1,0,0:0:0:0:
197,37,89092,6,0,B|189:56|189:56|196:93,1,58.4999973220826,10|0,0:0|0:0,0:0:0:0:
325,329,89250,2,0,B|332:309|332:309|325:272,1,58.4999973220826
89,67,89408,5,2,0:0:0:0:
384,195,89566,1,0,1:0:0:0:
92,300,89724,6,0,P|56:276|90:251,1,99.0000030212403,10|0,0:0|0:0,0:0:0:0:
185,351,90040,6,0,P|221:292|184:200,1,175.499991966248,0|0,1:0|0:0,0:0:0:0:
91,300,90356,2,0,P|147:279|174:226,1,116.999994644165,10|0,0:0|0:0,0:0:0:0:
120,76,90671,6,0,P|114:104|120:133,1,58.4999973220826,2|0,0:0|0:0,0:0:0:0:
270,182,90829,1,0,1:0:0:0:
376,32,90987,6,0,P|340:28|296:48,1,58.4999973220826,10|0,0:0|0:0,0:0:0:0:
363,242,91145,2,0,P|391:246|420:240,1,58.4999973220826,2|0,0:0|0:0,0:0:0:0:
407,122,91303,6,0,B|345:95|293:131|293:131|270:182,1,175.499991966248,2|0,1:2|0:0,0:0:0:0:
414,348,91619,2,0,P|435:294|420:239,1,116.999994644165,8|0,0:0|0:0,0:0:0:0:
218,288,91934,5,0,1:3:0:0:
174,288,92013,1,0,1:0:0:0:
130,288,92092,1,0,1:0:0:0:
324,288,92250,5,2,1:2:0:0:
24,288,92408,1,0,0:0:0:0:
213,43,92566,6,0,B|279:66|289:138|289:138|269:182,1,175.499991966248,4|0,1:0|0:0,0:0:0:0:
124,196,92882,5,8,1:2:0:0:
424,196,93040,1,2,0:0:0:0:
358,93,93198,5,2,0:0:0:0:
358,93,93356,1,0,1:0:0:0:
219,315,93513,5,8,1:2:0:0:
141,25,93671,1,2,0:0:0:0:
269,182,93829,5,0,1:0:0:0:
124,196,93987,2,0,P|95:195|69:183,1,58.4999973220826,2|0,0:0|0:0,0:0:0:0:
141,25,94145,5,8,1:2:0:0:
63,315,94303,1,2,0:0:0:0:
269,182,94461,6,0,B|305:164|353:170|353:170|383:200,1,116.999994644165,2|0,0:0|1:0,0:0:0:0:
140,276,94777,5,8,1:2:0:0:
440,276,94935,1,0,0:0:0:0:
192,151,95092,6,0,B|176:231|251:262|251:262|288:256,1,175.499991966248,0|0,1:0|0:0,0:0:0:0:
374,190,95408,5,8,1:2:0:0:
84,126,95566,1,2,0:0:0:0:
140,276,95724,5,2,0:0:0:0:
140,276,95882,1,0,1:0:0:0:
232,68,96040,5,8,1:2:0:0:
322,352,96198,1,2,0:0:0:0:
374,190,96356,5,0,1:0:0:0:
197,206,96513,2,0,P|188:178|192:150,1,58.4999973220826,2|0,0:0|0:0,0:0:0:0:
412,68,96671,5,8,1:2:0:0:
322,352,96829,1,2,0:0:0:0:
473,247,96987,6,0,B|433:247|433:247|405:271|405:271|364:271,1,116.999994644165,2|0,0:0|1:0,0:0:0:0:
183,311,97303,5,8,1:2:0:0:
473,247,97461,1,0,0:0:0:0:
314,84,97619,6,0,B|267:100|262:152|262:152|268:176,1,116.999994644165,4|0,1:0|0:0,0:0:0:0:
374,189,97856,1,0,0:0:0:0:
374,189,97934,2,0,P|366:162|339:154,1,58.4999973220826,8|0,0:0|0:0,0:0:0:0:
190,318,98092,6,0,P|274:313|316:239,1,175.499991966248,2|0,0:0|0:0,0:0:0:0:
75,185,98408,1,2,1:2:0:0:
75,185,98487,1,0,0:0:0:0:
75,185,98566,6,0,L|19:165,1,58.4999973220826,8|0,0:0|0:0,0:0:0:0:
229,239,98724,2,0,L|173:219,1,58.4999973220826,2|0,0:0|0:0,0:0:0:0:
55,76,98882,5,2,1:2:0:0:
100,320,99040,1,0,0:0:0:0:
271,121,99198,6,0,L|215:101,1,58.4999973220826,10|0,0:0|0:0,0:0:0:0:
289,318,99356,2,0,L|344:298,1,58.4999973220826
457,76,99513,5,2,0:0:0:0:
271,121,99671,1,0,1:0:0:0:
209,141,99750,1,0,0:0:0:0:
146,157,99829,2,0,B|110:102|145:45,1,116.999994644165,10|0,0:0|0:0,0:0:0:0:
343,298,100145,5,6,1:2:0:0:
346,321,100224,1,0,1:0:0:0:
364,342,100303,1,0,1:0:0:0:
393,354,100382,1,0,1:0:0:0:
429,347,100461,1,8,1:2:0:0:
464,318,100540,1,0,1:0:0:0:
481,268,100619,1,0,1:0:0:0:
468,205,100698,1,0,1:0:0:0:
418,146,100777,5,2,1:2:0:0:
358,125,100855,1,0,1:0:0:0:
296,142,100934,1,4,1:2:0:0:
256,192,101013,1,0,1:0:0:0:
216,242,101092,1,8,1:2:0:0:
154,259,101171,1,0,1:0:0:0:
94,238,101249,1,0,1:0:0:0:
62,182,101329,1,0,1:0:0:0:
86,108,101408,6,0,B|138:77|181:102|181:102|163:124|160:158,1,161.999995056153,6|0,1:2|0:0,0:0:0:0:
344,359,101645,6,0,B|283:354|263:308|263:308|291:301|313:275,1,161.999995056153,6|0,1:2|0:0,0:0:0:0:
281,3,101882,6,0,B|328:44|318:92|318:92|291:82|258:90,1,161.999995056153,6|0,1:2|0:0,0:0:0:0:
123,328,102119,6,0,B|110:268|147:235|147:235|162:259|193:272,1,161.999995056153,6|0,1:2|0:0,0:0:0:0:
442,158,102356,6,0,B|419:215|369:220|369:220|371:192|353:163,1,161.999995056153,6|0,1:2|0:0,0:0:0:0:
160,158,102592,1,0,0:0:0:0:
160,158,102671,6,0,B|163:124|181:102|181:102|138:77|86:108,1,161.999995056153,4|8,1:0|0:0,0:0:0:0:
256,192,103145,1,0,0:0:0:0:
442,158,103303,6,0,P|450:102|426:62,1,80.9999975280763,2|0,0:0|1:0,0:0:0:0:
361,241,103619,2,0,L|415:257,1,40.4999987640381,8|0,0:0|0:0,0:0:0:0:
300,57,103777,6,0,L|223:80,1,80.9999975280763,2|0,0:0|1:0,0:0:0:0:
84,107,104093,2,0,L|143:164,1,80.9999975280763,2|8,0:0|0:0,0:0:0:0:
236,270,104408,2,0,L|256:192,1,80.9999975280763,2|0,0:0|0:0,0:0:0:0:
97,297,104724,1,0,1:0:0:0:
97,297,104803,1,0,0:0:0:0:
97,297,104882,6,0,L|24:280,1,49.5000015106202,10|0,0:0|0:0,0:0:0:0:
234,374,105040,2,0,L|307:357,1,49.5000015106202
331,178,105198,5,2,1:2:0:0:
396,336,105356,1,2,0:0:0:0:
476,169,105513,2,0,P|428:141|332:173,1,135,8|0,0:0|0:0,0:0:0:0:
330,178,105829,2,0,P|287:188|247:170,1,90,0|0,0:0|1:0,0:0:0:0:
200,81,106145,1,8,0:0:0:0:
200,81,106303,1,0,0:0:0:0:
180,242,106461,5,2,1:2:0:0:
330,178,106619,1,2,0:0:0:0:
104,192,106777,2,0,P|86:232|96:275,1,90,8|0,0:0|0:0,0:0:0:0:
352,154,107092,2,0,P|361:110|343:70,1,90,0|0,0:0|1:0,0:0:0:0:
204,56,107408,6,0,B|198:80|198:80|152:43|108:62,1,121.499996292114,8|0,0:0|0:0,0:0:0:0:
140,130,107724,6,0,B|201:178|256:127|256:127|284:166,1,161.999995056153,4|8,1:0|0:0,0:0:0:0:
372,296,108198,1,0,0:0:0:0:
438,122,108356,6,0,L|450:10,1,80.9999975280763,2|0,0:0|1:0,0:0:0:0:
352,154,108671,1,8,0:0:0:0:
200,81,108829,1,0,0:0:0:0:
200,81,108908,1,0,0:0:0:0:
200,81,108987,6,0,L|119:90,1,80.9999975280763,2|0,1:2|0:0,0:0:0:0:
62,169,109303,1,8,0:0:0:0:
240,146,109461,2,0,P|280:81|240:15,1,161.999995056153,2|0,0:0|1:0,0:0:0:0:
150,205,109934,6,0,L|200:211,1,49.5000015106202,10|0,0:0|0:0,0:0:0:0:
332,168,110092,2,0,L|381:173,1,49.5000015106202
251,306,110250,5,2,1:2:0:0:
436,320,110408,1,2,0:0:0:0:
291,231,110566,2,0,P|259:263|251:306,1,90,8|0,0:0|0:0,0:0:0:0:
463,176,110882,2,0,P|455:132|423:101,1,90,0|0,0:0|1:0,0:0:0:0:
314,90,111198,1,8,0:0:0:0:
314,90,111356,1,0,0:0:0:0:
251,306,111513,5,2,1:2:0:0:
179,173,111671,1,2,0:0:0:0:
393,279,111829,2,0,P|419:243|420:199,1,90,8|0,0:0|0:0,0:0:0:0:
314,90,112145,5,2,0:0:0:0:
288,199,112303,1,0,1:0:0:0:
254,23,112461,2,0,P|315:-1|377:25,1,135,2|0,0:0|0:0,0:0:0:0:
429,101,112777,6,0,L|420:200,1,99.0000030212403,4|2,1:0|0:0,0:0:0:0:
189,266,113092,2,0,L|180:168,1,99.0000030212403,8|0,1:2|0:0,0:0:0:0:
279,330,113408,1,2,0:0:0:0:
125,355,113566,6,0,L|56:336,1,49.5000015106202,12|0,0:2|0:0,0:0:0:0:
231,213,113724,2,0,L|300:194,1,49.5000015106202,8|0,1:2|0:0,0:0:0:0:
77,238,113882,2,0,L|8:219,1,49.5000015106202,8|0,0:2|0:0,0:0:0:0:
183,96,114040,6,0,L|301:63,1,99.0000030212403,2|0,1:0|0:0,0:0:0:0:
279,330,114356,2,0,L|161:297,1,99.0000030212403,8|0,1:2|0:0,0:0:0:0:
325,185,114671,1,2,0:0:0:0:
426,295,114829,6,0,P|428:271|423:247,1,49.5000015106202,12|0,0:2|0:0,0:0:0:0:
470,150,114987,2,0,P|451:135|428:128,1,49.5000015106202,8|0,1:2|0:0,0:0:0:0:
366,39,115145,2,0,P|342:47|325:64,1,49.5000015106202,8|0,0:2|0:0,0:0:0:0:
206,246,115303,6,0,P|158:242|117:214,1,99.0000030212403,0|2,1:0|0:0,0:0:0:0:
267,192,115619,2,0,P|284:237|276:286,1,99.0000030212403,8|0,1:2|0:0,0:0:0:0:
116,312,115934,1,2,0:0:0:0:
352,311,116092,6,0,P|376:311|395:298,1,49.5000015106202,12|0,0:0|0:0,0:0:0:0:
336,150,116250,2,0,P|326:129|303:119,1,49.5000015106202,8|0,1:2|0:0,0:0:0:0:
205,245,116408,2,0,P|192:265|194:288,1,49.5000015106202,8|0,0:0|0:0,0:0:0:0:
430,146,116566,5,2,1:2:0:0:
298,236,116724,1,0,0:0:0:0:
430,146,116882,2,0,L|430:46,1,99.0000030212403,8|0,1:2|0:0,0:0:0:0:
206,246,117198,5,2,0:0:0:0:
244,76,117356,2,0,L|244:26,1,49.5000015106202,4|0,0:0|0:0,0:0:0:0:
206,246,117513,6,0,B|168:290|168:290|91:290,1,135,8|0,1:2|0:0,0:0:0:0:
122,200,117829,5,6,1:2:0:0:
154,169,117907,1,0,1:2:0:0:
197,156,117986,1,0,1:2:0:0:
241,164,118065,1,0,1:2:0:0:
276,192,118145,1,10,1:2:0:0:
302,228,118224,1,0,1:2:0:0:
341,250,118303,1,4,1:2:0:0:
386,257,118383,1,0,1:2:0:0:
428,244,118462,1,2,1:2:0:0:
454,208,118541,1,0,1:2:0:0:
455,163,118619,1,4,1:2:0:0:
427,129,118698,1,0,1:2:0:0:
385,112,118777,6,0,P|356:104|321:126,1,58.4999973220826,10|0,1:2|1:0,0:0:0:0:
206,246,118934,2,0,P|214:274|249:294,1,58.4999973220826,2|0,1:2|1:0,0:0:0:0:
24,151,119092,5,6,1:2:0:0:
47,103,119171,1,0,1:2:0:0:
94,77,119250,1,0,1:2:0:0:
147,81,119329,1,0,1:2:0:0:
189,114,119409,1,10,1:2:0:0:
232,144,119487,1,0,1:2:0:0:
285,143,119566,1,4,1:2:0:0:
330,114,119645,1,0,1:2:0:0:
331,59,119724,1,2,1:2:0:0:
286,28,119803,1,0,1:2:0:0:
233,40,119882,1,4,1:2:0:0:
218,92,119961,1,0,1:2:0:0:
232,144,120040,6,0,P|249:172|301:191,3,67.5000025749208,10|0|4|0,1:2|1:2|1:2|1:2,0:0:0:0:
464,69,120356,6,0,P|430:69|401:86,1,67.5000025749208,4|0,1:2|1:0,0:0:0:0:
99,203,120513,6,0,P|82:231|81:265,1,67.5000025749208,0|0,1:0|1:0,0:0:0:0:
412,307,120671,6,0,P|428:278|429:244,1,67.5000025749208,8|0,1:2|1:0,0:0:0:0:
151,135,120829,6,0,P|122:118|89:118,1,67.5000025749208,4|0,1:2|1:0,0:0:0:0:
255,352,120987,5,0,1:2:0:0:
296,305,121065,1,0,1:2:0:0:
305,243,121144,1,0,1:2:0:0:
277,187,121223,1,0,1:2:0:0:
249,131,121303,1,8,1:2:0:0:
258,69,121382,1,0,1:2:0:0:
303,27,121460,1,0,1:2:0:0:
366,30,121540,1,0,1:2:0:0:
420,92,121619,6,0,B|440:144|416:189|416:189|369:182,1,144,6|0,1:2|0:0,0:0:0:0:
180,84,121856,6,0,B|136:77|136:77|112:122|132:174,1,144,6|0,1:2|0:0,0:0:0:0:
376,288,122092,6,0,B|477:306|477:306|487:326|472:345,1,144,6|0,1:2|0:0,0:0:0:0:
136,280,122329,6,0,B|35:262|35:262|25:242|39:222,1,144,6|0,1:2|0:0,0:0:0:0:
263,220,122566,6,0,B|289:288|289:288|256:352,1,144,6|0,1:2|0:0,0:0:0:0:
216,360,122803,5,0,1:0:0:0:
