osu file format v9

[General]
AudioFilename: Nanairo Kouro.mp3
AudioLeadIn: 1000
PreviewTime: 53122
Countdown: 0
SampleSet: Normal
StackLeniency: 0.7
Mode: 0
LetterboxInBreaks: 1

[Editor]
DistanceSpacing: 1
BeatDivisor: 4
GridSize: 8

[Metadata]
Title:Nanairo no Chizu (Short Ver.)
Artist:UR@N
Creator:Hinacle
Version:Normal
Source:Nanairo Kouro
Tags:KSHR journey KanaRin

[Difficulty]
HPDrainRate:3
CircleSize:4
OverallDifficulty:3
ApproachRate:4
SliderMultiplier:1.20000000596046
SliderTickRate:1

[Events]
//Background and Video events
Video,0,"op.flv"
0,0,"nanairo.jpg"
//Break Periods
//Storyboard Layer 0 (Background)
//Storyboard Layer 1 (Fail)
//Storyboard Layer 2 (Pass)
//Storyboard Layer 3 (Foreground)
//Storyboard Sound Samples
//Background Colour Transformations
3,100,163,162,255

[TimingPoints]
1556,375,4,1,1,45,1,0
14962,-100,4,1,1,35,0,0
16462,-100,4,1,2,40,0,0
16649,-100,4,1,1,45,0,0
22462,-100,4,1,2,40,0,0
22649,-100,4,1,1,45,0,0
28462,-100,4,1,2,40,0,0
28649,-100,4,1,1,45,0,0
34462,-100,4,1,2,40,0,0
34649,-100,4,1,1,45,0,0
35962,-100,4,1,2,40,0,0
36149,-100,4,1,1,45,0,0
46462,-100,4,1,2,45,0,0
46649,-100,4,1,1,50,0,0
47962,-100,4,1,2,45,0,0
48149,-100,4,1,1,50,0,0
49462,-100,4,1,2,45,0,0
49649,-100,4,1,1,50,0,0
50962,-100,4,1,1,20,0,0
53774,-100,4,1,2,55,0,0
53868,-100,4,1,2,55,0,1
53962,-100,4,1,1,60,0,1
55274,-100,4,1,2,50,0,1
55462,-100,4,1,1,60,0,1
56774,-100,4,1,2,55,0,1
56962,-100,4,1,1,60,0,1
59962,-100,4,1,2,55,0,1
60149,-100,4,1,1,60,0,1
64274,-100,4,1,2,55,0,1
64462,-100,4,1,1,60,0,1
64649,-100,4,1,2,60,0,1
65024,-100,4,1,1,60,0,1
65774,-100,4,1,2,55,0,1
65962,-100,4,1,1,60,0,1
67274,-100,4,1,2,50,0,1
67462,-100,4,1,1,60,0,1
68774,-100,4,1,2,55,0,1
68962,-100,4,1,1,60,0,1
71962,-100,4,1,2,55,0,1
72149,-100,4,1,1,60,0,1
80962,-100,4,1,1,40,0,1
81056,-100,4,1,1,40,0,0
82591,375,4,1,1,35,1,0
83369,375,4,1,1,35,1,0
84112,375,4,1,1,0,1,0
85402,545.454545454546,4,1,1,0,1,0
85947,-100,4,1,1,40,0,0

[Colours]
Combo1 : 200,220,251
Combo2 : 128,255,255
Combo3 : 34,155,221
Combo4 : 255,255,255

[HitObjects]
264,80,1556,2,0,B|392:80,1,120.000000596046,4|8
384,200,2306,2,0,B|256:200,1,120.000000596046,0|8
144,200,3056,5,4
48,272,3431,1,8
144,344,3806,1,0
240,272,4181,1,8
328,192,4556,6,0,B|368:152|440:144,2,120.000000596046,4|8|4
328,312,5681,1,8
208,312,6056,2,0,B|168:352|96:360,2,120.000000596046,4|8|4
208,192,7181,1,8
208,72,7556,6,0,B|272:56|336:72,1,120.000000596046,4|8
432,128,8306,1,0
432,248,8681,1,8
336,320,9056,6,0,B|272:336|208:320,1,120.000000596046,0|8
120,248,9806,1,0
120,128,10181,1,8
216,56,10556,6,0,B|272:24|336:56,2,120.000000596046,0|8|0
216,176,11681,1,8
216,296,12056,2,0,B|160:328|96:296,2,120.000000596046,0|8|0
336,296,13181,1,8
336,176,13556,6,0,B|352:112|336:48,1,120.000000596046,0|8
216,56,14306,2,0,B|200:120|216:184,1,120.000000596046,0|8
216,296,15056,5,4
328,344,15431,1,4
376,232,15806,1,4
264,184,16181,1,4
144,184,16556,6,0,B|80:200|32:240,1,120.000000596046,4|8
96,344,17306,2,0,B|160:328|208:288,1,120.000000596046,0|8
304,224,18056,2,0,B|357:261|421:277,1,120.000000596046,0|8
472,168,18806,2,0,B|419:131|355:115,1,120.000000596046,0|8
240,112,19556,5,0
144,40,19931,1,8
72,136,20306,1,0
168,208,20681,1,8
256,288,21056,5,0
376,288,21431,1,8
376,168,21806,2,0,B|392:112|376:48,1,120.000000596046,0|8
256,48,22556,5,4
136,48,22931,2,0,B|120:104|136:168,1,120.000000596046,8|0
136,288,23681,1,8
256,288,24056,6,0,B|376:288,2,120.000000596046,0|8|0
256,168,25181,1,8
256,48,25556,2,0,B|136:48,2,120.000000596046,0|8|0
376,48,26681,1,8
376,168,27056,6,0,B|384:224|368:240|376:288,2,120.000000596046,0|8|0
256,168,28181,1,8
160,96,28556,5,4
160,96,28931,2,0,B|104:64|32:88,2,120.000000596046,8|0|8
256,24,30056,1,0
352,96,30431,2,0,B|408:128|480:104,2,120.000000596046,8|0|8
256,168,31556,5,0
136,168,31931,1,8
136,288,32306,2,0,B|192:296|200:280|264:288,1,120.000000596046,0|8
376,288,33056,6,0,B|419:251|412:235|461:192,2,120.000000596046,0|8|0
256,288,34181,1,8
256,168,34556,5,4
160,96,34931,1,8
104,96,35118,2,0,B|72:192|104:280,1,180.000000894069,0|8
224,272,36056,5,4
344,272,36431,1,8
400,272,36618,2,0,B|432:176|400:88,1,180.000000894069,0|8
280,96,37556,5,0
160,96,37931,1,8
256,192,38306,12,4,40181
192,192,40556,6,0,B|64:192,1,120.000000596046,0|8
72,72,41306,2,0,B|192:72,1,120.000000596046,0|8
312,72,42056,2,0,B|376:72,2,60.000000298023,0|0|8
312,192,42806,2,0,B|248:192,2,60.000000298023,0|0|8
312,312,43556,6,0,B|256:328|192:312,1,120.000000596046,4|8
72,312,44306,2,0,B|56:248|72:192,1,120.000000596046,0|8
192,192,45056,2,0,B|192:128,2,60.000000298023,0|0|8
312,192,45806,2,0,B|312:256,2,60.000000298023,0|0|8
432,192,46556,6,0,B|456:136|432:72,1,120.000000596046,4|8
312,72,47306,1,0
192,72,47681,1,8
72,72,48056,6,0,B|56:136|72:200,1,120.000000596046,4|8
72,312,48806,1,0
192,312,49181,1,8
312,312,49556,6,0,B|376:320|440:312,1,120.000000596046,4|8
432,192,50306,2,0,B|368:184|304:192,1,120.000000596046,0|8
256,192,51056,12,0,53306
384,120,53868,6,0,B|264:120,1,120.000000596046,4|0
208,120,54431,2,0,B|208:56,2,60.000000298023,8|0|8
112,272,55368,6,0,B|232:272,1,120.000000596046,4|0
288,272,55931,2,0,B|288:336,2,60.000000298023,8|0|8
384,120,56868,5,4
264,120,57243,1,0
208,120,57431,1,8
152,120,57618,1,0
96,120,57806,2,0,B|64:208|96:304,1,180.000000894069,8|2
216,296,58743,2,0,B|272:264|272:192,1,120.000000596046,2|2
128,88,59681,5,0
128,88,60056,2,0,B|184:72|264:88,1,120.000000596046,4|8
368,88,60806,2,0,B|384:144|368:224,1,120.000000596046,0|8
368,328,61556,2,0,B|312:344|232:328,1,120.000000596046,0|8
128,328,62306,2,0,B|112:272|128:192,1,120.000000596046,0|8
248,208,63056,6,0,B|304:216|320:200|368:208,1,120.000000596046,0|8
368,88,63806,1,0
248,88,64181,2,0,B|184:88,1,60.000000298023,0|4
144,200,64743,2,0,B|144:264,1,60.000000298023,4|4
256,304,65306,2,0,B|320:304,1,60.000000298023
368,304,65681,1,0
368,256,65868,6,0,B|368:128,1,120.000000596046,4|0
368,80,66431,2,0,B|440:80,2,60.000000298023,8|0|8
184,80,67368,6,0,B|184:200,1,120.000000596046,4|0
184,256,67931,2,0,B|112:256,2,60.000000298023,8|0|8
368,256,68868,6,0,B|384:200|368:128,1,120.000000596046,4|0
368,80,69431,2,0,B|312:48,1,60.000000298023,8|0
256,48,69806,2,0,B|200:80,1,60.000000298023,8|0
80,80,70368,2,0,B|64:136|80:208,1,120.000000596046,4|4
88,320,71118,2,0,B|176:352|272:320,1,180.000000894069,4|0
384,320,72056,6,0,B|448:328|496:280,2,120.000000596046,4|8|0
384,200,73181,1,8
264,200,73556,1,0
144,200,73931,2,0,B|88:208|24:200,2,120.000000596046,8|0|8
144,80,75056,5,0
256,32,75431,1,8
320,136,75806,1,0
208,184,76181,1,8
208,304,76556,6,0,B|152:328|88:304,2,120.000000596046,0|8|0
328,304,77681,1,8
328,184,78056,2,0,B|384:160|456:184,2,120.000000596046,0|8|0
208,184,79181,1,8
88,184,79556,6,0,B|80:120|88:56,1,120.000000596046,0|8
208,64,80306,2,0,B|336:64,1,120.000000596046,0|8
448,64,81056,6,0,B|464:120|448:200,1,120.000000596046,0|8
448,304,81806,2,0,B|392:320|312:304,1,120.000000596046,0|8
200,304,82591,2,0,B|184:248|200:168,1,120.000000596046,4|8
200,56,83369,2,0,B|256:40|336:56,1,120.000000596046,0|8
256,192,84112,12,4,85947
