osu file format v9

[General]
AudioFilename: Nanairo Kouro.mp3
AudioLeadIn: 1000
PreviewTime: 53122
Countdown: 0
SampleSet: Normal
StackLeniency: 0.7
Mode: 0
LetterboxInBreaks: 1

[Editor]
Bookmarks: 1570,12070,16007,22570,28007,34570
DistanceSpacing: 1.2
BeatDivisor: 4
GridSize: 8

[Metadata]
Title:Nanairo no Chizu (Short Ver.)
Artist:UR@N
Creator:Hinacle
Version:KSHR
Source:Nanairo Kouro
Tags:KSHR journey KanaRin

[Difficulty]
HPDrainRate:6
CircleSize:4
OverallDifficulty:5
ApproachRate:7
SliderMultiplier:1.50000000596046
SliderTickRate:1

[Events]
//Background and Video events
Video,0,"op.flv"
0,0,"nanairo.jpg"
//Break Periods
//Storyboard Layer 0 (Background)
//Storyboard Layer 1 (Fail)
//Storyboard Layer 2 (Pass)
//Storyboard Layer 3 (Foreground)
//Storyboard Sound Samples
//Background Colour Transformations
3,100,163,162,255

[TimingPoints]
1556,375,4,1,2,55,1,0
2118,-100,4,1,1,60,0,0
2962,-100,4,1,2,55,0,0
3149,-100,4,1,1,60,0,0
4462,-100,4,1,2,55,0,0
4649,-100,4,1,1,60,0,0
5212,-100,4,1,2,55,0,0
5399,-100,4,1,1,60,0,0
15899,-100,4,1,1,50,0,0
34462,-100,4,1,1,60,0,0
34649,-100,4,1,1,55,0,0
40181,-133.333333333333,4,1,1,40,0,0
45899,-100,4,1,1,50,0,0
46509,-100,4,1,1,55,0,0
48056,-100,4,1,1,60,0,0
48149,-100,4,1,1,55,0,0
49462,-100,4,1,1,65,0,0
49649,-100,4,1,1,60,0,0
50212,-100,4,1,1,70,0,0
50399,-100,4,1,1,60,0,0
52368,-100,4,1,1,45,0,0
52649,-100,4,1,1,40,0,0
53868,-100,4,1,2,55,0,1
53962,-100,4,1,1,70,0,1
58274,-100,4,1,1,55,0,1
58462,-100,4,1,1,65,0,1
59774,-100,4,1,1,60,0,1
64649,-100,4,1,1,55,0,1
65024,-100,4,1,1,60,0,1
65774,-100,4,1,2,60,0,1
65962,-100,4,1,1,65,0,1
67274,-100,4,1,2,60,0,1
67462,-100,4,1,1,65,0,1
68774,-100,4,1,2,60,0,1
68962,-100,4,1,1,65,0,1
71024,-100,4,1,1,70,0,1
71399,-100,4,1,1,65,0,1
77212,-100,4,1,1,50,0,1
77681,-100,4,1,1,60,0,1
77962,-100,4,1,1,50,0,1
78431,-100,4,1,1,60,0,1
80306,-100,4,1,1,45,0,1
80774,-133.333333333333,4,1,1,45,0,1
81056,-133.333333333333,4,1,1,45,0,0
82591,375,4,1,1,50,1,0
82591,-133.333333333333,4,1,1,50,0,0
82966,-133.333333333333,4,1,1,40,0,0
83369,375,4,1,1,50,1,0
83369,-133.333333333333,4,1,1,50,0,0
83744,-133.333333333333,4,1,1,35,0,0
84112,375,4,1,2,40,1,0
85402,545.454545454546,4,1,1,40,1,0
85947,-100,4,1,1,40,0,0

[Colours]
Combo1 : 200,220,251
Combo2 : 128,255,255
Combo3 : 34,155,221
Combo4 : 255,255,255

[HitObjects]
384,272,1556,1,4
384,272,2306,6,0,B|424:264|464:272,2,75.000000298023
304,328,2868,1,0
224,272,3056,2,0,B|184:200|224:128,1,150.000000596046,4|0
96,64,3618,2,0,B|136:136|96:208,1,150.000000596046
0,200,4181,2,0,B|0:248|32:280,1,75.000000298023
96,336,4556,6,0,B|144:320|200:352|248:336,1,150.000000596046,4|0
432,208,5306,2,0,B|384:192|328:224|280:208,1,150.000000596046,4|0
96,80,6056,1,0
96,80,6243,2,0,B|128:48|200:48|240:80,2,150.000000596046,8|8|0
40,160,7181,1,8
40,160,7274,1,0
40,160,7368,1,0
104,232,7556,6,0,B|136:200|136:168,1,75.000000298023,4|0
232,136,7931,1,8
320,176,8118,2,0,B|352:136|432:144|464:184,1,150.000000596046
504,264,8681,1,8
440,336,8868,2,0,B|408:376|328:368|296:328,1,150.000000596046
240,264,9431,2,0,B|208:288|208:336,1,75.000000298023,8|0
120,360,9806,2,0,B|80:296|112:216,1,150.000000596046,0|8
296,64,10556,6,0,B|248:128|160:104,1,150.000000596046,0|8
88,40,11118,1,0
48,128,11306,2,0,B|32:216|104:264,1,150.000000596046,0|8
336,296,12056,6,0,B|376:280|432:304,2,75.000000298023,0|0|8
256,352,12618,1,0
192,280,12806,2,0,B|176:240|200:184,1,75.000000298023,0|0
280,168,13181,2,0,B|296:208|272:264,1,75.000000298023,8|0
192,280,13556,5,0
96,264,13743,2,0,B|56:248|24:264,2,75.000000298023,0|8|0
56,352,14306,2,0,B|96:368|128:352,1,75.000000298023
192,280,14681,2,0,B|232:264|288:288,1,75.000000298023,8|0
328,352,15056,5,4
488,192,15431,1,4
328,32,15806,1,4
256,96,15993,6,0,B|248:136|272:168,1,75.000000298023
352,112,16368,2,0,B|280:80|192:104,1,150.000000596046,4|0
136,168,16931,1,8
40,168,17118,1,0
104,96,17306,2,0,B|160:160|120:248,1,150.000000596046,0|8
32,272,17868,2,0,B|112:248|176:296,1,150.000000596046,2|2
248,360,18431,1,8
344,344,18618,2,0,B|376:320|384:280,1,75.000000298023,0|2
440,200,18993,6,0,B|408:176|368:184,1,75.000000298023,0|8
296,248,19368,2,0,B|216:232|200:144,1,150.000000596046
104,128,19931,2,0,B|112:88|144:64,1,75.000000298023,8|0
240,48,20306,2,0,B|312:88|384:48,1,150.000000596046,0|8
464,104,20868,2,0,B|472:144|448:176,1,75.000000298023,2|0
312,216,21243,2,0,B|304:176|328:144,1,75.000000298023,2|8
408,264,21618,2,0,B|416:304|392:336,2,75.000000298023,0|2|0
408,264,22181,1,10
176,320,22556,5,0
40,120,22931,2,0,B|24:80|40:48,2,75.000000298023,8|0|0
40,120,23493,1,8
264,208,23868,6,0,B|296:184|312:152,2,75.000000298023
208,128,24431,1,8
152,208,24618,2,0,B|168:296|240:320,1,150.000000596046
328,272,25181,2,0,B|360:248|400:256,1,75.000000298023,8|0
376,352,25556,6,0,B|312:296|320:208,1,150.000000596046,0|8
352,128,26118,1,0
448,144,26306,2,0,B|440:184|408:208,1,75.000000298023
352,128,26681,2,0,B|272:88|208:136,2,150.000000596046,8|0|8
112,104,27806,5,0
56,184,27993,2,0,B|64:224|96:248,1,75.000000298023,0|8
48,336,28368,2,0,B|112:280|192:304,1,150.000000596046,4|0
272,248,28931,1,8
344,312,29118,1,0
440,296,29306,2,0,B|480:224|440:144,1,150.000000596046,0|8
464,56,29868,2,0,B|416:128|328:104,1,150.000000596046,2|2
248,56,30431,1,8
160,104,30618,2,0,B|128:88|80:96,1,75.000000298023,0|2
40,184,30993,6,0,B|72:200|120:192,1,75.000000298023,0|8
184,264,31368,2,0,B|232:200|320:208,1,150.000000596046
400,256,31931,1,8
488,216,32118,2,0,B|512:184|512:136,2,75.000000298023
400,256,32681,2,0,B|368:280|368:328,1,75.000000298023,8|0
440,384,33056,2,2,B|384:328|296:344,1,150.000000596046,2|8
256,256,33618,2,2,B|224:328|128:336,1,150.000000596046,2|0
120,336,34087,1,0
104,336,34181,1,8
32,112,34556,6,0,B|48:80|88:64,2,75.000000298023,4|0|8
120,160,35118,2,0,B|200:144|224:64,1,150.000000596046,0|0
320,32,35681,1,8
408,72,35868,2,0,B|448:64,2,37.5000001490115
344,144,36243,2,0,B|360:184|408:200,1,75.000000298023,0|8
488,224,36618,2,0,B|400:232|368:304,1,150.000000596046,0|0
280,344,37181,1,8
184,328,37368,6,0,B|144:312|128:272,1,75.000000298023
40,312,37743,2,0,B|104:256|80:176,1,150.000000596046
16,104,38306,1,0
112,40,38493,1,0
168,144,38681,1,8
264,80,38868,1,0
256,192,39056,12,0,40181
176,64,40556,6,0,B|120:88|64:64,2,112.499997094273,4|10|0
256,120,41493,2,0,B|312:96|368:120,1,112.499997094273,2|0
464,128,42056,2,0,B|464:160|440:184,1,56.2499985471367,2|0
352,216,42431,1,2
416,288,42618,1,0
328,328,42806,2,0,B|272:352|216:328,1,112.499997094273,2|0
152,136,43556,6,0,B|216:128|240:72,2,112.499997094273,0|10|0
72,80,44493,2,0,B|24:120|40:184,1,112.499997094273,2|0
48,200,44962,1,0
56,216,45056,1,2
40,312,45243,1,0
136,296,45431,2,0,B|168:280|184:256,2,56.2499985471367,10|0|2
360,352,46181,5,0
384,356,46274,1,0
408,360,46368,1,0
432,364,46462,1,0
456,368,46556,6,0,B|488:344|496:296,1,75.000000298023,4|0
392,208,46931,2,0,B|360:232|352:280,1,75.000000298023,8|0
480,208,47306,2,0,B|488:128|416:80,1,150.000000596046,0|8
328,40,47868,2,0,B|280:32,2,37.5000001490115,0|4|0
336,136,48243,1,0
256,192,48431,2,0,B|168:208|120:144,1,150.000000596046,8|0
80,56,48993,5,0
16,128,49181,2,0,B|0:168|16:208,1,75.000000298023,8|0
0,296,49556,2,0,B|64:248|152:280,1,150.000000596046,4|8
224,336,50118,1,0
312,288,50306,2,0,B|336:328|384:336,1,75.000000298023,4|0
456,280,50681,1,8
456,280,50868,1,0
256,192,51056,12,0,52368
144,208,52743,5,0
144,304,52931,1,0
368,176,53306,5,0
368,176,53494,1,0
368,80,53681,1,0
368,80,53868,6,2,B|296:40|224:80,1,150.000000596046,6|2
144,24,54431,2,0,B|128:64|88:80,1,75.000000298023,8|0
0,56,54806,2,0,B|24:144|104:176,1,150.000000596046,2|8
56,264,55368,2,2,B|104:200|192:208,1,150.000000596046,2|0
256,280,55931,1,10
344,240,56118,1,0
440,264,56306,2,0,B|376:216|400:128,1,150.000000596046,2|8
464,56,56868,6,0,B|416:112|328:104,1,150.000000596046,2|2
256,40,57431,1,10
216,128,57618,1,0
272,208,57806,2,0,B|304:240|344:240,2,75.000000298023,2|2|8
184,248,58368,2,0,B|128:184|48:200,1,150.000000596046,2|2
8,288,58931,1,8
88,344,59118,2,2,B|160:384|232:344,1,150.000000596046,2|0
288,264,59681,1,8
384,280,59868,6,0,B|424:264|472:280,1,75.000000298023,0|0
408,360,60243,2,0,B|360:296|400:216,1,150.000000596046,8|0
480,160,60806,1,0
416,88,60993,2,0,B|368:160|272:128,1,150.000000596046,8|0
208,72,61556,6,0,B|200:112|168:136,1,75.000000298023,0|0
96,72,61931,1,8
40,152,62118,2,0,B|72:224|160:240,1,150.000000596046,0|0
224,312,62681,2,0,B|256:280|256:240,1,75.000000298023,8|0
208,160,63056,2,0,B|272:120|352:136,1,150.000000596046,0|8
432,192,63618,1,0
408,288,63806,2,0,B|432:320|472:336,2,75.000000298023,0|0|8
312,264,64368,2,0,B|272:336|184:320,1,150.000000596046,0|4
184,320,64931,1,8
256,88,65306,6,0,B|296:64|336:64,2,75.000000298023
200,168,65868,2,0,B|184:80|96:64,1,150.000000596046,6|0
16,112,66431,1,10
24,208,66618,1,0
96,272,66806,2,0,B|160:320|240:280,1,150.000000596046,2|8
296,200,67368,6,0,B|336:224|344:272,1,75.000000298023,2|0
424,312,67743,1,0
472,224,67931,2,0,B|432:200|424:152,1,75.000000298023,2|0
456,72,68306,2,0,B|376:48|320:112,1,150.000000596046,2|0
256,40,68868,6,0,B|200:103|120:79,1,150.000000596046,2|2
48,16,69431,1,8
24,112,69618,2,0,B|24:152|48:192,2,75.000000298023,0|2|2
256,192,70368,6,0,B|328:224,1,75.000000298023,2|0
368,352,70743,2,0,B|296:320,1,75.000000298023,2|0
424,264,71118,2,2,B|472:200|440:120,1,150.000000596046,2|0
360,64,71681,1,0
336,56,71774,1,0
312,56,71868,1,0
232,112,72056,6,0,B|240:160|264:184,1,75.000000298023,4|0
336,240,72431,1,8
264,304,72618,2,0,B|176:288|120:344,1,150.000000596046,0|0
40,288,73181,1,8
104,216,73368,2,0,B|152:200,2,37.5000001490115
24,160,73743,1,0
72,72,73931,1,8
152,128,74118,2,0,B|232:160|296:112,1,150.000000596046,0|0
352,32,74681,1,8
416,104,74868,6,0,B|384:128|376:168,2,75.000000298023,0|0|0
480,184,75431,2,0,B|472:224|432:248,1,75.000000298023,8|0
432,272,75712,2,0,B|376:248|320:264,1,112.500000447034,0|0
248,328,76181,1,8
152,320,76368,6,0,B|112:312|88:280,1,75.000000298023,0|0
8,336,76743,2,0,B|80:288|64:200,1,150.000000596046,0|0
8,128,77306,2,0,B|72:184|152:160,1,150.000000596046,0|0
368,64,78056,2,0,B|304:8|224:32,1,150.000000596046,0|0
256,192,78618,12,0,80306
72,136,80868,6,0,B|128:160|184:136,1,112.499997094273,0|0
256,72,81431,2,0,B|288:80|312:112,1,56.2499985471367,0|0
336,104,81712,2,0,B|304:144|320:192,1,84.374997820705,0|0
392,248,82181,1,0
312,304,82368,1,0
216,288,82591,6,0,B|192:240|128:224,1,112.499997094273,0|0
296,96,83369,2,0,B|320:144|384:160,1,112.499997094273,0|0
256,192,84112,12,4,85947
