osu file format v9

[General]
AudioFilename: Nanairo Kouro.mp3
AudioLeadIn: 1000
PreviewTime: 53122
Countdown: 0
SampleSet: Normal
StackLeniency: 0.7
Mode: 0
LetterboxInBreaks: 1

[Editor]
DistanceSpacing: 1
BeatDivisor: 4
GridSize: 4

[Metadata]
Title:Nanairo no Chizu (Short Ver.)
Artist:UR@N
Creator:Hinacle
Version:Insane
Source:Nanairo Kouro
Tags:KSHR journey KanaRin

[Difficulty]
HPDrainRate:7
CircleSize:4
OverallDifficulty:7
ApproachRate:8
SliderMultiplier:1.80000000596046
SliderTickRate:1

[Events]
//Background and Video events
Video,0,"op.flv"
0,0,"nanairo.jpg"
//Break Periods
//Storyboard Layer 0 (Background)
//Storyboard Layer 1 (Fail)
//Storyboard Layer 2 (Pass)
//Storyboard Layer 3 (Foreground)
//Storyboard Sound Samples
//Background Colour Transformations
3,100,163,162,255

[TimingPoints]
1556,375,4,1,1,50,1,0
16274,-100,4,1,2,45,0,0
16462,-100,4,1,1,50,0,0
22462,-100,4,1,2,45,0,0
22649,-100,4,1,1,50,0,0
28462,-100,4,1,2,45,0,0
28649,-100,4,1,1,50,0,0
38962,-100,4,1,1,0,0,0
40274,-133.333333333333,4,1,1,50,0,0
46462,-100,4,1,2,45,0,0
46649,-100,4,1,1,50,0,0
47962,-100,4,1,2,45,0,0
48149,-100,4,1,1,50,0,0
49462,-100,4,1,2,45,0,0
49649,-100,4,1,1,50,0,0
52462,-100,4,1,1,40,0,0
53399,-100,4,1,1,50,0,0
53774,-100,4,1,2,60,0,0
53868,-100,4,1,2,60,0,1
53962,-100,4,1,1,60,0,1
59962,-100,4,1,2,60,0,1
60149,-100,4,1,1,60,0,1
60712,-100,4,1,2,60,0,1
60899,-100,4,1,1,60,0,1
65962,-100,4,1,2,60,0,1
66149,-100,4,1,1,60,0,1
81056,-100,4,1,1,50,0,0
81712,-100,4,1,1,40,0,0
82507,-100,4,1,1,35,0,0
82591,375,4,1,1,35,1,0
83369,375,4,1,1,30,1,0
84112,375,4,1,1,0,1,0
85402,545.454545454546,4,1,1,0,1,0
85947,-100,4,1,1,40,0,0

[Colours]
Combo1 : 200,220,251
Combo2 : 128,255,255
Combo3 : 34,155,221
Combo4 : 255,255,255

[HitObjects]
104,72,1556,2,0,B|184:0|272:64,1,180.000000596046,4|8
336,120,2118,1,0
392,192,2306,2,0,B|432:216|480:200,1,90.000000298023
376,312,2681,2,0,B|336:288|288:304,1,90.000000298023,8|0
200,312,3056,2,0,B|128:240|184:144,1,180.000000596046,4|8
32,88,3618,2,0,B|104:160|48:256,1,180.000000596046,0|0
32,344,4181,5,8
32,344,4274,1,0
32,344,4368,1,0
32,344,4462,1,0
32,344,4556,2,0,B|72:368|128:352,1,90.000000298023,4|0
144,224,4931,2,0,B|184:200|240:216,1,90.000000298023,8|0
344,328,5306,2,0,B|304:352|248:336,2,90.000000298023,4|0|8
432,304,5868,1,0
472,224,6056,6,0,B|424:136|504:136|472:48,1,180.000000596046,4|8
392,88,6618,1,0
312,128,6806,2,0,B|240:192|136:144,1,180.000000596046,0|8
56,128,7368,5,0
56,128,7462,1,0
56,128,7556,2,0,B|32:176|48:216,1,90.000000298023,4|0
96,328,7931,1,8
212,288,8118,2,0,B|292:224|380:280,1,180.000000596046,0|0
456,224,8681,5,8
456,200,8774,1,0
456,176,8868,1,0
456,152,8962,1,0
456,128,9056,2,0,B|456:32,1,90.000000298023,4|0
368,24,9431,1,8
288,72,9618,2,0,B|248:88|200:76,1,90.000000298023
120,32,9993,1,0
72,104,10181,2,0,B|8:184|72:272,1,180.000000596046,8|4
136,336,10743,6,0,B|176:360|224:344,1,90.000000298023,0|8
312,312,11118,1,0
312,312,11306,1,0
280,224,11493,1,0
280,224,11681,2,0,B|256:184|272:136,1,90.000000298023,8|0
288,48,12056,6,0,B|328:24|376:40,2,90.000000298023,0|0|8
176,120,12618,2,0,B|136:144|88:128,2,90.000000298023,0|0|0
288,192,13181,2,0,B|328:216|376:200,1,90.000000298023,8|0
464,184,13556,5,0
464,184,13743,1,0
448,304,13931,1,8
448,304,14118,1,0
328,296,14306,5,0
288,192,14493,1,0
232,288,14681,1,8
192,184,14868,1,0
136,280,15056,6,0,B|96:304|48:288,1,90.000000298023,4|0
144,120,15431,2,0,B|184:96|232:112,1,90.000000298023,8|0
320,124,15806,1,0
404,156,15993,2,0,B|428:196|432:244,1,90.000000298023,0|8
396,324,16368,6,0,B|324:380|224:336,1,180.000000596046,4|0
152,284,16931,2,0,B|64:244,2,90.000000298023,8|0|0
240,260,17493,1,0
240,260,17587,1,0
240,260,17681,1,8
328,232,17868,2,0,B|400:152|336:64,1,180.000000596046,0|0
256,32,18431,1,8
168,56,18618,2,0,B|80:64,2,90.000000298023
232,120,19181,1,8
296,184,19368,5,0
296,184,19462,1,0
296,184,19556,2,0,B|384:176,1,90.000000298023,0|0
320,320,19931,2,0,B|232:328,1,90.000000298023,8|0
80,232,20306,2,0,B|168:224,1,90.000000298023
296,184,20681,1,8
296,184,20868,2,0,B|376:248|464:192,1,180.000000596046,0|0
280,56,21431,2,0,B|200:120|112:64,1,180.000000596046,8|0
48,184,21993,2,0,B|24:232|48:272,1,90.000000298023,0|8
128,232,22368,5,0
128,232,22462,1,0
128,232,22556,1,4
216,224,22743,1,0
256,144,22931,1,8
216,64,23118,1,0
128,56,23306,2,0,B|40:88,1,90.000000298023,2|2
256,336,23868,6,0,B|344:304,1,90.000000298023,0|0
456,240,24243,2,0,B|368:208,1,90.000000298023,0|8
256,144,24618,2,0,B|344:112,1,90.000000298023,0|0
424,80,24993,1,0
456,240,25181,5,8
456,240,25274,1,0
456,240,25368,1,0
456,240,25462,1,0
456,240,25556,2,0,B|424:272|368:256,1,90.000000298023
280,240,25931,2,0,B|248:272|264:328,1,90.000000298023,10|0
232,152,26306,2,0,B|264:120|248:64,1,90.000000298023
56,152,26681,2,0,B|88:120|144:136,1,90.000000298023,10|0
280,240,27056,6,0,B|248:272|192:256,2,90.000000298023,2|0|2
368,208,27618,1,0
376,180,27712,1,0
380,152,27806,1,0
376,124,27899,1,0
368,100,27993,2,0,B|324:80|276:96,1,90.000000298023,0|8
192,128,28368,5,0
192,128,28462,1,0
192,128,28556,2,0,B|152:152|96:136,1,90.000000298023,4|0
56,264,28931,2,0,B|96:240|152:256,1,90.000000298023,8|0
208,312,29306,1,0
296,224,29493,1,0
352,336,29681,1,8
432,240,29868,6,0,B|509:176|435:146|497:76,1,180.000000596046,0|0
380,68,30431,2,0,B|372:20,2,45.0000001490115,8|0|0
272,108,30806,2,0,B|280:156,2,45.0000001490115
160,72,31181,5,8
160,72,31274,1,0
160,72,31368,1,0
160,72,31461,1,0
160,72,31555,2,0,B|120:104|72:88,1,90.000000298023,2|0
40,176,31931,1,8
96,248,32118,2,0,B|120:288|104:336,1,90.000000298023,0|2
248,280,32493,2,0,B|224:240|240:192,1,90.000000298023,0|8
264,104,32868,1,0
352,80,33056,5,2
352,80,33431,1,8
408,152,33618,2,0,B|472:232|416:328,1,180.000000596046,2|0
328,328,34181,5,8
304,328,34274,1,0
280,328,34368,1,0
256,328,34462,1,0
232,328,34556,2,0,B|184:344|136:328,1,90.000000298023,4|0
64,288,34931,1,8
40,200,35118,2,0,B|16:160|40:112,1,90.000000298023
168,48,35493,2,0,B|192:88|168:136,1,90.000000298023,0|8
160,224,35868,5,0
160,224,35962,1,0
160,224,36056,2,0,B|136:264|160:312,1,90.000000298023,4|0
248,296,36431,1,8
336,320,36618,2,0,B|424:384|504:320,1,180.000000596046,2|0
420,252,37181,5,8
420,252,37274,1,0
420,252,37368,1,0
420,252,37462,1,0
420,252,37556,2,0,B|320:224,1,90.000000298023,4|0
256,132,37931,2,0,B|256:84,2,45.0000001490115,8|0|0
180,228,38306,5,4
180,228,38399,1,0
180,228,38493,1,0
180,228,38587,1,0
180,228,38681,2,0,B|80:256,1,90.000000298023,8|4
256,192,38962,12,0,40181
160,128,40556,6,0,B|112:192|152:264,1,134.999996423721,4|8
192,320,41118,1,0
272,304,41306,2,0,B|360:304,1,67.4999982118605,2|2
464,184,41868,5,0
414,107,42056,1,2
352,174,42243,1,0
302,97,42431,1,8
240,164,42618,1,0
191,87,42806,2,0,B|130:41|63:75,1,134.999996423721,2|8
48,280,43556,6,0,B|108:325|175:291,1,134.999996423721,4|8
252,268,44118,2,0,B|284:252|324:268,2,67.4999982118605,0|2|2
356,124,44868,6,0,B|384:104,2,33.7499991059303,0|0|2
280,96,45243,1,0
200,120,45431,2,0,B|176:140|136:144,1,67.4999982118605,8|0
56,144,45806,1,2
56,144,46181,1,8
40,232,46368,5,0
40,232,46462,1,0
40,232,46556,2,0,B|16:272|32:320,1,90.000000298023,4|0
120,336,46931,2,0,B|168:360|216:328,1,90.000000298023,8|0
296,312,47306,2,0,B|360:240|304:144,1,180.000000596046,0|8
272,64,47868,5,0
272,64,47962,1,0
272,64,48056,1,4
176,112,48243,1,0
72,80,48431,1,8
212,312,48806,5,0
256,176,48993,1,0
300,312,49181,1,8
188,232,49368,1,0
324,232,49556,6,0,B|416:232,1,90.000000298023,4|0
504,120,49931,2,0,B|412:120,1,90.000000298023,8|0
320,120,50306,1,0
192,144,50493,1,0
280,248,50681,1,8
280,248,50774,1,0
280,248,50868,1,0
240,328,51056,6,0,B|200:352|152:336,1,90.000000298023
96,264,51431,1,8
96,264,51524,1,0
96,264,51618,1,0
120,176,51806,2,0,B|144:136|128:88,1,90.000000298023
48,48,52181,1,8
48,48,52274,1,0
48,48,52368,1,0
120,176,52556,6,0,B|160:200|208:184,1,90.000000298023
304,64,52931,2,0,B|264:40|216:56,1,90.000000298023
304,184,53306,1,0
400,200,53493,1,0
408,228,53587,1,0
412,256,53681,1,0
408,284,53774,1,0
400,312,53868,6,0,B|328:376|232:336,1,180.000000596046,4|0
48,192,54431,2,0,B|120:256|216:216,1,180.000000596046,8|0
320,96,54993,2,0,B|280:72|232:88,1,90.000000298023,0|8
144,104,55368,5,2
144,104,55462,1,0
144,104,55556,2,0,B|120:144|136:192,1,90.000000298023,0|2
152,280,55931,1,8
232,320,56118,1,2
320,304,56306,6,0,B|400:232|488:296,1,180.000000596046,2|8
392,160,56868,2,0,B|312:232|224:168,1,180.000000596046,2|2
152,120,57431,1,8
64,152,57618,2,0,B|40:192|56:240,1,90.000000298023,0|2
192,320,57993,2,0,B|216:280|200:232,2,90.000000298023,2|8|2
280,344,58556,2,0,B|320:368|368:352,2,90.000000298023,0|2|8
296,256,59118,2,0,B|328:168|288:160|320:72,1,180.000000596046,2|0
408,56,59681,1,8
448,136,59868,5,0
448,136,59962,1,0
448,136,60056,2,0,B|464:184|448:224,1,90.000000298023,4|0
384,312,60431,1,8
280,336,60618,1,0
280,336,60712,1,0
280,336,60806,2,0,B|232:352|192:336,1,90.000000298023,4|0
96,288,61181,1,8
144,192,61368,5,0
144,192,61462,1,0
144,192,61556,2,0,B|168:152|152:96,1,90.000000298023
256,80,61931,2,0,B|296:104|352:88,1,90.000000298023,8|0
368,192,62306,2,0,B|344:232|360:288,1,90.000000298023
256,304,62681,2,0,B|216:280|160:296,1,90.000000298023,8|0
80,304,63056,6,0,B|16:224|72:136,1,180.000000596046,0|8
112,56,63618,2,0,B|152:32|200:40,1,90.000000298023
244,152,63993,2,0,B|284:176|332:168,1,90.000000298023,0|8
424,136,64368,1,0
424,136,64462,1,0
424,136,64556,1,0
440,224,64743,5,4
368,328,64931,1,4
368,328,65306,5,4
256,248,65493,1,0
144,328,65681,1,8
256,248,65868,5,2
256,248,65962,1,0
256,248,66056,2,0,B|264:200|248:200|256:152,1,90.000000298023,4|2
256,72,66431,1,8
168,48,66618,1,0
88,88,66806,2,0,B|24:168|80:256,1,180.000000596046,2|8
168,336,67368,2,0,B|256:368|256:304|344:336,1,180.000000596046,2|2
440,256,67931,2,0,B|464:216|440:160,2,90.000000298023,8|0|2
360,208,68493,5,0
360,208,68587,1,0
360,208,68681,1,8
272,184,68868,2,0,B|224:168|184:184,1,90.000000298023,2|0
96,208,69243,1,2
64,296,69431,1,8
152,328,69618,1,0
184,240,69806,1,2
96,208,69993,6,0,B|32:128|88:40,1,180.000000596046,2|2
176,48,70556,1,0
288,32,70743,1,2
232,136,70931,1,8
344,120,71118,1,2
384,200,71306,6,0,B|400:248|384:288,1,90.000000298023,0|0
256,344,71681,2,0,B|240:296|256:256,1,90.000000298023,8|0
272,168,72056,5,4
256,80,72243,2,0,B|216:56|168:72,1,90.000000298023,0|8
80,88,72618,2,0,B|8:160|48:256,1,180.000000596046,2|0
112,344,73181,1,8
216,304,73368,2,0,B|304:256|392:304,1,180.000000596046,2|0
464,200,73931,2,0,B|424:224|376:200,2,90.000000298023,8|0|0
440,112,74493,1,0
360,64,74681,1,8
272,88,74868,6,0,B|240:56,2,45.0000001490115
224,168,75243,1,0
168,240,75431,1,8
142,248,75524,1,0
115,252,75618,1,0
87,252,75712,1,0
60,248,75806,2,0,B|-4:174|44:78,1,180.000000596046,0|8
147,55,76368,5,0
147,55,76462,1,0
147,55,76556,2,0,B|187:79|235:63,1,90.000000298023,4|0
360,160,76931,2,0,B|320:184|272:168,1,90.000000298023,8|0
160,272,77306,2,0,B|200:296|248:280,1,90.000000298023
336,272,77681,1,8
424,264,77868,5,0
424,264,77962,1,0
424,264,78056,2,0,B|496:184|432:96,1,180.000000596046,4|8
368,40,78618,1,0
280,32,78806,1,0
224,104,78993,1,0
256,184,79181,2,0,B|296:272|216:272|256:360,1,180.000000596046,8|4
340,320,79743,5,0
432,304,79931,2,0,B|456:264|440:216,1,90.000000298023,8|0
348,136,80306,2,0,B|324:176|340:224,2,90.000000298023,0|0|8
368,44,80868,5,0
368,44,80962,1,0
368,44,81056,2,0,B|328:20|272:36,1,90.000000298023,4|0
192,44,81431,1,8
136,116,81618,1,0
184,196,81806,2,0,B|200:244|184:284,1,90.000000298023,0|0
304,348,82181,2,0,B|288:300|304:260,1,90.000000298023,8|0
316,152,82591,6,0,B|388:80|492:136,1,180.000000596046,2|8
196,232,83369,2,0,B|124:304|20:248,1,180.000000596046,2|8
256,192,84112,12,4,85947
