osu file format v9

[General]
AudioFilename: Nanairo Kouro.mp3
AudioLeadIn: 1000
PreviewTime: 53122
Countdown: 0
SampleSet: Normal
StackLeniency: 0.7
Mode: 0
LetterboxInBreaks: 1

[Editor]
DistanceSpacing: 1
BeatDivisor: 4
GridSize: 8

[Metadata]
Title:Nanairo no Chizu (Short Ver.)
Artist:UR@N
Creator:Hinacle
Version:Easy
Source:Nanairo Kouro
Tags:KSHR journey KanaRin

[Difficulty]
HPDrainRate:2
CircleSize:3
OverallDifficulty:2
ApproachRate:2
SliderMultiplier:0.800000005960464
SliderTickRate:1

[Events]
//Background and Video events
Video,0,"op.flv"
0,0,"nanairo.jpg"
//Break Periods
//Storyboard Layer 0 (Background)
//Storyboard Layer 1 (Fail)
//Storyboard Layer 2 (Pass)
//Storyboard Layer 3 (Foreground)
//Storyboard Sound Samples
//Background Colour Transformations
3,100,163,162,255

[TimingPoints]
1556,375,4,1,1,45,1,0
16462,-100,4,1,2,45,0,0
16649,-100,4,1,1,50,0,0
22462,-100,4,1,2,45,0,0
22649,-100,4,1,1,50,0,0
28462,-100,4,1,2,45,0,0
28649,-100,4,1,1,50,0,0
40462,-100,4,1,2,45,0,0
40649,-100,4,1,1,50,0,0
43462,-100,4,1,2,45,0,0
43649,-100,4,1,1,50,0,0
46462,-100,4,1,2,45,0,0
46649,-100,4,1,1,50,0,0
49462,-100,4,1,2,45,0,0
49649,-100,4,1,1,50,0,0
50962,-100,4,1,1,20,0,0
53774,-100,4,1,2,45,0,0
53868,-100,4,1,2,55,0,1
53962,-100,4,1,1,60,0,1
64274,-100,4,1,2,55,0,1
64462,-100,4,1,1,60,0,1
65774,-100,4,1,2,55,0,1
65962,-100,4,1,1,60,0,1
80868,-100,4,1,1,60,0,1
81056,-100,4,1,1,50,0,0
82591,375,4,1,1,35,1,0
83369,375,4,1,1,35,1,0
84112,375,4,1,1,0,1,0
85402,545.454545454546,4,1,1,0,1,0
85947,-100,4,1,1,40,0,0

[Colours]
Combo1 : 200,220,251
Combo2 : 128,255,255
Combo3 : 34,155,221
Combo4 : 255,255,255

[HitObjects]
80,72,1556,2,0,B|240:72,1,160.000001192093,4|8
400,72,3056,2,0,B|400:240,1,160.000001192093,4|8
240,232,4556,5,4
80,232,5306,1,8
80,72,6056,1,4
248,72,6806,1,8
400,72,7556,6,0,B|440:144|400:240,1,160.000001192093,0|8
248,232,9056,2,0,B|176:272|80:232,1,160.000001192093,0|8
96,80,10556,6,0,B|208:32|336:80,1,240.000001788139,0|8
408,80,12056,2,0,B|456:192|408:320,1,240.000001788139,0|8
328,320,13556,6,0,B|216:368|88:320,1,240.000001788139,0|8
88,240,15056,2,0,B|88:160,1,80.0000005960464,0|8
88,80,15806,2,0,B|168:80,1,80.0000005960464,0|8
248,80,16556,5,4
408,80,17306,1,8
408,240,18056,1,0
280,336,18806,1,8
128,280,19556,6,0,B|104:208|120:120,1,160.000001192093,0|8
280,120,21056,2,0,B|360:104|448:120,1,160.000001192093,0|8
440,280,22556,5,4
288,328,23306,1,8
192,200,24056,1,0
344,152,24806,1,8
440,280,25556,5,0
288,328,26306,1,8
136,280,27056,2,0,B|80:208|136:128,1,160.000001192093,0|8
288,112,28556,5,4
416,208,29306,1,8
288,304,30056,1,0
160,208,30806,1,8
160,48,31556,6,0,B|240:32|328:48,3,160.000001192093,0|8|0|8
320,208,34556,6,0,B|384:208|472:280|384:344|312:344,1,240.000001788139,4|8
240,344,36056,2,0,B|176:344|88:280|176:208|248:208,1,240.000001788139,4|8
320,208,37556,5,4
320,368,38306,1,8
160,368,39056,2,0,B|96:368|8:296|96:232|168:232,1,240.000001788139,0|8
240,232,40556,5,4
240,72,41306,1,8
104,160,42056,1,0
104,320,42806,1,8
264,320,43556,6,0,B|424:320,1,160.000001192093,4|8
424,160,45056,2,0,B|264:160,1,160.000001192093,0|8
104,160,46556,5,4
104,320,47306,1,8
264,320,48056,1,0
424,320,48806,1,8
424,160,49556,1,4
264,160,50306,1,8
256,192,51056,12,0,53306
104,80,53868,6,0,B|200:56|312:80,1,200.000001490116,4|8
424,80,55368,2,0,B|448:176|424:288,1,200.000001490116,0|8
304,280,56868,2,0,B|208:304|96:280,1,200.000001490116,0|8
104,160,58368,5,0
152,96,58743,1,0
224,128,59118,1,4
424,120,60056,5,4
424,280,60806,1,8
272,328,61556,2,8,B|216:344|152:328,2,120.00000089407,2|0|2
272,256,63056,5,0
272,96,63806,1,8
392,96,64368,2,0,B|432:192|392:296,1,200.000001490116,4|8
272,296,65868,6,0,B|176:336|72:296,1,200.000001490116,4|8
80,176,67368,2,0,B|176:136|280:176,1,200.000001490116,0|8
376,240,68868,2,0,B|416:144|376:40,1,200.000001490116,0|8
256,48,70368,5,4
176,48,70743,1,0
96,48,71118,1,4
96,248,72056,6,0,B|176:280|264:248,1,160.000001192093,4|8
416,248,73556,1,0
416,88,74306,1,8
256,88,75056,6,0,B|96:88,1,160.000001192093,4|8
96,248,76556,1,0
256,248,77306,1,8
416,248,78056,5,0
416,88,78806,1,8
256,88,79556,2,0,B|176:64|96:88,1,160.000001192093,0|8
96,248,81056,6,0,B|176:272|256:248,1,160.000001192093,4|8
416,248,82591,2,0,B|416:168,1,80.0000005960464,0|8
416,80,83369,2,0,B|336:80,1,80.0000005960464,0|8
256,192,84112,12,4,85947
