osu file format v13

[General]
AudioFilename: Omega rhythm BPM240.mp3
AudioLeadIn: 0
PreviewTime: 28472
Countdown: 1
SampleSet: Normal
StackLeniency: 0.7
Mode: 0
LetterboxInBreaks: 1
WidescreenStoryboard: 1

[Editor]
Bookmarks: 48871,82855,97129
DistanceSpacing: 0.5
BeatDivisor: 4
GridSize: 4
TimelineZoom: 1.4

[Metadata]
Title:Omega Rhythm(BPM240.Ver)
TitleUnicode:Omega Rhythm(BPM240.Ver)
Artist:UPLIFT SPICE
ArtistUnicode:UPLIFT SPICE
Creator:SnowNiNo_
Version:Insane[AR9]
Source:
Tags:
BeatmapID:441191
BeatmapSetID:183075

[Difficulty]
HPDrainRate:5.5
CircleSize:4
OverallDifficulty:7
ApproachRate:9
SliderMultiplier:1.4
SliderTickRate:1

[Events]
//Background and Video events
0,0,"10295199_548922695218512_2758885364313802397_o.jpg",0,0
//Break Periods
2,46041,48271
2,99078,105275
//Storyboard Layer 0 (Background)
//Storyboard Layer 1 (Fail)
//Storyboard Layer 2 (Pass)
//Storyboard Layer 3 (Foreground)
//Storyboard Sound Samples
//Background Colour Transformations
3,100,163,162,255

[TimingPoints]
859,249.895876718034,4,1,2,60,1,0
859,-66.6666666666667,4,1,2,60,0,0
11855,-50,4,1,2,80,0,0
12855,-50,4,1,2,80,0,1
20850,-100,4,2,1,40,0,0
26849,-50,4,1,2,80,0,0
28848,-50,4,1,2,80,0,1
32846,125,4,1,2,80,1,0
32846,-50,4,1,2,80,0,1
34846,249.895876718034,4,1,2,80,1,0
34846,-50,4,1,2,80,0,0
36845,-50,4,1,2,80,0,1
40843,125,4,1,2,80,1,1
40843,-50,4,1,2,80,0,1
42843,249.895876718034,4,1,2,80,1,1
42843,-50,4,1,2,80,0,1
45841,-100,4,2,1,60,0,0
48871,249.895876718034,4,1,2,60,1,0
49902,-66.6666666666667,4,2,1,60,0,0
56774,-66.6666666666667,4,1,2,60,0,0
57774,-100,4,2,1,60,0,0
63864,-50,4,1,2,60,0,0
65489,-200,4,1,2,60,0,0
65863,249.895876718034,4,1,2,60,1,0
65863,-50,4,1,2,80,0,1
69862,125,4,1,2,60,1,0
69862,-50,4,1,2,80,0,1
72111,249.895876718034,4,1,2,60,1,0
72111,-50,4,1,2,80,0,0
72860,249.895876718034,4,1,2,80,1,0
73859,-50,4,1,2,80,0,1
77857,125,4,1,2,60,1,0
77857,-50,4,1,2,80,0,1
80107,249.895876718034,4,1,2,80,1,1
80107,-50,4,1,2,80,0,1
82855,-100,4,2,1,60,0,0
83136,249.895876718034,4,1,2,60,1,0
83885,249.895876718034,4,1,2,60,1,0
84884,-100,4,2,1,60,0,0
96879,-66.6666666666667,4,1,2,60,0,0
106875,-50,4,1,2,80,0,1
110873,125,4,1,2,80,1,1
110873,-50,4,1,2,80,0,1
112873,249.895876718034,4,1,2,80,1,1
113122,-50,4,1,2,80,0,0
114872,-50,4,1,2,80,0,1
118870,125,4,1,2,60,1,0
118870,-50,4,1,2,80,0,1
120870,249.895876718034,4,1,2,60,1,1
121119,-50,4,1,2,80,0,0

[HitObjects]
60,116,859,6,0,P|100:80|152:76,1,105.000004005432
284,80,1108,2,0,P|352:104|380:144,1,105.000004005432
48,252,1358,2,0,L|176:216,1,105.000004005432
376,248,1608,2,0,L|252:216,1,105.000004005432
104,160,1858,6,0,P|68:116|76:64,2,105.000004005432,0|0|0,0:0|0:0|0:0,0:0:0:0:
256,284,2233,1,0,0:0:0:0:
408,160,2358,2,0,P|440:112|436:64,2,105.000004005432,0|0|0,0:0|0:0|0:0,0:0:0:0:
256,284,2733,1,0,0:0:0:0:
80,96,2858,6,0,L|192:52,1,105.000004005432
124,252,3108,1,0,0:0:0:0:
148,244,3170,1,0,0:0:0:0:
168,244,3233,1,0,0:0:0:0:
452,224,3357,2,0,L|372:316,1,105.000004005432
96,320,3607,2,0,L|196:228,1,105.000004005432
256,64,3857,5,0,0:0:0:0:
480,160,3982,1,0,0:0:0:0:
288,272,4107,1,0,0:0:0:0:
288,272,4170,1,0,0:0:0:0:
288,272,4232,1,0,0:0:0:0:
256,64,4357,1,0,0:0:0:0:
32,156,4482,1,0,0:0:0:0:
216,272,4607,1,0,0:0:0:0:
216,272,4669,1,0,0:0:0:0:
216,272,4732,1,0,0:0:0:0:
408,56,4857,5,0,0:0:0:0:
192,76,4982,2,0,P|132:68|68:40,2,105.000004005432,0|0|0,0:0|0:0|0:0,0:0:0:0:
316,132,5357,1,0,0:0:0:0:
420,196,5482,1,0,0:0:0:0:
376,300,5607,2,0,P|320:336|256:328,1,105.000004005432
96,112,5856,2,0,L|96:232,2,105.000004005432,0|0|0,0:0|0:0|0:0,0:0:0:0:
340,56,6231,2,0,P|400:108|476:240,1,210.000008010865
92,328,6731,6,0,P|64:264|104:132,1,210.000008010865
284,112,7106,1,0,0:0:0:0:
72,224,7231,1,0,0:0:0:0:
272,320,7356,1,0,0:0:0:0:
300,324,7418,1,0,0:0:0:0:
328,316,7481,1,0,0:0:0:0:
448,144,7606,2,0,P|452:200|416:232,1,105.000004005432,0|0,0:0|0:0,0:0:0:0:
304,248,7856,5,0,0:0:0:0:
188,232,7981,1,0,0:0:0:0:
88,156,8105,1,0,0:0:0:0:
48,40,8230,2,0,P|120:32|260:88,1,210.000008010865
436,320,8730,6,0,P|376:336|412:220,1,210.000008010865
212,124,9105,2,0,P|224:60|164:64,1,105.000004005432
444,212,9355,2,0,P|400:176|448:132,1,105.000004005432
72,248,9605,1,0,0:0:0:0:
68,280,9667,1,0,0:0:0:0:
64,312,9730,1,0,0:0:0:0:
332,320,9855,6,0,L|408:224,2,105.000004005432,0|0|0,0:0|0:0|0:0,0:0:0:0:
112,72,10230,2,0,L|144:288,1,210.000008010865
456,100,10729,6,0,P|408:68|260:104,1,210.000008010865
152,152,11104,1,0,0:0:0:0:
192,328,11229,1,0,0:0:0:0:
80,212,11354,1,0,0:0:0:0:
260,272,11479,1,0,0:0:0:0:
100,312,11604,1,0,0:0:0:0:
240,176,11729,1,0,0:0:0:0:
428,64,11854,5,8,0:0:0:0:
420,204,11979,1,8,0:0:0:0:
296,320,12104,1,0,0:0:0:0:
260,328,12166,1,0,0:0:0:0:
224,320,12229,1,0,0:0:0:0:
88,64,12354,1,8,0:0:0:0:
104,208,12479,1,8,0:0:0:0:
224,320,12604,1,0,0:0:0:0:
260,328,12666,1,0,0:0:0:0:
296,320,12729,1,0,0:0:0:0:
96,64,12854,6,0,P|184:64|224:20,1,140
480,104,13103,2,0,P|404:84|304:120,1,140
232,128,13353,1,0,0:0:0:0:
140,204,13478,1,0,0:0:0:0:
72,112,13603,1,0,0:0:0:0:
160,48,13728,1,0,0:0:0:0:
304,60,13853,2,0,L|464:84,2,140,0|0|0,0:0|0:0|0:0,0:0:0:0:
136,320,14228,2,0,B|84:256|124:128|124:128|44:96,1,280
432,320,14728,6,0,B|360:340|216:292|216:292|168:344,1,280
80,232,15103,1,0,0:0:0:0:
268,340,15228,1,0,0:0:0:0:
400,248,15352,1,0,0:0:0:0:
412,240,15415,1,0,0:0:0:0:
432,236,15477,1,0,0:0:0:0:
396,72,15602,2,0,L|252:32,1,140
108,96,15852,1,0,0:0:0:0:
168,212,15977,2,0,L|256:336,1,140
408,184,16227,2,0,P|344:256|148:296,1,280
48,172,16727,6,0,B|72:96|72:96|140:316,1,280
432,244,17102,2,0,P|400:180|336:152,1,140
176,160,17352,1,0,0:0:0:0:
72,300,17477,1,0,0:0:0:0:
272,296,17602,2,0,L|424:280,1,140
84,144,17851,1,0,0:0:0:0:
264,48,17976,1,0,0:0:0:0:
280,40,18039,1,0,0:0:0:0:
304,32,18101,1,0,0:0:0:0:
468,300,18226,2,0,B|440:148|440:148|344:232,1,280
148,324,18726,6,0,P|84:264|104:76,1,280
268,36,19101,2,0,L|428:72,1,140
108,112,19351,2,0,L|248:148,1,140
376,192,19601,1,0,0:0:0:0:
440,288,19726,1,0,0:0:0:0:
128,248,19851,5,8,0:0:0:0:
420,144,19976,1,8,0:0:0:0:
240,120,20100,2,0,L|200:60,2,70,0|0|0,0:0|0:0|0:0,0:0:0:0:
128,248,20350,1,8,0:0:0:0:
464,152,20475,1,8,0:0:0:0:
296,256,20600,2,0,L|344:332,2,70,0|0|0,0:0|0:0|0:0,0:0:0:0:
60,116,20850,6,0,P|72:80|96:60,1,70
160,140,21100,2,0,P|196:120|224:120,1,70
240,208,21350,2,0,P|284:200|328:224,1,70
308,300,21600,2,0,P|344:320|360:352,1,70
476,248,21850,2,0,L|404:232,1,70
224,304,22100,2,0,L|148:288,1,70
48,160,22350,2,0,L|140:184,1,70
288,68,22599,2,0,L|364:88,1,70
68,196,22849,6,0,L|100:104,1,70
284,44,23099,2,0,L|268:124,1,70
456,264,23349,2,0,L|376:240,1,70
92,248,23599,2,0,L|164:272,1,70
368,196,23849,1,0,0:0:0:0:
140,180,24099,1,0,0:0:0:0:
412,172,24349,1,0,0:0:0:0:
88,204,24599,1,0,0:0:0:0:
72,96,24849,6,0,L|152:52,1,70
428,64,25098,2,0,L|364:104,1,70
128,312,25348,2,0,L|144:232,1,70
380,152,25598,2,0,L|368:232,1,70
128,64,25848,6,0,L|80:136,1,70
80,248,26098,2,0,L|128:312,1,70
352,304,26348,2,0,L|400:240,1,70
376,128,26598,2,0,L|320:56,1,70
152,56,26848,6,0,B|100:96|84:144|84:144|104:196,1,140
52,276,27223,1,8,0:0:0:0:
120,320,27347,1,8,0:0:0:0:
208,316,27472,1,8,0:0:0:0:
264,252,27597,1,8,0:0:0:0:
280,164,27722,1,8,0:0:0:0:
320,80,27847,1,8,0:0:0:0:
400,64,27972,1,8,0:0:0:0:
400,64,28035,1,8,0:0:0:0:
400,64,28097,1,8,0:0:0:0:
416,304,28222,5,8,0:0:0:0:
268,328,28472,6,0,B|196:288|196:288|112:156|112:156|68:216,1,280
72,48,28847,6,0,P|60:124|88:184,1,140,8|0,0:0|0:0,0:0:0:0:
212,100,29097,2,0,P|256:164|336:184,1,140,8|0,0:0|0:0,0:0:0:0:
400,124,29347,1,8,0:0:0:0:
120,232,29472,1,0,0:0:0:0:
296,292,29597,2,0,L|456:296,1,140,8|0,0:0|0:0,0:0:0:0:
144,164,29846,6,0,L|88:36,1,140,8|0,0:0|0:0,0:0:0:0:
260,72,30096,1,8,0:0:0:0:
380,164,30221,1,0,0:0:0:0:
248,264,30346,2,0,P|164:288|136:352,1,140,8|0,0:0|0:0,0:0:0:0:
52,212,30596,1,8,0:0:0:0:
148,80,30721,1,0,0:0:0:0:
420,64,30846,6,0,L|264:80,1,140,8|0,0:0|0:0,0:0:0:0:
64,164,31096,2,0,L|220:148,1,140,8|0,0:0|0:0,0:0:0:0:
456,164,31346,2,0,L|288:184,1,140,8|0,0:0|0:0,0:0:0:0:
76,272,31596,2,0,L|232:252,1,140,8|0,0:0|0:0,0:0:0:0:
380,164,31846,6,0,L|420:20,1,140,8|0,0:0|0:0,0:0:0:0:
128,216,32095,2,0,L|84:376,1,140,8|0,0:0|0:0,0:0:0:0:
432,164,32345,2,0,L|472:20,1,140,8|0,0:0|0:0,0:0:0:0:
88,212,32594,2,0,L|44:372,1,140,8|0,0:0|0:0,0:0:0:0:
72,96,32846,6,0,P|148:48|340:52,1,280,8|0,0:0|0:0,0:0:0:0:
464,76,33096,2,0,P|380:112|192:88,1,280,8|0,0:0|0:0,0:0:0:0:
60,52,33346,2,0,P|56:184|144:300,1,280,8|0,0:0|0:0,0:0:0:0:
320,168,33596,2,0,P|224:192|36:136,1,280,8|0,0:0|0:0,0:0:0:0:
44,212,33846,2,0,P|112:136|276:64,1,280,8|0,0:0|0:0,0:0:0:0:
440,28,34096,2,0,P|452:128|376:292,1,280,8|0,0:0|0:0,0:0:0:0:
372,344,34346,2,8,B|260:344|204:208|208:208|208:208|64:348|64:348|64:200,1,560,8|8,0:0|0:0,0:0:0:0:
60,96,35095,6,0,L|204:64,1,140
128,168,35345,2,0,L|272:136,1,140
344,84,35595,1,0,0:0:0:0:
256,168,35720,5,0,0:0:0:0:
136,248,35845,2,0,L|100:332,2,70,8|0|0,0:0|0:0|0:0,0:0:0:0:
296,160,36095,1,0,0:0:0:0:
136,248,36220,2,0,L|100:332,2,70,8|0|0,0:0|0:0|0:0,0:0:0:0:
336,152,36470,1,0,0:0:0:0:
136,248,36595,2,0,L|100:332,2,70,8|0|0,0:0|0:0|0:0,0:0:0:0:
336,328,36845,6,0,P|412:312|456:256,1,140,8|0,0:0|0:0,0:0:0:0:
428,168,37095,1,8,0:0:0:0:
360,96,37220,1,0,0:0:0:0:
280,36,37344,2,0,P|208:80|136:52,1,140,8|0,0:0|0:0,0:0:0:0:
72,160,37594,2,0,P|64:248|96:296,1,140,8|0,0:0|0:0,0:0:0:0:
184,292,37844,5,8,0:0:0:0:
244,232,37969,1,0,0:0:0:0:
304,292,38094,1,8,0:0:0:0:
360,228,38219,1,0,0:0:0:0:
408,144,38344,2,0,P|368:72|284:48,1,140,8|0,0:0|0:0,0:0:0:0:
164,52,38594,2,0,P|92:96|76:160,1,140,8|0,0:0|0:0,0:0:0:0:
52,240,38844,6,0,L|148:352,1,140,8|0,0:0|0:0,0:0:0:0:
104,52,39094,2,0,L|200:176,1,140,8|0,0:0|0:0,0:0:0:0:
256,96,39344,1,8,0:0:0:0:
328,40,39469,1,0,0:0:0:0:
416,80,39594,1,8,0:0:0:0:
344,156,39718,1,0,0:0:0:0:
212,200,39843,6,0,P|144:168|128:108,1,140,8|0,0:0|0:0,0:0:0:0:
64,324,40093,2,0,P|148:332|200:380,1,140,8|0,0:0|0:0,0:0:0:0:
448,324,40343,2,0,P|364:336|316:376,1,140,8|0,0:0|0:0,0:0:0:0:
300,200,40593,2,0,P|368:168|396:104,1,140,8|0,0:0|0:0,0:0:0:0:
128,40,40843,6,0,B|68:104|68:104|112:152|112:152|52:208|52:208|104:244,1,280,8|0,0:0|0:0,0:0:0:0:
148,300,41093,2,0,P|216:340|408:312,1,280,8|0,0:0|0:0,0:0:0:0:
468,236,41343,2,0,P|388:224|204:304,1,280,8|0,0:0|0:0,0:0:0:0:
104,328,41593,2,0,P|68:256|108:68,1,280,8|0,0:0|0:0,0:0:0:0:
216,52,41843,2,0,P|340:40|488:96,1,280,8|0,0:0|0:0,0:0:0:0:
464,196,42093,2,0,B|400:144|320:24|212:72,1,280,8|0,0:0|0:0,0:0:0:0:
164,136,42343,2,8,B|156:216|336:324|336:324|204:56,1,560
48,144,43092,5,0,0:0:0:0:
72,200,43217,1,0,0:0:0:0:
120,232,43342,1,0,0:0:0:0:
168,248,43467,1,0,0:0:0:0:
220,248,43592,1,0,0:0:0:0:
272,240,43717,1,0,0:0:0:0:
364,72,43842,5,8,0:0:0:0:
176,124,43967,1,0,0:0:0:0:
176,124,44030,1,0,0:0:0:0:
176,124,44092,1,0,0:0:0:0:
368,84,44217,1,8,0:0:0:0:
180,140,44342,1,0,0:0:0:0:
180,140,44404,1,0,0:0:0:0:
180,140,44467,1,0,0:0:0:0:
376,100,44592,1,8,0:0:0:0:
184,156,44717,2,0,L|204:224,7,70,0|0|0|0|0|0|0|0,0:0|0:0|0:0|0:0|0:0|0:0|0:0|0:0,0:0:0:0:
396,304,45341,6,0,L|440:140,1,140,8|0,0:0|0:0,0:0:0:0:
332,28,45590,2,0,L|276:204,1,140,8|0,0:0|0:0,0:0:0:0:
92,216,45841,1,12,0:0:0:0:
96,92,48871,6,0,L|112:132,14,35,0|0|0|0|0|0|0|0|0|0|0|0|0|0|0,0:0|0:0|0:0|0:0|0:0|0:0|0:0|0:0|0:0|0:0|0:0|0:0|0:0|0:0|0:0,0:0:0:0:
400,80,49995,5,0,0:0:0:0:
276,104,50120,2,0,L|168:72,1,105.000004005432
144,172,50370,2,0,L|24:140,1,105.000004005432
60,248,50620,1,0,0:0:0:0:
120,324,50745,1,0,0:0:0:0:
240,304,50870,2,0,P|304:280|388:292,2,105.000004005432,0|0|0,0:0|0:0|0:0,0:0:0:0:
140,256,51245,2,0,P|92:180|124:56,1,210.000008010865
392,72,51744,6,0,P|428:144|396:268,1,210.000008010865
280,328,52119,2,0,P|208:328|168:304,1,105.000004005432
104,192,52369,2,0,P|168:200|224:232,1,105.000004005432
284,232,52619,1,0,0:0:0:0:
352,284,52744,1,0,0:0:0:0:
424,236,52869,1,0,0:0:0:0:
420,156,52994,1,0,0:0:0:0:
348,104,53119,2,0,P|316:32|284:20,1,105.000004005432,0|0,0:0|0:0,0:0:0:0:
216,96,53369,2,0,P|136:76|24:144,1,210.000008010865
40,240,53743,6,0,P|88:200|228:208,1,210.000008010865
440,220,54118,2,0,P|384:244|320:236,1,105.000004005432
92,272,54368,2,0,P|156:240|196:260,1,105.000004005432
360,152,54618,2,0,L|360:44,2,105.000004005432,0|0|0,0:0|0:0|0:0,0:0:0:0:
240,164,54993,1,0,0:0:0:0:
112,180,55118,1,0,0:0:0:0:
108,296,55243,2,0,P|176:288|316:312,1,210.000008010865
420,268,55743,6,0,P|440:208|364:80,1,210.000008010865
276,60,56117,1,0,0:0:0:0:
192,52,56242,1,0,0:0:0:0:
96,56,56367,2,0,L|48:192,1,105.000004005432
112,244,56617,1,0,0:0:0:0:
188,324,56742,1,0,0:0:0:0:
356,300,56867,6,0,L|424:200,1,105.000004005432
360,64,57117,2,0,L|328:112,2,52.5000020027161,0|0|0,0:0|0:0|0:0,0:0:0:0:
160,336,57367,2,0,L|228:236,1,105.000004005432
164,100,57617,2,0,L|132:148,2,52.5000020027161,0|0|0,0:0|0:0|0:0,0:0:0:0:
60,96,57867,6,0,L|48:192,1,70
192,312,58117,1,0,0:0:0:0:
216,152,58241,1,0,0:0:0:0:
368,340,58366,2,0,L|376:264,1,70
456,56,58616,2,0,L|444:152,1,70
296,56,58866,5,0,0:0:0:0:
116,64,58991,1,0,0:0:0:0:
260,140,59116,2,0,L|328:180,1,70
128,188,59366,2,0,L|52:136,1,70
80,304,59616,2,0,L|144:352,1,70
216,304,59866,5,0,0:0:0:0:
368,196,59991,2,0,L|388:232,2,35,0|0|0,0:0|0:0|0:0,0:0:0:0:
184,248,60241,1,0,0:0:0:0:
136,72,60366,2,0,L|180:60,2,35,0|0|0,0:0|0:0|0:0,0:0:0:0:
164,288,60616,1,0,0:0:0:0:
384,64,60741,2,0,L|412:96,2,35,0|0|0,0:0|0:0|0:0,0:0:0:0:
144,260,60990,1,0,0:0:0:0:
272,108,61115,2,0,L|288:148,2,35,0|0|0,0:0|0:0|0:0,0:0:0:0:
324,328,61365,6,0,P|380:320|408:340,2,70,0|0|0,0:0|0:0|0:0,0:0:0:0:
196,312,61740,1,0,0:0:0:0:
68,196,61865,6,0,L|80:128,1,70
176,136,62115,2,0,L|188:60,1,70
288,48,62365,1,0,0:0:0:0:
120,108,62490,1,0,0:0:0:0:
280,196,62615,2,0,L|360:200,1,70
44,252,62865,2,0,L|116:260,1,70
192,88,63115,2,0,L|272:96,1,70
292,312,63364,2,0,L|376:320,1,70
388,100,63614,2,0,L|480:112,1,70
284,36,63864,6,0,P|204:40|36:152,1,280
32,356,64239,2,8,L|104:224,1,140
240,88,64489,2,8,L|168:236,1,140
180,332,64739,1,8,0:0:0:0:
200,164,64864,1,8,0:0:0:0:
364,212,64989,1,8,0:0:0:0:
384,224,65051,1,8,0:0:0:0:
392,244,65114,1,8,0:0:0:0:
436,60,65239,5,12,0:0:0:0:
64,76,65489,6,0,P|56:104|76:152,1,70
72,316,65863,6,0,L|192:232,1,140,8|0,0:0|0:0,0:0:0:0:
440,312,66112,2,0,L|304:224,1,140,8|0,0:0|0:0,0:0:0:0:
176,200,66362,1,8,0:0:0:0:
324,200,66487,1,0,0:0:0:0:
176,200,66612,1,8,0:0:0:0:
324,200,66737,1,0,0:0:0:0:
112,124,66862,6,0,P|92:200|140:240,1,140,8|0,0:0|0:0,0:0:0:0:
228,168,67112,1,8,0:0:0:0:
168,320,67237,1,0,0:0:0:0:
304,292,67362,2,0,P|380:284|416:336,1,140,8|0,0:0|0:0,0:0:0:0:
440,96,67612,2,0,P|360:128|320:64,1,140,8|0,0:0|0:0,0:0:0:0:
212,56,67862,6,0,L|56:156,1,140,8|0,0:0|0:0,0:0:0:0:
68,224,68112,1,8,0:0:0:0:
176,272,68237,2,0,L|308:184,2,140,0|8|0,0:0|0:0|0:0,0:0:0:0:
272,328,68611,1,8,0:0:0:0:
216,128,68736,1,0,0:0:0:0:
360,76,68861,6,0,P|444:120|460:180,1,140,8|0,0:0|0:0,0:0:0:0:
240,192,69111,2,0,P|232:272|144:312,1,140,8|0,0:0|0:0,0:0:0:0:
80,256,69361,1,8,0:0:0:0:
92,128,69486,1,0,0:0:0:0:
188,56,69611,1,8,0:0:0:0:
288,96,69736,1,0,0:0:0:0:
352,180,69862,6,0,B|384:108|384:108|452:84|452:84|496:140|496:140|420:160,1,280,8|0,0:0|0:0,0:0:0:0:
484,220,70112,2,0,B|420:176|420:176|424:96|424:96|356:76|356:76|340:140,1,280,8|0,0:0|0:0,0:0:0:0:
336,208,70362,2,0,B|400:264|400:264|352:304|352:304|404:328|408:332|408:332|308:352,1,280,8|0,0:0|0:0,0:0:0:0:
220,320,70612,2,0,B|176:264|40:288|40:288|40:192,1,280,8|0,0:0|0:0,0:0:0:0:
64,88,70862,2,0,B|128:48|128:48|152:264,1,280,8|0,0:0|0:0,0:0:0:0:
256,264,71112,2,0,P|220:184|40:156,1,280,8|0,0:0|0:0,0:0:0:0:
48,268,71362,2,8,B|104:312|376:264|376:264|444:116|444:116|376:84,1,560
88,112,72111,6,0,L|224:72,1,140
452,80,72360,2,0,L|304:128,1,140
220,148,72610,1,0,0:0:0:0:
112,176,72735,1,0,0:0:0:0:
108,296,72860,6,0,L|88:336,4,35,8|0|0|0|0,0:0|0:0|0:0|0:0|0:0,0:0:0:0:
312,76,73234,2,0,L|336:120,4,35,8|0|0|0|0,0:0|0:0|0:0|0:0|0:0,0:0:0:0:
444,288,73609,2,0,L|400:312,3,35,8|0|0|0,0:0|0:0|0:0|0:0,0:0:0:0:
400,248,73859,6,0,P|376:116|372:84,1,140,8|0,0:0|0:0,0:0:0:0:
240,16,74109,2,0,L|264:184,1,140,8|0,0:0|0:0,0:0:0:0:
276,264,74359,2,0,L|116:296,1,140,8|0,0:0|0:0,0:0:0:0:
52,212,74609,2,0,L|20:64,1,140,8|0,0:0|0:0,0:0:0:0:
140,64,74859,6,0,P|212:88|264:164,1,140,8|0,0:0|0:0,0:0:0:0:
160,208,75109,2,0,P|88:164|68:88,1,140,8|0,0:0|0:0,0:0:0:0:
116,40,75358,1,8,0:0:0:0:
184,132,75483,1,0,0:0:0:0:
164,272,75608,2,0,P|56:296|40:332,1,140,8|0,0:0|0:0,0:0:0:0:
296,324,75858,6,0,P|372:288|440:320,2,140,8|0|8,0:0|0:0|0:0,0:0:0:0:
168,304,76233,1,0,0:0:0:0:
76,220,76358,1,8,0:0:0:0:
88,96,76483,1,0,0:0:0:0:
216,48,76608,2,0,P|296:48|364:104,1,140,8|0,0:0|0:0,0:0:0:0:
456,64,76858,5,8,0:0:0:0:
392,108,76983,1,0,0:0:0:0:
328,152,77108,2,0,L|200:248,1,140,8|0,0:0|0:0,0:0:0:0:
80,156,77358,2,0,L|208:64,1,140,8|0,0:0|0:0,0:0:0:0:
280,56,77608,1,8,0:0:0:0:
364,56,77732,1,0,0:0:0:0:
460,336,77857,6,0,P|480:228|328:188,1,280,8|0,0:0|0:0,0:0:0:0:
312,184,78107,2,0,P|288:60|152:60,1,280,8|0,0:0|0:0,0:0:0:0:
155,57,78357,2,0,P|168:152|16:220,1,280,8|0,0:0|0:0,0:0:0:0:
24,216,78607,2,0,P|144:332|232:236,1,280,8|0,0:0|0:0,0:0:0:0:
236,272,78857,2,0,P|204:136|64:148,1,280,8|0,0:0|0:0,0:0:0:0:
56,164,79107,2,0,P|76:284|248:296,1,280,8|0,0:0|0:0,0:0:0:0:
216,296,79357,2,8,B|288:272|452:368|452:368|464:60,1,560
456,112,80107,6,0,P|368:64|324:92,5,140,0|0|0|0|0|0,0:0|0:0|0:0|0:0|0:0|0:0,0:0:0:0:
384,200,80856,6,0,L|356:272,4,70,8|0|0|0|0,0:0|0:0|0:0|0:0|0:0,0:0:0:0:
72,92,81231,2,0,L|92:176,4,70,8|0|0|0|0,0:0|0:0|0:0|0:0|0:0,0:0:0:0:
404,132,81606,2,0,L|376:204,7,70,8|0|0|0|0|0|0|0,0:0|0:0|0:0|0:0|0:0|0:0|0:0|0:0,0:0:0:0:
60,256,82231,6,0,P|112:184|184:188,1,140,0|8,0:0|0:0,0:0:0:0:
252,84,82481,1,0,0:0:0:0:
168,280,82605,1,8,0:0:0:0:
312,272,82730,1,0,0:0:0:0:
384,68,82855,1,12,0:0:0:0:
432,184,83136,6,0,P|436:228|396:320,1,140
128,292,83635,2,0,P|148:236|208:172,1,140
424,56,84134,2,0,P|424:116|392:208,1,140
232,88,84634,1,0,0:0:0:0:
112,192,84884,5,0,0:0:0:0:
160,100,85134,1,0,0:0:0:0:
256,140,85384,1,0,0:0:0:0:
216,232,85634,1,0,0:0:0:0:
72,116,85884,1,0,0:0:0:0:
232,64,86134,1,0,0:0:0:0:
304,212,86383,1,0,0:0:0:0:
128,276,86633,1,0,0:0:0:0:
304,344,86883,6,0,P|380:340|432:296,1,140
408,88,87383,2,0,P|352:96|276:148,1,140
80,200,87883,1,0,0:0:0:0:
276,300,88133,1,0,0:0:0:0:
440,136,88383,1,0,0:0:0:0:
236,48,88633,1,0,0:0:0:0:
88,96,88882,6,0,L|104:192,1,70
260,256,89132,2,0,L|240:176,1,70
88,256,89382,2,0,L|160:236,1,70
232,100,89632,2,0,L|152:120,1,70
80,224,89882,2,0,P|128:304|192:312,1,140
392,244,90382,2,0,P|348:184|264:156,1,140
68,160,90882,6,0,L|96:84,1,70,0|0,0:0|0:0,0:0:0:0:
96,300,91131,2,0,L|128:212,1,70
200,236,91381,2,0,L|224:160,1,70
288,124,91631,2,0,L|316:52,1,70
400,44,91881,5,0,0:0:0:0:
432,88,92006,1,0,0:0:0:0:
448,140,92131,1,0,0:0:0:0:
448,196,92256,1,0,0:0:0:0:
440,252,92381,2,0,P|384:312|316:320,1,140
48,144,92881,6,0,P|104:80|172:80,1,140
328,120,93381,1,0,0:0:0:0:
88,276,93630,1,0,0:0:0:0:
352,324,93880,2,0,P|420:284|468:328,1,140
184,72,94380,2,0,P|120:96|64:60,1,140
88,288,94880,6,0,L|232:244,1,140
424,96,95380,2,0,L|284:140,1,140
52,348,95880,2,0,L|200:296,1,140
456,44,96379,2,0,L|316:116,1,140
68,144,96879,6,0,P|64:220|92:280,1,105.000004005432
156,332,97129,2,8,L|184:220,1,105.000004005432
132,148,97379,1,8,0:0:0:0:
208,68,97504,1,8,0:0:0:0:
312,60,97629,1,8,0:0:0:0:
376,148,97754,1,8,0:0:0:0:
372,256,97879,1,8,0:0:0:0:
256,288,98004,1,8,0:0:0:0:
128,276,98129,2,8,P|80:252|76:180,1,105.000004005432
108,108,98378,1,8,0:0:0:0:
212,56,98503,1,8,0:0:0:0:
340,68,98628,1,8,0:0:0:0:
420,164,98753,1,8,0:0:0:0:
72,328,98878,5,12,0:0:0:0:
104,72,105875,6,0,L|88:132,4,52.5000020027161,8|0|8|0|8,0:0|0:0|0:0|0:0|0:0,0:0:0:0:
248,164,106250,2,0,L|248:240,4,52.5000020027161,8|0|8|0|8,0:0|0:0|0:0|0:0|0:0,0:0:0:0:
400,208,106625,2,0,L|420:276,2,52.5000020027161,8|0|8,0:0|0:0|0:0,0:0:0:0:
404,60,106875,6,8,P|304:56|264:92,1,140
168,72,107125,1,8,0:0:0:0:
340,144,107250,1,0,0:0:0:0:
144,184,107375,2,0,L|20:284,1,140,8|0,0:0|0:0,0:0:0:0:
188,304,107625,5,8,0:0:0:0:
320,340,107750,1,0,0:0:0:0:
432,296,107875,2,0,P|472:208|436:160,1,140,8|0,0:0|0:0,0:0:0:0:
332,72,108124,2,0,L|188:40,1,140,8|0,0:0|0:0,0:0:0:0:
96,108,108374,1,8,0:0:0:0:
52,184,108499,1,0,0:0:0:0:
120,240,108624,1,8,0:0:0:0:
208,200,108749,1,0,0:0:0:0:
256,104,108874,6,0,P|304:36|368:44,1,140,8|0,0:0|0:0,0:0:0:0:
476,112,109124,2,0,P|408:164|348:144,1,140,8|0,0:0|0:0,0:0:0:0:
436,248,109374,1,8,0:0:0:0:
284,48,109499,1,0,0:0:0:0:
164,88,109624,2,0,L|40:156,1,140,8|0,0:0|0:0,0:0:0:0:
52,304,109874,6,0,L|184:224,1,140,8|0,0:0|0:0,0:0:0:0:
88,188,110124,1,8,0:0:0:0:
196,48,110249,1,0,0:0:0:0:
284,172,110373,2,0,P|260:244|192:296,1,140,8|0,0:0|0:0,0:0:0:0:
364,276,110623,2,0,L|488:196,1,140,8|0,0:0|0:0,0:0:0:0:
440,96,110873,6,0,P|360:52|152:56,1,280,8|0,0:0|0:0,0:0:0:0:
52,64,111123,2,0,P|72:140|256:168,1,280,8|0,0:0|0:0,0:0:0:0:
276,72,111373,2,0,L|500:288,1,280,8|0,0:0|0:0,0:0:0:0:
424,360,111623,2,0,L|140:360,1,280,8|0,0:0|0:0,0:0:0:0:
52,288,111873,2,0,P|68:180|172:40,1,280,8|0,0:0|0:0,0:0:0:0:
304,48,112123,2,0,L|56:216,1,280,8|0,0:0|0:0,0:0:0:0:
40,336,112373,2,8,B|112:348|180:232|280:336|96:56|440:292|440:292|488:208,1,560
64,104,113122,6,0,L|212:36,1,140
332,112,113372,2,0,L|192:180,1,140
96,200,113622,1,0,0:0:0:0:
112,300,113747,1,0,0:0:0:0:
260,260,113872,6,0,L|352:260,4,70,8|0|0|0|0,0:0|0:0|0:0|0:0|0:0,0:0:0:0:
412,144,114247,2,0,L|376:76,4,70,8|0|0|0|0,0:0|0:0|0:0|0:0|0:0,0:0:0:0:
204,80,114622,2,0,L|160:144,2,70,8|0|0,0:0|0:0|0:0,0:0:0:0:
56,248,114872,6,0,P|136:280|196:252,1,140,8|0,0:0|0:0,0:0:0:0:
188,168,115122,1,8,0:0:0:0:
228,64,115247,2,0,P|316:80|364:152,2,140,0|8|0,0:0|0:0|0:0,0:0:0:0:
116,112,115621,2,0,L|48:244,1,140,8|0,0:0|0:0,0:0:0:0:
172,320,115871,6,0,L|228:180,1,140,8|0,0:0|0:0,0:0:0:0:
468,160,116121,2,0,P|408:120|328:136,1,140,8|0,0:0|0:0,0:0:0:0:
264,220,116371,1,8,0:0:0:0:
368,308,116496,1,0,0:0:0:0:
196,344,116621,2,0,L|48:360,1,140,8|0,0:0|0:0,0:0:0:0:
60,224,116871,5,8,0:0:0:0:
160,112,116996,1,0,0:0:0:0:
288,92,117121,2,0,P|372:112|420:184,1,140,8|0,0:0|0:0,0:0:0:0:
200,124,117371,1,8,0:0:0:0:
420,80,117496,1,0,0:0:0:0:
332,96,117621,1,8,0:0:0:0:
248,116,117745,1,0,0:0:0:0:
128,152,117870,6,0,L|44:32,1,140,8|0,0:0|0:0,0:0:0:0:
224,36,118120,2,0,L|376:36,1,140,8|0,0:0|0:0,0:0:0:0:
380,168,118370,1,8,0:0:0:0:
484,96,118495,1,0,0:0:0:0:
352,40,118620,2,0,P|280:60|168:40,1,140,8|0,0:0|0:0,0:0:0:0:
124,48,118870,6,0,P|68:140|68:312,1,280,8|0,0:0|0:0,0:0:0:0:
148,352,119120,2,0,L|448:320,1,280,8|0,0:0|0:0,0:0:0:0:
488,224,119370,2,0,L|192:256,1,280,8|0,0:0|0:0,0:0:0:0:
104,256,119620,2,0,L|288:16,1,280,8|0,0:0|0:0,0:0:0:0:
376,40,119870,2,0,P|440:96|464:304,1,280,8|0,0:0|0:0,0:0:0:0:
368,324,120120,2,0,P|296:336|44:296,1,280,8|0,0:0|0:0,0:0:0:0:
32,236,120370,2,8,B|64:168|64:168|40:96|40:96|108:80|108:80|132:144|132:144|88:208|88:208|140:244|140:244|196:200|196:200|216:272,1,560
408,56,121119,5,0,0:0:0:0:
416,88,121244,1,0,0:0:0:0:
428,124,121369,1,0,0:0:0:0:
436,156,121494,2,0,L|476:300,1,140
356,316,121744,1,0,0:0:0:0:
160,164,121869,6,0,L|136:236,4,70,8|0|0|0|0,0:0|0:0|0:0|0:0|0:0,0:0:0:0:
280,200,122244,2,0,L|300:272,4,70,8|0|0|0|0,0:0|0:0|0:0|0:0|0:0,0:0:0:0:
148,264,122619,2,0,L|120:340,2,70,8|0|0,0:0|0:0|0:0,0:0:0:0:
84,112,122869,5,8,0:0:0:0:
240,68,122994,2,0,L|392:52,1,140,0|8,0:0|0:0,0:0:0:0:
472,136,123244,1,0,0:0:0:0:
424,336,123368,5,8,0:0:0:0:
244,340,123493,2,0,P|148:288|128:240,1,140,0|8,0:0|0:0,0:0:0:0:
400,216,123743,2,0,P|340:152|280:124,1,140,0|8,0:0|0:0,0:0:0:0:
136,120,126867,6,0,L|116:192,6,70,0|0|0|0|0|0|0,0:0|0:0|0:0|0:0|0:0|0:0|0:0,0:0:0:0:
260,184,127367,2,0,L|284:264,9,70,0|0|0|0|0|0|0|0|0|0,0:0|0:0|0:0|0:0|0:0|0:0|0:0|0:0|0:0|0:0,0:0:0:0:
