osu file format v13

[General]
AudioFilename: Omega rhythm BPM240.mp3
AudioLeadIn: 0
PreviewTime: 28472
Countdown: 1
SampleSet: None
StackLeniency: 0.7
Mode: 0
LetterboxInBreaks: 1
WidescreenStoryboard: 1

[Editor]
DistanceSpacing: 0.5
BeatDivisor: 4
GridSize: 4
TimelineZoom: 1.4

[Metadata]
Title:Omega Rhythm(BPM240.Ver)
TitleUnicode:Omega Rhythm(BPM240.Ver)
Artist:UPLIFT SPICE
ArtistUnicode:UPLIFT SPICE
Creator:SnowNiNo_
Version:Hard [AR10]
Source:
Tags:
BeatmapID:540978
BeatmapSetID:183075

[Difficulty]
HPDrainRate:7
CircleSize:3.5
OverallDifficulty:7.5
ApproachRate:10
SliderMultiplier:1.4
SliderTickRate:1

[Events]
//Background and Video events
0,0,"10295199_548922695218512_2758885364313802397_o.jpg",0,0
//Break Periods
2,99096,105449
2,124106,126457
//Storyboard Layer 0 (Background)
//Storyboard Layer 1 (Fail)
//Storyboard Layer 2 (Pass)
//Storyboard Layer 3 (Foreground)
//Storyboard Sound Samples
//Background Colour Transformations
3,100,163,162,255

[TimingPoints]
859,250.095876718034,4,1,2,60,1,0
859,-66.6666666666667,4,1,2,60,0,0
11855,-50,4,1,2,80,0,0
12855,-50,4,1,2,80,0,1
20850,-100,4,2,1,40,0,0
26849,-50,4,1,2,80,0,0
28494,-200,4,1,2,80,0,0
28869,-50,4,1,2,80,0,1
32846,-50,4,1,2,80,0,1
34885,-50,4,1,2,80,0,0
36845,-50,4,1,2,80,0,1
40843,-50,4,1,2,80,0,1
42843,-50,4,1,2,80,0,1
49877,-66.6666666666667,4,2,1,60,0,0
56774,-66.6666666666667,4,1,2,60,0,0
57774,-100,4,2,1,60,0,0
63864,-50,4,1,2,60,0,0
65489,-200,4,1,2,60,0,0
65863,-50,4,1,2,80,0,1
69862,-50,4,1,2,80,0,1
72111,-50,4,1,2,80,0,0
73859,-50,4,1,2,80,0,1
77857,-50,4,1,2,80,0,1
80107,-50,4,1,2,80,0,1
82855,-100,4,2,1,60,0,0
84884,-100,4,2,1,60,0,0
96879,-66.6666666666667,4,1,2,60,0,0
106875,-50,4,1,2,80,0,1
110873,-50,4,1,2,80,0,1
113122,-50,4,1,2,80,0,0
114872,-50,4,1,2,80,0,1
118870,-50,4,1,2,80,0,1
121119,-50,4,1,2,80,0,0

[HitObjects]
104,96,859,6,0,L|208:140,1,105.000004005432
408,96,1109,2,0,L|304:140,1,105.000004005432
72,232,1359,2,0,L|188:208,1,105.000004005432
440,232,1609,2,0,L|324:208,1,105.000004005432
264,112,1859,5,0,0:0:0:0:
172,48,1984,1,0,0:0:0:0:
84,112,2109,2,0,P|104:180|144:212,1,105.000004005432
232,232,2359,1,0,0:0:0:0:
232,340,2484,1,0,0:0:0:0:
352,312,2609,2,0,P|428:320|456:348,1,105.000004005432
452,88,2859,6,0,L|352:132,1,105.000004005432
60,88,3109,2,0,L|160:132,1,105.000004005432
348,240,3359,2,0,P|400:276|416:320,1,105.000004005432
192,328,3610,2,0,P|140:292|124:248,1,105.000004005432
52,156,3860,5,0,0:0:0:0:
148,132,3985,1,0,0:0:0:0:
236,164,4110,1,0,0:0:0:0:
288,248,4235,1,0,0:0:0:0:
300,340,4360,2,0,P|368:356|412:344,1,105.000004005432
480,176,4610,2,0,P|412:160|368:172,1,105.000004005432
200,68,4985,5,0,0:0:0:0:
72,192,5110,2,0,P|140:216|184:272,1,105.000004005432
440,192,5360,2,0,P|372:216|328:272,1,105.000004005432
248,328,5610,1,0,0:0:0:0:
120,308,5735,1,0,0:0:0:0:
40,200,5860,6,0,P|68:136|112:128,1,105.000004005432
184,344,6111,1,0,0:0:0:0:
272,216,6236,2,0,P|348:212|440:336,1,210.000008010865
76,104,6736,6,0,L|288:56,1,210.000008010865,0|0,0:0|0:0,0:0:0:0:
388,184,7111,2,0,L|496:260,1,105.000004005432
228,240,7361,2,0,L|120:164,1,105.000004005432
36,244,7611,1,0,0:0:0:0:
256,84,7736,1,0,0:0:0:0:
476,244,7861,2,0,L|392:344,2,105.000004005432,0|0|0,0:0|0:0|0:0,0:0:0:0:
432,80,8236,2,0,L|208:44,1,210.000008010865
100,112,8737,6,0,P|76:160|112:324,1,210.000008010865
276,304,9112,2,0,P|372:328|388:352,1,105.000004005432
456,120,9362,2,0,P|360:96|344:72,1,105.000004005432
148,276,9612,2,0,P|244:300|260:324,1,105.000004005432
408,232,9862,1,0,0:0:0:0:
236,56,9987,1,0,0:0:0:0:
100,164,10112,1,0,0:0:0:0:
116,328,10237,2,0,P|184:296|320:340,1,210.000008010865
448,140,10737,6,0,P|356:64|252:48,1,210.000008010865
64,120,11112,2,0,P|124:160|184:160,1,105.000004005432
440,296,11363,2,0,P|380:256|320:256,1,105.000004005432
44,272,11613,2,0,P|104:312|164:312,1,105.000004005432
240,64,11863,5,8,0:0:0:0:
272,320,11988,1,8,0:0:0:0:
64,192,12113,2,0,L|40:264,2,70,0|0|0,0:0|0:0|0:0,0:0:0:0:
272,64,12363,5,8,0:0:0:0:
240,320,12488,1,8,0:0:0:0:
448,192,12613,2,0,L|472:264,2,70,0|0|0,0:0|0:0|0:0,0:0:0:0:
72,128,12863,6,0,P|136:84|212:100,1,140
356,196,13113,2,0,P|292:240|216:224,1,140,0|0,0:0|0:0,0:0:0:0:
120,228,13363,1,0,0:0:0:0:
172,144,13488,1,0,0:0:0:0:
244,208,13613,1,0,0:0:0:0:
308,128,13738,1,0,0:0:0:0:
376,192,13863,2,0,L|420:336,1,140,0|0,0:0|0:0,0:0:0:0:
252,332,14114,1,0,0:0:0:0:
88,292,14239,2,0,B|132:224|132:224|8:164|168:96,1,280
312,32,14739,6,0,B|388:48|472:168|472:168|392:156,1,280
336,216,15114,2,0,P|392:280|404:340,1,140
232,260,15364,2,0,P|216:332|164:372,1,140
132,204,15614,2,0,P|68:260|12:272,1,140
32,128,15864,1,0,0:0:0:0:
132,100,15989,1,0,0:0:0:0:
232,72,16114,1,0,0:0:0:0:
328,44,16239,2,0,B|408:64|452:192|452:192|404:264,1,280
40,328,16740,6,0,P|144:292|344:356,1,280,0|0,0:0|0:0,0:0:0:0:
436,224,17115,2,0,P|356:228|292:204,1,140
68,152,17365,2,0,P|148:148|212:172,1,140
452,104,17615,2,0,P|372:108|308:84,1,140
180,56,17865,1,0,0:0:0:0:
296,184,17990,1,0,0:0:0:0:
104,120,18115,1,0,0:0:0:0:
44,252,18240,2,0,B|200:204|144:320|144:320|280:336,1,280
464,328,18740,6,0,B|404:120|404:120|356:180,1,280
212,104,19115,2,0,P|296:72|360:92,1,140
140,184,19366,2,0,P|56:216|-8:196,1,140
56,144,19616,1,0,0:0:0:0:
116,332,19741,1,0,0:0:0:0:
256,256,19866,2,8,L|412:288,1,140
440,120,20116,2,0,L|456:188,2,70,0|0|0,0:0|0:0|0:0,0:0:0:0:
128,172,20366,2,8,L|284:204,1,140
416,64,20616,2,0,L|432:132,2,70,0|0|0,0:0|0:0|0:0,0:0:0:0:
324,48,20866,6,0,L|240:56,1,70
172,112,21116,2,0,L|88:120,1,70,0|0,0:0|0:0,0:0:0:0:
56,224,21366,2,0,L|140:232,1,70
208,288,21616,2,0,L|292:296,1,70,0|0,0:0|0:0,0:0:0:0:
428,172,21867,6,0,L|412:92,1,70
348,232,22117,2,0,L|364:312,1,70,0|0,0:0|0:0,0:0:0:0:
292,92,22367,2,0,L|276:12,1,70
212,152,22617,2,0,L|228:232,1,70,0|0,0:0|0:0,0:0:0:0:
68,292,22867,6,0,P|100:268|144:264,1,70
132,84,23117,2,0,P|160:112|168:148,1,70
240,252,23367,2,0,P|272:284|308:296,1,70
448,216,23617,2,0,P|416:184|380:172,1,70
288,60,23867,6,0,L|208:52,1,70
68,136,24117,2,0,L|148:144,1,70,0|0,0:0|0:0,0:0:0:0:
340,252,24368,2,0,L|260:244,1,70
120,328,24618,2,0,L|200:336,1,70,0|0,0:0|0:0,0:0:0:0:
424,280,24868,6,0,L|404:196,1,70
320,240,25118,2,0,L|300:156,1,70,0|0,0:0|0:0,0:0:0:0:
208,196,25368,2,0,L|188:112,1,70
104,156,25618,2,0,L|84:72,1,70,0|0,0:0|0:0,0:0:0:0:
224,40,25868,6,0,L|264:112,1,70,0|0,0:0|0:0,0:0:0:0:
432,164,26118,2,0,L|360:200,1,70
288,344,26368,2,0,L|248:272,1,70,0|0,0:0|0:0,0:0:0:0:
80,220,26618,2,0,L|152:184,1,70
224,300,26868,6,0,P|312:340|472:256,1,280,8|8,0:0|0:0,0:0:0:0:
416,156,27244,2,8,P|352:96|356:40,1,140
159,48,27494,2,8,P|151:116|96:156,1,140
192,312,27744,2,8,P|260:292|328:324,1,140
412,232,27994,1,8,0:0:0:0:
400,204,28056,1,8,0:0:0:0:
388,180,28119,1,8,0:0:0:0:
256,72,28244,1,8,0:0:0:0:
80,208,28494,6,0,L|68:292,1,70
308,292,28869,6,0,L|464:260,1,140,8|0,0:0|0:0,0:0:0:0:
204,292,29119,2,0,L|48:260,1,140,8|0,0:0|0:0,0:0:0:0:
64,116,29369,2,0,P|152:128|192:200,1,140,8|0,0:0|0:0,0:0:0:0:
400,96,29620,2,0,P|312:84|272:12,1,140,8|0,0:0|0:0,0:0:0:0:
160,56,29870,5,8,0:0:0:0:
128,172,29995,1,0,0:0:0:0:
252,204,30120,1,8,0:0:0:0:
276,84,30245,1,0,0:0:0:0:
384,176,30370,2,0,P|424:248|408:304,1,140,8|0,0:0|0:0,0:0:0:0:
101,300,30620,2,0,P|89:232|128:176,1,140,8|0,0:0|0:0,0:0:0:0:
312,136,30870,6,0,L|460:104,1,140,8|0,0:0|0:0,0:0:0:0:
412,244,31120,2,0,L|340:364,1,140,8|0,0:0|0:0,0:0:0:0:
184,332,31370,1,8,0:0:0:0:
248,232,31495,1,0,0:0:0:0:
124,160,31620,1,8,0:0:0:0:
192,72,31745,1,0,0:0:0:0:
308,40,31870,6,0,L|456:60,1,140,8|0,0:0|0:0,0:0:0:0:
416,200,32120,1,8,0:0:0:0:
416,200,32183,1,0,0:0:0:0:
416,200,32246,1,0,0:0:0:0:
308,316,32371,2,0,P|264:236|292:184,1,140,8|0,0:0|0:0,0:0:0:0:
132,48,32621,2,0,P|84:112|28:136,1,140,8|0,0:0|0:0,0:0:0:0:
108,344,32871,6,0,L|128:192,1,140,8|0,0:0|0:0,0:0:0:0:
232,36,33121,2,0,L|212:188,1,140,8|0,0:0|0:0,0:0:0:0:
28,120,33371,2,0,L|180:148,1,140,8|0,0:0|0:0,0:0:0:0:
312,256,33621,2,0,L|160:228,1,140,8|0,0:0|0:0,0:0:0:0:
84,112,33871,2,8,P|156:72|232:88,1,140,8|0,0:0|0:0,0:0:0:0:
412,148,34121,2,0,P|340:188|264:172,1,140,8|0,0:0|0:0,0:0:0:0:
144,184,34371,1,8,0:0:0:0:
136,208,34434,1,0,0:0:0:0:
128,236,34496,1,0,0:0:0:0:
380,320,35122,6,0,P|408:244|388:172,1,140
132,320,35372,2,0,P|104:244|124:172,1,140
328,112,35622,1,0,0:0:0:0:
184,112,35747,1,0,0:0:0:0:
92,336,35872,5,0,0:0:0:0:
92,336,35997,2,0,L|232:304,1,140
424,264,36247,5,0,0:0:0:0:
424,264,36372,2,0,L|284:232,1,140
96,152,36622,5,0,0:0:0:0:
96,152,36747,1,0,0:0:0:0:
96,152,36872,2,0,P|144:84|204:64,1,140,8|0,0:0|0:0,0:0:0:0:
416,152,37122,2,0,P|368:84|308:64,1,140,8|0,0:0|0:0,0:0:0:0:
164,60,37372,1,8,0:0:0:0:
228,136,37498,1,0,0:0:0:0:
288,208,37623,1,8,0:0:0:0:
356,280,37748,1,0,0:0:0:0:
248,320,37873,6,0,L|104:304,1,140,8|0,0:0|0:0,0:0:0:0:
32,96,38123,2,0,L|192:116,1,140,8|0,0:0|0:0,0:0:0:0:
404,176,38373,2,0,L|260:160,1,140,8|0,0:0|0:0,0:0:0:0:
44,236,38623,2,0,L|204:256,1,140,8|0,0:0|0:0,0:0:0:0:
392,328,38873,6,0,B|416:256|416:256|384:184,1,140,8|0,0:0|0:0,0:0:0:0:
122,197,39123,2,0,B|96:256|96:256|120:328,1,140,8|0,0:0|0:0,0:0:0:0:
336,248,39373,2,0,P|420:296|496:308,1,140,8|0,0:0|0:0,0:0:0:0:
184,128,39623,2,0,P|100:80|24:68,1,140,8|0,0:0|0:0,0:0:0:0:
40,172,39873,5,8,0:0:0:0:
124,208,39999,1,0,0:0:0:0:
196,268,40124,1,8,0:0:0:0:
244,344,40249,1,0,0:0:0:0:
328,296,40374,2,0,P|404:252|428:180,1,140,8|0,0:0|0:0,0:0:0:0:
286,136,40624,2,0,P|321:77|384:48,1,140,8|0,0:0|0:0,0:0:0:0:
140,84,40874,6,0,L|288:96,1,140,8|0,0:0|0:0,0:0:0:0:
368,176,41124,2,0,L|304:324,1,140,8|0,0:0|0:0,0:0:0:0:
192,308,41374,2,0,L|92:200,1,140,8|0,0:0|0:0,0:0:0:0:
88,108,41624,1,8,0:0:0:0:
192,132,41749,1,0,0:0:0:0:
216,240,41874,2,0,P|136:256|88:224,1,140,8|0,0:0|0:0,0:0:0:0:
296,308,42124,2,0,P|376:292|424:324,1,140,8|0,0:0|0:0,0:0:0:0:
444,196,42374,2,0,B|412:108|412:108|292:48|188:84,1,280,8|0,0:0|0:0,0:0:0:0:
96,164,42875,6,0,P|172:204|168:264,1,140
416,164,43125,2,0,P|340:204|344:264,1,140
256,336,43375,1,0,0:0:0:0:
256,240,43500,1,0,0:0:0:0:
200,176,43625,1,0,0:0:0:0:
312,176,43750,1,0,0:0:0:0:
256,96,43875,2,0,L|256:20,4,70,0|0|0|0|0,0:0|0:0|0:0|0:0|0:0,0:0:0:0:
168,240,44250,2,0,L|168:152,4,70,0|0|0|0|0,0:0|0:0|0:0|0:0|0:0,0:0:0:0:
336,308,44625,2,0,L|336:232,10,70,0|0|0|0|0|0|0|0|0|0|0,0:0|0:0|0:0|0:0|0:0|0:0|0:0|0:0|0:0|0:0|0:0,0:0:0:0:
408,192,45376,6,0,P|344:144|280:144,1,140,8|0,0:0|0:0,0:0:0:0:
104,192,45626,2,0,P|168:144|232:144,1,140,8|0,0:0|0:0,0:0:0:0:
256,300,45876,1,12,0:0:0:0:
256,192,48877,12,0,49752,0:0:0:0:
108,196,49877,6,0,P|156:252|220:260,1,105.000004005432,0|0,0:0|0:0,0:0:0:0:
312,140,50127,2,0,P|264:84|200:76,1,105.000004005432,0|0,0:0|0:0,0:0:0:0:
44,216,50378,2,0,P|92:272|156:280,1,105.000004005432,0|0,0:0|0:0,0:0:0:0:
256,256,50628,2,0,L|308:352,1,105.000004005432
376,288,50878,1,0,0:0:0:0:
332,212,51003,1,0,0:0:0:0:
384,148,51128,1,0,0:0:0:0:
344,72,51253,2,0,P|284:44|132:72,1,210.000008010865
44,216,51753,6,0,L|232:336,1,210.000008010865
344,296,52128,2,0,P|400:256|412:212,1,105.000004005432
380,44,52378,2,0,P|332:88|320:140,1,105.000004005432
180,244,52628,2,0,P|216:192|212:136,1,105.000004005432
160,60,52878,1,0,0:0:0:0:
80,108,53003,1,0,0:0:0:0:
88,200,53128,1,0,0:0:0:0:
40,284,53254,2,0,P|104:284|240:352,1,210.000008010865
316,256,53754,6,0,B|424:336|424:336|464:252,1,210.000008010865
448,160,54129,2,0,L|396:60,1,105.000004005432
304,48,54379,2,0,P|256:32|196:52,1,105.000004005432
112,66,54629,2,0,L|64:160,1,105.000004005432
64,284,54879,2,0,L|176:256,2,105.000004005432,0|0|0,0:0|0:0|0:0,0:0:0:0:
168,340,55254,2,0,P|236:312|388:336,1,210.000008010865
472,232,55755,6,0,P|412:208|264:240,1,210.000008010865
84,124,56130,2,0,L|120:252,1,105.000004005432
120,328,56380,1,0,0:0:0:0:
176,264,56505,1,0,0:0:0:0:
232,328,56630,1,0,0:0:0:0:
288,264,56755,1,0,0:0:0:0:
352,320,56880,6,8,L|464:284,1,105.000004005432
384,184,57130,1,0,0:0:0:0:
384,184,57193,1,0,0:0:0:0:
384,184,57255,1,0,0:0:0:0:
160,320,57380,6,8,L|48:284,1,105.000004005432
128,184,57630,1,0,0:0:0:0:
128,184,57693,1,0,0:0:0:0:
128,184,57755,1,0,0:0:0:0:
176,60,57880,6,0,L|196:132,1,70
336,60,58130,2,0,L|316:132,1,70
180,244,58381,2,0,L|200:316,1,70
340,244,58631,2,0,L|320:316,1,70
160,332,58881,6,0,P|112:312|104:288,1,70
352,332,59131,2,0,P|400:312|408:288,1,70
256,292,59381,1,0,0:0:0:0:
256,220,59506,1,0,0:0:0:0:
256,148,59631,1,0,0:0:0:0:
256,76,59756,1,0,0:0:0:0:
376,64,59881,6,0,P|416:116|416:212,1,140
320,128,60256,2,0,P|336:191|298:279,1,140
244,168,60631,2,0,P|234:232|165:299,1,140
156,184,61007,2,0,P|121:239|32:274,1,140
156,320,61382,2,0,L|248:332,1,70
344,328,61632,1,0,0:0:0:0:
344,328,61694,1,0,0:0:0:0:
344,328,61757,1,0,0:0:0:0:
428,228,61882,6,0,L|436:152,1,70
328,168,62132,2,0,L|316:96,1,70
216,164,62382,2,0,L|180:92,1,70
112,192,62632,2,0,L|56:140,1,70
124,264,62882,6,0,L|220:256,1,70
388,264,63132,2,0,L|292:256,1,70
180,112,63382,2,0,L|180:40,1,70
312,140,63633,2,0,L|312:212,1,70
272,348,63883,6,0,B|92:304|92:304|72:204,1,280,8|8,0:0|0:0,0:0:0:0:
128,128,64258,1,8,0:0:0:0:
220,144,64383,1,8,0:0:0:0:
156,204,64508,1,8,0:0:0:0:
248,220,64633,1,8,0:0:0:0:
180,284,64758,1,8,0:0:0:0:
272,300,64883,1,8,0:0:0:0:
364,312,65008,1,8,0:0:0:0:
364,312,65071,1,8,0:0:0:0:
364,312,65133,1,8,0:0:0:0:
432,240,65258,1,8,0:0:0:0:
440,80,65508,6,0,L|364:68,1,70
248,64,65883,6,0,P|176:112|148:176,1,140,8|0,0:0|0:0,0:0:0:0:
264,320,66134,2,0,P|336:272|364:208,1,140,8|0,0:0|0:0,0:0:0:0:
108,216,66384,2,0,L|256:200,1,140,8|0,0:0|0:0,0:0:0:0:
392,100,66634,2,0,L|244:116,1,140,8|0,0:0|0:0,0:0:0:0:
160,68,66884,5,8,0:0:0:0:
96,112,67009,1,0,0:0:0:0:
64,188,67134,1,8,0:0:0:0:
76,272,67259,1,0,0:0:0:0:
108,348,67384,2,0,P|180:336|252:364,1,140,8|0,0:0|0:0,0:0:0:0:
408,240,67634,2,0,P|336:252|264:224,1,140,8|0,0:0|0:0,0:0:0:0:
112,136,67884,6,0,L|272:108,2,140,8|0|8,0:0|0:0|0:0,0:0:0:0:
60,224,68259,1,0,0:0:0:0:
160,232,68384,1,8,0:0:0:0:
232,304,68509,1,0,0:0:0:0:
336,336,68634,2,0,P|416:304|464:260,1,140,8|0,0:0|0:0,0:0:0:0:
472,96,68885,6,0,P|392:128|344:172,1,140,8|0,0:0|0:0,0:0:0:0:
136,92,69135,2,0,P|216:124|264:168,1,140,8|0,0:0|0:0,0:0:0:0:
480,312,69385,2,0,P|400:280|352:236,1,140,8|0,0:0|0:0,0:0:0:0:
144,316,69635,2,0,P|224:284|272:240,1,140,8|0,0:0|0:0,0:0:0:0:
252,60,69885,6,0,L|412:40,1,140,8|0,0:0|0:0,0:0:0:0:
416,140,70135,1,8,0:0:0:0:
400,236,70260,1,0,0:0:0:0:
272,268,70385,2,0,L|428:312,1,140,8|0,0:0|0:0,0:0:0:0:
264,336,70635,1,8,0:0:0:0:
408,308,70760,1,0,0:0:0:0:
352,160,70885,2,0,L|308:24,1,140,8|0,0:0|0:0,0:0:0:0:
160,160,71135,2,0,L|204:24,1,140,8|0,0:0|0:0,0:0:0:0:
256,196,71386,1,8,0:0:0:0:
76,264,72136,6,0,L|128:104,1,140
328,32,72386,2,0,L|276:192,1,140
352,240,72636,1,0,0:0:0:0:
448,196,72761,1,0,0:0:0:0:
412,328,72886,6,0,B|320:316|320:316|292:112,1,280
100,328,73261,2,0,B|192:316|192:316|220:112,1,280
256,36,73636,1,0,0:0:0:0:
256,36,73699,1,0,0:0:0:0:
256,36,73761,1,0,0:0:0:0:
368,96,73886,6,0,P|432:152|440:208,1,140,8|0,0:0|0:0,0:0:0:0:
296,224,74137,2,0,P|272:300|208:336,1,140,8|0,0:0|0:0,0:0:0:0:
144,296,74387,1,8,0:0:0:0:
72,244,74512,1,0,0:0:0:0:
148,212,74637,1,8,0:0:0:0:
144,296,74762,1,0,0:0:0:0:
224,256,74887,6,0,P|304:288|340:340,1,140,8|0,0:0|0:0,0:0:0:0:
472,248,75137,2,0,P|392:216|356:164,1,140,8|0,0:0|0:0,0:0:0:0:
40,247,75387,2,0,P|105:226|151:174,1,140,8|0,0:0|0:0,0:0:0:0:
287,256,75637,2,0,P|222:277|176:329,1,140,8|0,0:0|0:0,0:0:0:0:
288,340,75887,5,8,0:0:0:0:
176,328,76012,1,0,0:0:0:0:
288,340,76137,1,8,0:0:0:0:
176,328,76262,1,0,0:0:0:0:
100,236,76387,2,0,P|148:168|208:156,1,140,8|0,0:0|0:0,0:0:0:0:
344,204,76638,2,0,P|296:272|236:284,1,140,8|0,0:0|0:0,0:0:0:0:
112,132,76888,6,0,L|256:104,1,140,8|0,0:0|0:0,0:0:0:0:
400,132,77138,2,0,L|256:104,1,140,8|0,0:0|0:0,0:0:0:0:
168,164,77388,1,8,0:0:0:0:
344,220,77513,1,0,0:0:0:0:
196,240,77638,2,0,P|136:288|68:280,1,140,8|0,0:0|0:0,0:0:0:0:
48,204,77888,5,8,0:0:0:0:
60,120,78013,1,0,0:0:0:0:
116,56,78138,1,8,0:0:0:0:
204,40,78263,1,0,0:0:0:0:
288,48,78388,1,8,0:0:0:0:
360,96,78513,1,0,0:0:0:0:
400,168,78638,1,8,0:0:0:0:
392,252,78763,1,0,0:0:0:0:
332,320,78888,2,0,P|252:296|176:312,1,140,8|0,0:0|0:0,0:0:0:0:
180,64,79139,2,0,P|260:88|336:72,1,140,8|0,0:0|0:0,0:0:0:0:
444,144,79389,2,0,B|312:324|312:324|284:240,1,280,8|0,0:0|0:0,0:0:0:0:
100,192,80139,6,0,P|176:124|224:96,1,140
412,192,80389,2,0,P|336:124|288:96,1,140
256,312,80639,2,0,L|256:160,1,140
208,76,80889,5,0,0:0:0:0:
128,112,81014,1,0,0:0:0:0:
200,164,81139,1,0,0:0:0:0:
208,76,81264,5,0,0:0:0:0:
200,164,81389,1,0,0:0:0:0:
284,124,81514,1,0,0:0:0:0:
208,76,81639,5,0,0:0:0:0:
284,124,81765,1,0,0:0:0:0:
288,40,81890,1,0,0:0:0:0:
432,232,82390,6,0,P|364:284|308:276,1,140,8|0,0:0|0:0,0:0:0:0:
80,232,82640,2,0,P|148:284|204:276,1,140,8|0,0:0|0:0,0:0:0:0:
256,336,82890,1,12,0:0:0:0:
256,256,83140,1,0,0:0:0:0:
256,176,83390,1,0,0:0:0:0:
256,96,83640,1,0,0:0:0:0:
456,164,83890,6,0,L|424:304,1,140
56,164,84391,2,0,L|88:304,1,140
116,224,84891,6,0,P|164:232|184:256,1,70
324,120,85141,2,0,P|276:112|256:88,1,70,0|0,0:0|0:0,0:0:0:0:
192,284,85391,2,0,P|240:292|260:316,1,70
400,180,85641,2,0,P|352:172|332:148,1,70,0|0,0:0|0:0,0:0:0:0:
200,72,85891,6,0,P|164:100|140:208,1,140
312,72,86391,2,0,P|348:100|372:208,1,140
184,224,86891,6,0,P|152:252|48:284,1,140
328,224,87392,2,0,P|360:252|464:284,1,140
424,184,87892,6,0,L|344:168,1,70
268,220,88142,2,0,L|348:236,1,70,0|0,0:0|0:0,0:0:0:0:
276,148,88392,2,0,L|196:132,1,70
120,184,88642,2,0,L|200:200,1,70,0|0,0:0|0:0,0:0:0:0:
256,260,88892,6,0,L|256:336,1,70
256,124,89142,2,0,L|256:48,1,70
180,216,89392,2,0,L|124:276,1,70
332,168,89643,2,0,L|388:108,1,70
432,244,89893,6,0,L|276:292,1,140,0|0,0:0|0:0,0:0:0:0:
356,184,90393,2,0,L|200:232,1,140,0|0,0:0|0:0,0:0:0:0:
96,116,90893,6,0,L|176:92,2,70,0|0|0,0:0|0:0|0:0,0:0:0:0:
176,192,91268,2,0,L|256:168,2,70,0|0|0,0:0|0:0|0:0,0:0:0:0:
72,304,91643,2,0,L|152:280,1,70,0|0,0:0|0:0,0:0:0:0:
268,272,91893,6,0,P|308:296|324:328,1,70
368,120,92143,2,0,P|392:152|392:188,1,70
320,248,92394,1,0,0:0:0:0:
396,184,92519,1,0,0:0:0:0:
320,248,92644,1,0,0:0:0:0:
396,184,92769,1,0,0:0:0:0:
336,104,92894,6,0,L|268:88,1,70,0|0,0:0|0:0,0:0:0:0:
168,144,93144,2,0,L|236:160,1,70,0|0,0:0|0:0,0:0:0:0:
344,216,93394,2,0,P|364:264|348:292,1,70
272,348,93644,2,0,P|256:312|264:280,1,70
116,204,93894,6,0,L|200:196,1,70,0|0,0:0|0:0,0:0:0:0:
396,204,94144,2,0,L|312:196,1,70,0|0,0:0|0:0,0:0:0:0:
256,184,94394,1,0,0:0:0:0:
176,184,94519,1,0,0:0:0:0:
156,256,94644,1,0,0:0:0:0:
228,304,94770,1,0,0:0:0:0:
288,256,94895,6,0,P|320:280|340:320,1,70
444,260,95145,2,0,P|416:228|404:192,1,70
248,68,95395,2,0,P|240:108|216:140,1,70
328,344,95645,2,0,P|328:308|352:264,1,70
384,168,95895,6,0,L|352:104,1,70
252,168,96145,2,0,L|184:144,1,70
144,284,96395,2,0,L|224:264,1,70
320,336,96645,2,0,L|384:292,1,70
416,184,96895,5,8,0:0:0:0:
348,44,97145,1,8,0:0:0:0:
348,44,97270,2,8,L|360:164,1,105.000004005432
252,96,97521,1,8,0:0:0:0:
252,96,97646,2,8,L|264:216,1,105.000004005432
148,156,97896,2,8,L|160:276,1,105.000004005432
52,208,98147,1,8,0:0:0:0:
52,208,98272,2,8,L|64:328,1,105.000004005432
449,312,98521,1,8,0:0:0:0:
449,312,98646,2,8,L|460:208,1,105.000004005432
256,192,98896,1,8,0:0:0:0:
80,184,105899,6,0,B|212:152|212:152|216:68,1,210.000008010865,8|0,0:0|0:0,0:0:0:0:
432,184,106274,2,0,B|300:152|300:152|296:68,1,210.000008010865,8|0,0:0|0:0,0:0:0:0:
256,196,106649,2,0,L|256:312,1,105.000004005432,8|0,0:0|0:0,0:0:0:0:
392,344,106899,6,0,L|340:192,1,140,8|0,0:0|0:0,0:0:0:0:
120,344,107149,2,0,L|172:192,1,140,8|0,0:0|0:0,0:0:0:0:
165,211,107399,1,8,0:0:0:0:
346,211,107524,1,0,0:0:0:0:
165,211,107649,1,8,0:0:0:0:
346,211,107774,1,0,0:0:0:0:
302,166,107900,6,0,P|333:108|400:112,1,140,8|0,0:0|0:0,0:0:0:0:
209,217,108150,2,0,P|178:275|112:272,1,140,8|0,0:0|0:0,0:0:0:0:
292,256,108400,2,0,P|328:324|296:372,1,140,8|0,0:0|0:0,0:0:0:0:
220,128,108650,2,0,P|184:60|216:12,1,140,8|0,0:0|0:0,0:0:0:0:
280,36,108900,5,8,0:0:0:0:
348,68,109025,1,0,0:0:0:0:
416,100,109150,1,8,0:0:0:0:
484,132,109275,1,0,0:0:0:0:
460,204,109400,2,0,P|424:276|428:340,1,140,8|0,0:0|0:0,0:0:0:0:
300,260,109650,2,0,P|299:190|266:130,1,140,8|0,0:0|0:0,0:0:0:0:
172,60,109900,6,0,B|96:88|96:88|64:164,1,140,8|0,0:0|0:0,0:0:0:0:
176,320,110150,2,0,B|100:292|100:292|68:216,1,140,8|0,0:0|0:0,0:0:0:0:
192,144,110400,2,0,B|112:156|112:156|56:192,1,140,8|0,0:0|0:0,0:0:0:0:
320,240,110651,2,0,B|400:228|400:228|456:192,1,140,8|0,0:0|0:0,0:0:0:0:
368,72,110901,6,0,L|230:45,1,140,8|0,0:0|0:0,0:0:0:0:
120,108,111151,1,8,0:0:0:0:
256,132,111276,1,0,0:0:0:0:
176,228,111401,2,0,L|313:201,1,140,8|0,0:0|0:0,0:0:0:0:
424,264,111651,1,8,0:0:0:0:
288,288,111776,1,0,0:0:0:0:
144,308,111901,2,0,L|128:152,1,140,8|0,0:0|0:0,0:0:0:0:
368,76,112151,2,0,L|384:232,1,140,8|0,0:0|0:0,0:0:0:0:
256,344,112401,2,0,B|256:120|256:120|256:184,1,280,8|0,0:0|0:0,0:0:0:0:
112,56,113152,6,0,B|136:144|136:144|192:168,1,140
400,56,113402,2,0,B|376:144|376:144|320:168,1,140
256,220,113652,2,0,L|256:360,1,140
364,264,113902,6,0,L|312:108,1,140
319,131,114089,1,0,0:0:0:0:
319,131,114152,1,0,0:0:0:0:
148,264,114277,6,0,L|200:108,1,140
193,131,114464,1,0,0:0:0:0:
193,131,114527,1,0,0:0:0:0:
256,44,114652,6,0,L|256:192,1,140
208,288,114902,6,0,L|48:248,1,140,8|0,0:0|0:0,0:0:0:0:
304,288,115152,2,0,L|464:248,1,140,8|0,0:0|0:0,0:0:0:0:
128,136,115402,2,0,L|157:272,1,140,8|0,0:0|0:0,0:0:0:0:
384,136,115653,2,0,L|354:272,1,140,8|0,0:0|0:0,0:0:0:0:
128,108,115903,6,0,P|200:64|268:68,1,140,8|0,0:0|0:0,0:0:0:0:
384,276,116153,2,0,P|312:320|244:316,1,140,8|0,0:0|0:0,0:0:0:0:
258,64,116403,2,0,P|327:68|384:108,1,140,8|0,0:0|0:0,0:0:0:0:
253,319,116653,2,0,P|184:315|128:276,1,140,8|0,0:0|0:0,0:0:0:0:
100,204,116903,5,8,0:0:0:0:
176,220,117028,1,0,0:0:0:0:
152,140,117153,1,8,0:0:0:0:
228,156,117278,1,0,0:0:0:0:
204,80,117403,1,8,0:0:0:0:
280,96,117528,1,0,0:0:0:0:
360,56,117653,2,0,P|408:128|416:192,1,140,8|0,0:0|0:0,0:0:0:0:
320,240,117903,6,0,B|416:308|416:308|444:296,2,140,8|0|8,0:0|0:0|0:0,0:0:0:0:
192,240,118279,2,0,B|96:308|96:308|68:296,2,140,0|8|0,0:0|0:0|0:0,0:0:0:0:
256,184,118654,2,0,B|256:68|256:68|256:104,1,140,8|0,0:0|0:0,0:0:0:0:
360,140,118904,6,0,B|344:216|344:216|316:280,1,140,8|0,0:0|0:0,0:0:0:0:
256,336,119154,1,8,0:0:0:0:
256,336,119279,1,0,0:0:0:0:
156,64,119404,2,0,B|172:140|172:140|200:204,1,140,8|0,0:0|0:0,0:0:0:0:
256,336,119654,1,8,0:0:0:0:
256,336,119779,1,0,0:0:0:0:
320,200,119904,2,0,P|392:216|432:272,1,140,8|0,0:0|0:0,0:0:0:0:
316,336,120154,2,0,P|244:320|204:264,1,140,8|0,0:0|0:0,0:0:0:0:
104,164,120404,2,0,P|168:108|352:136,1,280,8|0,0:0|0:0,0:0:0:0:
440,264,121155,6,0,B|372:244|372:244|328:180,1,140
404,144,121405,2,0,B|356:80|356:80|364:16,1,140
264,44,121655,2,0,B|208:88|208:88|120:80,1,140
84,144,121905,5,0,0:0:0:0:
164,168,122030,1,0,0:0:0:0:
168,252,122155,1,0,0:0:0:0:
84,144,122280,5,0,0:0:0:0:
160,108,122405,1,0,0:0:0:0:
232,156,122530,1,0,0:0:0:0:
84,144,122655,5,0,0:0:0:0:
112,60,122780,1,0,0:0:0:0:
196,44,122905,2,0,L|276:48,6,70,0|0|0|0|0|0|0,0:0|0:0|0:0|0:0|0:0|0:0|0:0,0:0:0:0:
240,120,123405,6,0,L|404:128,1,140,8|0,0:0|0:0,0:0:0:0:
272,264,123656,2,0,L|108:256,1,140,8|0,0:0|0:0,0:0:0:0:
372,192,123906,1,12,0:0:0:0:
116,208,126907,5,0,0:0:0:0:
196,288,127032,2,0,P|276:256|456:320,1,280
416,164,127407,1,0,0:0:0:0:
316,156,127532,1,0,0:0:0:0:
300,68,127657,2,0,L|144:40,1,140
