osu file format v13

[General]
AudioFilename: OMEGA RHYTHM -1-.mp3
AudioLeadIn: 0
PreviewTime: 32548
Countdown: 1
SampleSet: Normal
StackLeniency: 0.7
Mode: 0
LetterboxInBreaks: 1
WidescreenStoryboard: 1

[Editor]
DistanceSpacing: 1
BeatDivisor: 4
GridSize: 4
TimelineZoom: 2.799999

[Metadata]
Title:Omega Rhythm(BPM210.Ver)
TitleUnicode:Omega Rhythm(BPM210.Ver)
Artist:UPLIFT SPICE
ArtistUnicode:UPLIFT SPICE
Creator:Th1ty
Version:eXtra
Source:
Tags:
BeatmapID:589477
BeatmapSetID:153455

[Difficulty]
HPDrainRate:7
CircleSize:4
OverallDifficulty:8
ApproachRate:9.5
SliderMultiplier:1.8
SliderTickRate:1

[Events]
//Background and Video events
0,0,"bg.jpg",0,0
//Break Periods
2,52603,56449
//Storyboard Layer 0 (Background)
//Storyboard Layer 1 (Fail)
//Storyboard Layer 2 (Pass)
//Storyboard Layer 3 (Foreground)
//Storyboard Sound Samples

[TimingPoints]
980,285.684356876899,4,1,0,70,1,0
23834,-200,4,1,0,70,0,0
28977,-133.333333333333,4,1,0,70,0,0
29548,-100,4,1,0,70,0,0
30119,-80,4,1,0,70,0,0
30691,-100,4,1,0,5,0,0
30691,-100,4,1,0,5,0,0
31833,-100,4,1,0,12,0,0
31833,-100,4,1,0,70,0,0
31905,-100,4,1,0,24,0,0
31976,-100,4,1,0,36,0,0
32048,-100,4,1,0,48,0,0
32119,-100,4,1,0,60,0,0
32191,-100,4,1,0,72,0,0
32262,-100,4,1,0,84,0,0
32548,-80,4,1,0,70,0,1
52403,-100,4,1,0,70,0,0
66180,-200,4,1,0,70,0,0
70972,-133.333333333333,4,1,0,70,0,0
72972,-100,4,1,0,70,0,0
75257,-100,4,1,0,70,0,1
110682,-200,4,1,0,70,0,0
111200,-100,4,1,0,70,0,0
121824,-66.6666666666667,4,1,0,70,0,0
121967,-100,4,1,0,70,0,0

[HitObjects]
154,182,980,5,0,0:0:0:0:
154,182,1122,1,0,0:0:0:0:
153,181,1265,2,0,P|161:138|194:109,1,90,0|0,0:0|0:0,0:0:0:0:
358,202,1551,2,0,P|350:245|317:274,1,90,0|0,0:0|0:0,0:0:0:0:
256,336,1837,1,0,0:0:0:0:
195,276,1979,1,0,0:0:0:0:
386,276,2122,6,0,B|363:276|351:299|351:299|340:276|317:276,1,90
256,336,2408,1,0,0:0:0:0:
195,276,2551,1,0,0:0:0:0:
195,163,2694,5,0,0:0:0:0:
292,106,2836,1,0,0:0:0:0:
389,163,2979,1,0,0:0:0:0:
389,276,3122,1,0,0:0:0:0:
103,239,3265,6,0,B|86:229|86:229|73:178|73:178|82:163,1,90
188,134,3551,1,0,0:0:0:0:
292,106,3694,1,0,0:0:0:0:
82,163,3836,6,0,B|73:178|73:178|86:229|86:229|103:239,1,90
194,239,4122,1,0,0:0:0:0:
284,239,4265,1,0,0:0:0:0:
347,316,4408,6,0,P|311:340|267:338,1,90
165,68,4693,2,0,P|201:44|245:46,1,90
256,192,4979,1,0,0:0:0:0:
256,192,5051,1,0,0:0:0:0:
256,192,5122,1,0,0:0:0:0:
359,150,5265,2,0,P|374:192|360:235,2,90
152,151,5693,5,8,0:0:0:0:
124,255,5836,1,0,0:0:0:0:
200,331,5979,1,0,0:0:0:0:
150,132,6122,5,8,0:0:0:0:
117,256,6260,1,0,0:0:0:0:
208,348,6408,1,8,0:0:0:0:
208,348,6479,1,0,0:0:0:0:
208,348,6550,1,0,0:0:0:0:
214,213,6693,6,0,B|234:202|234:202|255:213|276:202|276:202|296:213,1,90,8|0,0:0|0:0,0:0:0:0:
303,348,6979,1,0,0:0:0:0:
428,296,7122,2,2,P|414:253|428:211,1,90,2|0,0:0|0:0,0:0:0:0:
343,43,7407,2,2,P|357:85|344:128,1,90,2|0,0:0|0:0,0:0:0:0:
256,232,7693,5,8,0:0:0:0:
373,164,7836,1,0,0:0:0:0:
138,164,7979,1,8,0:0:0:0:
256,232,8122,2,0,P|296:218|339:232,1,90,8|0,0:0|0:0,0:0:0:0:
320,352,8407,5,8,0:0:0:0:
192,352,8550,1,8,0:0:0:0:
256,192,8693,1,8,0:0:0:0:
96,224,8836,5,8,0:0:0:0:
159,95,8979,2,0,P|145:54|158:12,1,90,0|8,0:0|0:0,0:0:0:0:
288,52,9264,1,0,0:0:0:0:
444,52,9407,2,2,B|405:12|366:52|366:52|327:91|288:52,1,180,10|2,0:0|0:0,0:0:0:0:
256,192,9836,1,0,0:0:0:0:
391,192,9979,6,0,P|333:249|391:306,1,180,8|8,0:0|0:0,0:0:0:0:
298,361,10407,2,0,P|255:347|214:362,1,90,8|0,0:0|0:0,0:0:0:0:
118,266,10693,1,8,0:0:0:0:
213,170,10836,1,8,0:0:0:0:
118,75,10978,1,8,0:0:0:0:
256,272,11121,1,0,0:0:0:0:
213,170,11264,6,0,B|255:184|255:184|297:170,2,90,8|0|8,0:0|0:0|0:0,0:0:0:0:
341,299,11693,2,2,B|256:327|256:327|171:299,1,180,10|10,0:0|0:0,0:0:0:0:
256,192,12121,1,0,0:0:0:0:
329,272,12264,6,0,B|255:321|255:321|181:272,1,180,8|8,0:0|0:0,0:0:0:0:
88,148,12693,2,0,P|93:103|130:89,1,90,8|8,0:0|0:0,0:0:0:0:
225,99,12978,2,0,B|245:109|255:129|255:129|266:109|286:99,1,90,8|8,0:0|0:0,0:0:0:0:
380,90,13264,2,0,P|420:105|424:148,1,90,8|8,0:0|0:0,0:0:0:0:
180,272,13550,5,0,0:0:0:0:
332,272,13692,1,0,0:0:0:0:
88,148,13835,1,8,0:0:0:0:
88,148,13907,1,8,0:0:0:0:
88,148,13978,1,8,0:0:0:0:
332,272,14121,5,0,0:0:0:0:
180,272,14264,1,0,0:0:0:0:
424,148,14407,1,8,0:0:0:0:
424,148,14478,1,8,0:0:0:0:
424,148,14550,1,8,0:0:0:0:
424,148,14621,1,8,0:0:0:0:
424,148,14692,6,0,B|416:140|416:140|416:71|416:71|424:63,1,90,4|0,0:0|0:0,0:0:0:0:
328,245,14978,1,8,0:0:0:0:
256,128,15121,1,0,0:0:0:0:
184,245,15264,2,0,L|136:327,1,90
328,245,15549,2,0,L|417:244,1,90,8|0,0:0|0:0,0:0:0:0:
417,135,15835,5,0,0:0:0:0:
328,353,15978,1,0,0:0:0:0:
417,135,16121,1,8,0:0:0:0:
292,192,16264,2,0,B|316:143|279:119|255:131|231:119|195:143|219:192,1,180
186,223,16621,1,0,0:0:0:0:
217,254,16692,1,8,0:0:0:0:
320,292,16835,6,0,B|347:310|375:292|375:292|357:319|375:347|375:347|347:329|320:347,1,180
124,288,17264,1,8,0:0:0:0:
124,68,17406,1,0,0:0:0:0:
44,178,17549,1,0,0:0:0:0:
256,112,17692,1,0,0:0:0:0:
348,289,17835,2,0,P|363:248|350:206,1,90,8|0,0:0|0:0,0:0:0:0:
160,179,18121,5,0,0:0:0:0:
256,24,18263,1,0,0:0:0:0:
352,179,18406,1,8,0:0:0:0:
168,314,18549,2,0,B|203:296|256:314|256:314|308:296|343:314,1,180
343,314,18906,1,0,0:0:0:0:
344,314,18978,5,8,0:0:0:0:
256,212,19120,2,0,B|240:148|240:148|271:148|271:148|256:68,1,180
148,88,19549,1,8,0:0:0:0:
364,204,19692,1,0,0:0:0:0:
256,284,19835,5,0,0:0:0:0:
148,204,19978,1,8,0:0:0:0:
364,204,20120,1,8,0:0:0:0:
256,284,20263,1,8,0:0:0:0:
256,135,20406,5,0,0:0:0:0:
118,270,20549,1,0,0:0:0:0:
390,268,20692,1,8,0:0:0:0:
320,132,20835,2,0,B|287:115|255:180|255:180|223:115|191:132,1,180
256,44,21263,1,8,0:0:0:0:
172,192,21406,6,0,P|256:164|339:192,1,180
256,354,21834,2,0,L|256:264,1,90,8|0,0:0|0:0,0:0:0:0:
422,44,22120,1,8,0:0:0:0:
368,246,22263,1,8,0:0:0:0:
368,138,22406,1,8,0:0:0:0:
422,339,22549,1,8,0:0:0:0:
256,120,22692,6,0,L|256:30,1,90,4|0,0:0|0:0,0:0:0:0:
256,228,22977,1,8,0:0:0:0:
224,259,23049,1,0,0:0:0:0:
193,290,23120,1,0,0:0:0:0:
95,110,23263,6,0,P|82:152|97:194,1,90,4|0,0:0|0:0,0:0:0:0:
180,40,23549,1,8,0:0:0:0:
214,68,23620,1,8,0:0:0:0:
257,78,23691,1,8,0:0:0:0:
301,68,23763,1,8,0:0:0:0:
335,39,23834,6,0,P|291:112|335:185,1,180,4|0,0:0|0:0,0:0:0:0:
256,264,24548,1,0,0:0:0:0:
156,228,24691,1,0,0:0:0:0:
110,130,24834,1,0,0:0:0:0:
214,160,24977,6,0,P|255:173|297:160,1,90
256,60,25406,1,0,0:0:0:0:
374,83,25548,2,0,P|393:122|432:141,1,90
460,247,25977,1,0,0:0:0:0:
356,218,26120,2,0,L|356:320,2,90
256,176,26834,5,0,0:0:0:0:
210,271,26977,2,0,L|187:310,1,45
110,233,27262,2,0,P|95:191|109:149,1,90
403,149,27691,2,0,P|416:191|402:233,2,90
256,192,28405,5,2,0:0:0:0:
242,216,28548,1,0,0:0:0:0:
228,240,28691,2,0,L|196:295,1,45
349,264,28977,5,2,0:0:0:0:
370,228,29119,1,0,0:0:0:0:
391,192,29262,2,0,L|431:122,1,67.5000025749208
276,156,29548,5,2,0:0:0:0:
246,209,29691,1,0,0:0:0:0:
215,261,29834,2,0,L|159:357,1,90
319,313,30119,5,2,0:0:0:0:
369,228,30262,1,0,0:0:0:0:
420,144,30405,2,0,L|476:47,1,112.5
284,116,30691,6,0,P|219:79|228:116,1,180,2|0,0:0|0:0,0:0:0:0:
96,192,31119,1,0,0:0:0:0:
336,224,31262,1,0,0:0:0:0:
192,336,31405,1,0,0:0:0:0:
256,80,31548,1,0,0:0:0:0:
320,356,31691,1,0,0:0:0:0:
155,192,31833,5,8,0:0:0:0:
203,167,31905,1,8,0:0:0:0:
256,158,31976,1,8,0:0:0:0:
309,167,32048,1,8,0:0:0:0:
357,192,32119,6,4,L|411:160,2,45
256,296,32548,2,0,L|256:64,1,225
202,232,32976,2,0,B|255:205|309:232,1,112.5
429,351,33262,1,8,0:0:0:0:
429,57,33405,1,0,0:0:0:0:
345,204,33548,5,0,0:0:0:0:
309,39,33690,1,0,0:0:0:0:
309,39,33762,1,0,0:0:0:0:
309,39,33833,2,0,B|255:65|201:39,1,112.5,8|0,0:0|0:0,0:0:0:0:
167,204,34119,5,0,0:0:0:0:
140,36,34262,1,0,0:0:0:0:
5,246,34405,2,0,B|-21:192|5:138,1,112.5,8|0,0:0|0:0,0:0:0:0:
168,204,34690,2,0,B|194:257|168:311,1,112.5
5,246,34976,1,8,0:0:0:0:
256,192,35119,5,0,0:0:0:0:
172,344,35262,1,8,0:0:0:0:
336,308,35404,1,8,0:0:0:0:
256,169,35547,5,8,0:0:0:0:
151,359,35690,1,8,0:0:0:0:
356,314,35833,1,0,0:0:0:0:
174,249,35976,2,0,B|214:249|214:249|255:276|295:249|295:249|336:249,1,168.75,8|0,0:0|0:0,0:0:0:0:
256,196,36262,2,0,L|256:308,1,112.5,8|0,0:0|0:0,0:0:0:0:
388,332,36547,1,0,0:0:0:0:
124,332,36690,2,0,P|85:280|80:229,1,112.5,8|0,0:0|0:0,0:0:0:0:
110,51,36976,5,0,0:0:0:0:
256,196,37119,1,0,0:0:0:0:
42,168,37261,1,8,0:0:0:0:
137,264,37404,1,0,0:0:0:0:
321,312,37547,6,0,B|281:272|281:272|255:285|228:272|228:272|189:312,1,168.75
135,257,37833,2,0,B|176:217|176:217|163:191|176:164|176:164|136:125,1,168.75,8|0,0:0|0:0,0:0:0:0:
187,70,38118,2,0,B|229:111|229:111|256:98|282:111|282:111|322:72,1,168.75
377,123,38404,2,0,B|337:164|337:164|350:191|337:217|337:217|376:257,1,168.75,8|0,0:0|0:0,0:0:0:0:
324,345,38690,6,0,B|324:310|324:310|255:379|187:310|187:310|187:342,2,225,0|8|0,0:0|0:0|0:0,0:0:0:0:
256,76,39404,1,0,0:0:0:0:
120,210,39547,1,8,0:0:0:0:
392,210,39690,1,0,0:0:0:0:
302,170,39833,2,0,B|255:139|255:139|209:170,1,112.5
301,224,40118,5,0,0:0:0:0:
297,211,40190,1,0,0:0:0:0:
295,197,40261,1,0,0:0:0:0:
297,183,40333,1,0,0:0:0:0:
300,172,40404,1,0,0:0:0:0:
479,145,40547,2,0,B|458:87|403:68,1,112.5
256,20,40832,1,0,0:0:0:0:
358,266,40975,5,8,0:0:0:0:
344,242,41047,1,8,0:0:0:0:
330,218,41118,1,8,0:0:0:0:
316,194,41190,1,8,0:0:0:0:
302,170,41261,1,8,0:0:0:0:
202,59,41404,5,8,0:0:0:0:
229,51,41475,1,8,0:0:0:0:
256,48,41547,1,8,0:0:0:0:
284,51,41618,1,8,0:0:0:0:
311,59,41690,1,8,0:0:0:0:
256,192,41832,6,0,L|256:136,2,56.25,8|8|0,0:0|0:0|0:0,0:0:0:0:
124,88,42118,5,0,0:0:0:0:
48,240,42261,1,0,0:0:0:0:
200,164,42404,1,8,0:0:0:0:
152,328,42547,1,0,0:0:0:0:
200,164,42689,1,0,0:0:0:0:
200,332,42832,6,0,L|311:332,2,112.5,0|8|0,0:0|0:0|0:0,0:0:0:0:
312,164,43261,5,0,0:0:0:0:
360,328,43404,1,0,0:0:0:0:
388,88,43546,1,8,0:0:0:0:
464,240,43689,1,0,0:0:0:0:
300,232,43832,2,0,P|256:261|212:232,2,112.5,0|8|8,0:0|0:0|0:0,0:0:0:0:
256,128,44261,5,2,0:0:0:0:
384,128,44404,2,0,B|423:82|411:23,1,112.5,2|2,0:0|0:0,0:0:0:0:
256,8,44689,1,2,0:0:0:0:
101,123,44832,2,0,B|89:182|128:228,1,112.5,2|2,0:0|0:0,0:0:0:0:
418,148,45118,6,0,L|256:192,1,168.75,2|0,0:0|0:0,0:0:0:0:
282,297,45403,2,0,B|294:238|255:192,1,112.5,2|0,0:0|0:0,0:0:0:0:
94,149,45689,1,0,0:0:0:0:
177,324,45832,2,0,B|236:336|282:297,1,112.5,8|0,0:0|0:0,0:0:0:0:
256,192,46118,5,0,0:0:0:0:
424,192,46260,1,0,0:0:0:0:
310,221,46403,5,8,0:0:0:0:
369,162,46546,1,0,0:0:0:0:
340,234,46689,5,0,0:0:0:0:
340,150,46832,1,0,0:0:0:0:
399,251,46975,5,8,0:0:0:0:
280,132,47118,1,0,0:0:0:0:
382,192,47260,5,0,0:0:0:0:
298,192,47403,1,0,0:0:0:0:
399,132,47546,5,8,0:0:0:0:
280,251,47689,1,0,0:0:0:0:
236,88,47832,5,0,0:0:0:0:
231,251,47975,1,0,0:0:0:0:
276,63,48117,2,0,B|328:80|328:80|381:63,1,112.5,8|0,0:0|0:0,0:0:0:0:
231,276,48403,2,0,B|178:258|178:258|125:276,1,112.5
366,251,48689,2,0,L|366:107,1,112.5,8|0,0:0|0:0,0:0:0:0:
256,60,48974,2,0,L|256:188,1,112.5
221,304,49260,6,0,B|221:338|255:338|255:338|289:338|289:304,2,112.5,0|0|0,0:0|0:0|0:0,0:0:0:0:
101,184,49689,2,0,B|94:149|52:135|52:135|94:122|107:80|107:80|121:122|156:128,1,225
256,36,50117,5,0,0:0:0:0:
184,132,50260,1,8,0:0:0:0:
192,145,50331,1,8,0:0:0:0:
200,159,50403,1,8,0:0:0:0:
329,198,50546,1,8,0:0:0:0:
323,213,50617,1,8,0:0:0:0:
318,228,50689,1,8,0:0:0:0:
184,132,50831,5,8,0:0:0:0:
208,258,50974,1,8,0:0:0:0:
200,272,51046,1,8,0:0:0:0:
192,286,51117,1,8,0:0:0:0:
184,300,51189,1,8,0:0:0:0:
176,314,51260,1,8,0:0:0:0:
248,350,51403,6,0,P|196:336|128:356,1,112.5
312,272,51688,1,0,0:0:0:0:
312,272,51760,1,0,0:0:0:0:
312,272,51831,1,2,0:0:0:0:
347,162,51974,1,2,0:0:0:0:
256,96,52117,1,2,0:0:0:0:
165,162,52260,1,2,0:0:0:0:
256,192,52403,5,6,0:0:0:0:
184,264,56974,5,0,0:0:0:0:
256,136,57116,1,0,0:0:0:0:
328,264,57259,1,8,0:0:0:0:
155,238,57402,5,0,0:0:0:0:
283,106,57545,1,0,0:0:0:0:
329,285,57688,1,0,0:0:0:0:
306,142,57831,2,0,P|317:100|352:73,1,90,8|0,0:0|0:0,0:0:0:0:
205,143,58116,6,8,P|194:100|158:73,2,90,8|8|8,0:0|0:0|0:0,0:0:0:0:
205,241,58545,2,8,P|194:284|158:311,2,90,8|8|8,0:0|0:0|0:0,0:0:0:0:
205,241,58902,1,0,0:0:0:0:
205,241,58973,1,0,0:0:0:0:
309,142,59116,5,0,0:0:0:0:
441,107,59259,1,0,0:0:0:0:
405,238,59402,1,0,0:0:0:0:
256,112,59545,1,8,0:0:0:0:
256,256,59688,1,0,0:0:0:0:
143,66,59830,5,8,0:0:0:0:
143,291,59973,1,0,0:0:0:0:
338,180,60116,1,8,0:0:0:0:
96,144,60259,6,0,P|138:130|180:144,1,90,10|0,0:0|0:0,0:0:0:0:
416,240,60545,2,0,P|374:254|332:240,1,90,10|0,0:0|0:0,0:0:0:0:
160,212,60830,2,2,B|106:197|120:144|120:144|135:91|81:76,1,180,2|2,0:0|0:0,0:0:0:0:
256,64,61259,1,0,0:0:0:0:
430,76,61402,6,0,B|376:91|391:144|391:144|405:197|352:212,1,180
256,124,61830,1,8,0:0:0:0:
256,260,61973,1,8,0:0:0:0:
87,23,62116,2,0,P|78:66|44:95,1,90,8|8,0:0|0:0,0:0:0:0:
425,361,62402,2,0,P|434:318|468:289,1,90,8|8,0:0|0:0,0:0:0:0:
214,205,62687,6,0,P|256:191|298:206,1,90,8|8,0:0|0:0,0:0:0:0:
430,240,62973,1,8,0:0:0:0:
328,328,63116,2,0,P|257:280|186:328,1,180,8|8,0:0|0:0,0:0:0:0:
187,328,63473,1,0,0:0:0:0:
187,328,63544,1,0,0:0:0:0:
177,129,63687,6,0,P|158:89|119:71,1,90
48,192,63973,1,0,0:0:0:0:
179,254,64116,2,0,P|160:294|119:313,1,90,8|0,0:0|0:0,0:0:0:0:
333,129,64401,2,0,P|351:90|391:71,1,90
391,312,64687,2,0,P|351:293|333:254,1,90,8|0,0:0|0:0,0:0:0:0:
156,328,64973,5,8,0:0:0:0:
256,288,65116,1,0,0:0:0:0:
256,192,65258,1,8,0:0:0:0:
256,201,65330,1,8,0:0:0:0:
256,209,65401,1,8,0:0:0:0:
156,328,65544,5,0,0:0:0:0:
356,328,65687,1,0,0:0:0:0:
256,192,65830,1,8,0:0:0:0:
256,200,65901,1,8,0:0:0:0:
256,209,65973,1,8,0:0:0:0:
256,217,66044,1,8,0:0:0:0:
256,226,66116,5,4,0:0:0:0:
256,368,66401,1,0,0:0:0:0:
356,328,66544,1,0,0:0:0:0:
256,288,66687,6,0,L|256:184,1,90
151,185,67115,1,0,0:0:0:0:
216,68,67258,2,0,P|254:48|292:68,1,90
256,148,67687,1,0,0:0:0:0:
361,185,67830,2,0,L|416:272,1,90
159,165,68258,1,0,0:0:0:0:
156,176,68330,1,0,0:0:0:0:
151,185,68401,2,0,L|96:272,1,90,2|0,0:0|0:0,0:0:0:0:
256,241,68830,6,8,L|256:264,3,22.5
256,160,69115,2,0,L|256:128,1,22.5,4|4,0:0|0:0,0:0:0:0:
176,284,69258,2,4,L|160:308,1,22.5
336,284,69401,2,4,L|352:308,1,22.5
173,120,69544,6,0,L|128:120,2,45
267,200,69972,2,0,L|312:200,2,45
211,299,70401,2,0,L|148:236,1,90
80,120,70829,5,0,0:0:0:0:
223,151,70972,2,0,P|256:159|287:151,1,67.5000025749208,2|0,0:0|0:0,0:0:0:0:
432,120,71258,5,0,0:0:0:0:
432,120,71401,1,0,0:0:0:0:
336,272,71544,2,0,P|319:301|319:333,1,67.5000025749208,2|0,0:0|0:0,0:0:0:0:
192,334,71829,5,0,0:0:0:0:
192,334,71972,1,0,0:0:0:0:
176,112,72115,2,0,P|192:82|192:50,1,67.5000025749208,2|0,0:0|0:0,0:0:0:0:
176,272,72401,2,0,P|146:255|114:255,1,67.5000025749208,2|0,0:0|0:0,0:0:0:0:
336,272,72686,2,0,P|319:301|319:333,1,67.5000025749208,2|0,0:0|0:0,0:0:0:0:
175,133,72972,6,0,B|215:173|255:153|255:153|295:173|336:132,1,180,8|8,0:3|0:3,0:0:0:0:
256,40,73400,1,8,0:3:0:0:
104,284,73543,1,8,0:3:0:0:
408,284,73686,1,8,0:3:0:0:
256,112,73829,1,4,0:3:0:0:
256,336,73972,1,4,0:3:0:0:
174,192,74115,5,8,0:0:0:0:
212,167,74186,1,8,0:0:0:0:
256,159,74258,1,8,0:0:0:0:
300,168,74329,1,8,0:0:0:0:
336,192,74400,2,8,P|379:203|421:192,1,90
336,57,74686,5,8,0:0:0:0:
294,74,74757,1,8,0:0:0:0:
262,104,74829,1,8,0:0:0:0:
250,147,74900,1,8,0:0:0:0:
256,192,74972,1,8,0:0:0:0:
261,236,75043,1,8,0:0:0:0:
249,279,75115,1,8,0:0:0:0:
216,310,75186,1,8,0:0:0:0:
175,326,75257,6,0,P|132:337|88:325,1,90,0|0,0:0|0:0,0:0:0:0:
40,72,75543,2,0,P|51:114|83:146,1,90,8|0,0:0|0:0,0:0:0:0:
256,68,75829,5,0,0:0:0:0:
380,144,75972,1,0,0:0:0:0:
132,240,76114,1,8,0:0:0:0:
256,304,76257,6,0,P|294:288|287:247,1,90
128,192,76543,1,0,0:0:0:0:
256,80,76686,2,0,P|217:95|224:136,1,90,8|0,0:0|0:0,0:0:0:0:
384,192,76972,1,0,0:0:0:0:
256,304,77115,1,0,0:0:0:0:
256,304,77186,1,0,0:0:0:0:
256,304,77257,1,8,0:0:0:0:
144,240,77400,6,0,P|130:198|144:156,1,90
368,156,77686,1,0,0:0:0:0:
208,80,77829,6,0,P|249:66|291:80,1,90,8|0,0:0|0:0,0:0:0:0:
292,304,78114,1,0,0:0:0:0:
368,144,78257,6,0,P|381:185|368:227,1,90,0|8,0:0|0:0,0:0:0:0:
144,228,78543,1,0,0:0:0:0:
220,80,78686,5,8,0:0:0:0:
368,156,78828,1,8,0:0:0:0:
292,304,78971,1,8,0:0:0:0:
256,192,79114,1,8,0:0:0:0:
107,289,79257,5,0,0:0:0:0:
200,344,79400,1,0,0:0:0:0:
308,344,79543,1,0,0:0:0:0:
401,289,79686,1,0,0:0:0:0:
200,40,79828,6,0,L|100:40,1,90
308,344,80114,2,0,L|404:344,1,90,8|0,0:0|0:0,0:0:0:0:
408,136,80400,2,0,L|408:36,1,90
104,244,80685,2,0,L|104:340,1,90,8|0,0:0|0:0,0:0:0:0:
187,144,80971,6,0,B|187:102|228:130|228:130|255:144|282:130|282:130|323:102|323:144,1,180,0|8,0:0|0:0,0:0:0:0:
323,144,81400,1,0,0:0:0:0:
256,260,81542,1,0,0:0:0:0:
256,260,81614,1,0,0:0:0:0:
256,260,81685,1,0,0:0:0:0:
384,308,81828,2,0,L|464:252,2,90,8|0|0,0:0|0:0|0:0,0:0:0:0:
256,260,82257,1,0,0:0:0:0:
128,308,82400,6,8,L|54:256,2,90
280,304,82828,1,8,0:0:0:0:
268,283,82899,1,8,0:0:0:0:
256,262,82971,1,8,0:0:0:0:
256,116,83114,1,8,0:0:0:0:
336,225,83257,5,8,0:0:0:0:
348,246,83328,1,8,0:0:0:0:
360,267,83399,1,8,0:0:0:0:
372,288,83471,1,8,0:0:0:0:
380,308,83542,1,8,0:0:0:0:
256,288,83685,5,8,0:0:0:0:
220,312,83757,1,8,0:0:0:0:
176,321,83828,1,8,0:0:0:0:
132,313,83899,1,8,0:0:0:0:
94,288,83971,1,8,0:0:0:0:
215,216,84114,2,0,P|256:202|298:216,1,90,8|0,0:0|0:0,0:0:0:0:
136,168,84399,6,0,L|88:84,1,90,0|0,0:0|0:0,0:0:0:0:
421,90,84685,2,0,L|376:168,1,90,8|0,0:0|0:0,0:0:0:0:
256,320,84971,1,0,0:0:0:0:
256,108,85114,6,0,L|256:18,2,90,0|8|0,0:0|0:0|0:0,0:0:0:0:
256,320,85542,1,0,0:0:0:0:
160,80,85685,1,0,0:0:0:0:
183,234,85828,2,0,P|227:225|256:192,1,90,8|0,0:0|0:0,0:0:0:0:
319,64,86113,1,0,0:0:0:0:
327,72,86185,1,0,0:0:0:0:
335,80,86256,1,0,0:0:0:0:
343,88,86328,1,0,0:0:0:0:
351,96,86399,1,8,0:0:0:0:
414,231,86542,5,2,0:0:0:0:
346,348,86685,1,2,0:0:0:0:
256,192,86828,1,2,0:0:0:0:
98,231,86970,5,2,0:0:0:0:
166,36,87113,1,2,0:0:0:0:
256,192,87256,1,2,0:0:0:0:
358,295,87399,2,0,P|321:349|256:352,1,135,2|0,0:0|0:0,0:0:0:0:
190,286,87685,1,0,0:0:0:0:
320,240,87828,5,0,0:0:0:0:
208,128,87970,1,0,0:0:0:0:
322,98,88113,2,0,P|350:131|394:140,1,90,12|0,0:0|0:0,0:0:0:0:
394,140,88399,6,0,B|352:226|394:312,1,180,12|0,0:0|0:0,0:0:0:0:
256,76,88827,1,0,0:0:0:0:
256,212,88970,2,0,L|256:320,1,90,0|0,0:0|0:0,0:0:0:0:
119,302,89256,1,8,0:0:0:0:
119,166,89399,1,0,0:0:0:0:
119,166,89470,1,0,0:0:0:0:
119,166,89542,6,0,L|69:79,1,90
256,76,89827,1,8,0:0:0:0:
256,76,89970,1,0,0:0:0:0:
332,188,90113,2,0,L|368:288,1,90
149,272,90399,2,0,L|180:188,1,90,8|0,0:0|0:0,0:0:0:0:
316,52,90684,6,8,B|402:10|488:51,1,180,8|8,0:0|0:0,0:0:0:0:
489,52,91041,1,8,0:0:0:0:
489,52,91113,1,8,0:0:0:0:
404,156,91256,1,0,0:0:0:0:
404,291,91399,1,0,0:0:0:0:
256,288,91541,6,0,L|256:198,2,90,8|8|8,0:0|0:0|0:0,0:0:0:0:
200,72,91970,2,8,B|241:99|254:140|254:140|268:99|309:72,1,180
156,160,92398,6,0,P|158:204|135:241,1,90,0|8,0:0|0:0,0:0:0:0:
93,259,92613,1,0,0:0:0:0:
51,241,92685,1,0,0:0:0:0:
34,200,92756,1,0,0:0:0:0:
51,158,92827,1,0,0:0:0:0:
93,141,92899,1,0,0:0:0:0:
135,158,92970,5,0,0:0:0:0:
177,175,93041,1,0,0:0:0:0:
219,192,93113,1,0,0:0:0:0:
261,209,93184,1,0,0:0:0:0:
303,226,93256,1,0,0:0:0:0:
345,243,93327,1,0,0:0:0:0:
387,260,93398,2,0,L|405:197,7,45,0|0|0|0|0|0|0|0,0:0|0:0|0:0|0:0|0:0|0:0|0:0|0:0,0:0:0:0:
184,285,93970,1,0,0:0:0:0:
175,295,94041,1,0,0:0:0:0:
165,304,94113,6,0,P|129:280|111:239,1,90
400,239,94398,2,0,P|381:280|345:305,1,90
256,160,94684,1,4,0:0:0:0:
370,160,94827,6,0,L|393:73,1,90
142,70,95112,1,0,0:0:0:0:
142,224,95255,2,0,L|118:310,1,90
370,314,95541,1,0,0:0:0:0:
188,271,95684,5,0,0:0:0:0:
188,271,95755,1,0,0:0:0:0:
188,271,95827,2,0,P|232:280|261:314,1,90,0|0,0:0|0:0,0:0:0:0:
323,112,96112,2,0,P|279:103|251:70,1,90,0|0,0:0|0:0,0:0:0:0:
68,260,96398,5,0,0:0:0:0:
144,340,96541,1,0,0:0:0:0:
444,124,96684,1,0,0:0:0:0:
368,44,96827,1,0,0:0:0:0:
160,144,96969,6,0,B|203:135|203:135|233:101,1,90,4|0,0:0|0:0,0:0:0:0:
352,240,97255,2,0,B|308:248|308:248|278:282,1,90
304,96,97541,2,0,B|312:139|312:139|346:169,1,90
208,288,97826,6,0,B|199:244|199:244|165:214,1,90
256,64,98112,1,4,0:0:0:0:
344,192,98255,1,0,0:0:0:0:
344,192,98326,1,0,0:0:0:0:
344,192,98398,2,0,P|368:232|432:256,1,90
256,112,98684,5,12,0:0:0:0:
256,125,98755,1,8,0:0:0:0:
256,138,98826,1,8,0:0:0:0:
256,151,98898,1,8,0:0:0:0:
256,164,98969,6,8,L|208:212,1,45
128,290,99112,2,8,L|160:259,1,45
288,192,99255,5,12,0:0:0:0:
144,112,99398,1,0,0:0:0:0:
256,224,99541,1,0,0:0:0:0:
336,80,99683,1,0,0:0:0:0:
224,192,99826,1,0,0:0:0:0:
368,272,99969,1,0,0:0:0:0:
128,336,100112,6,0,P|84:327|55:293,1,90,0|0,0:0|0:0,0:0:0:0:
183,166,100398,2,0,P|158:129|161:85,1,90,0|0,0:0|0:0,0:0:0:0:
350,85,100683,2,0,P|353:129|329:166,1,90,0|0,0:0|0:0,0:0:0:0:
384,336,100969,2,0,P|427:327|456:293,1,90,0|0,0:0|0:0,0:0:0:0:
272,304,101255,1,0,0:0:0:0:
480,192,101398,1,0,0:0:0:0:
192,160,101540,5,4,0:0:0:0:
320,160,101683,1,0,0:0:0:0:
256,288,101826,1,0,0:0:0:0:
160,144,101969,1,0,0:0:0:0:
256,336,102112,1,0,0:0:0:0:
352,144,102255,1,0,0:0:0:0:
310,341,102397,2,0,P|319:297|304:256,1,90
208,128,102683,6,0,P|192:80|208:32,1,90,4|8,0:0|0:0,0:0:0:0:
247,42,102897,1,8,0:0:0:0:
291,42,102969,1,8,0:0:0:0:
336,42,103040,1,8,0:0:0:0:
380,42,103112,1,8,0:0:0:0:
475,137,103254,6,0,L|388:187,1,90,4|8,0:0|0:0,0:0:0:0:
367,130,103469,1,8,0:0:0:0:
310,116,103540,1,8,0:0:0:0:
257,143,103612,1,8,0:0:0:0:
229,197,103683,1,8,0:0:0:0:
244,254,103754,1,8,0:0:0:0:
296,283,103826,1,12,0:0:0:0:
416,288,103969,6,0,P|407:245|373:216,2,90,0|0|0,0:0|0:0|0:0,0:0:0:0:
110,245,104397,2,0,L|46:181,1,90
72,48,104683,2,0,L|145:121,1,90
256,192,104969,1,0,0:0:0:0:
416,288,105111,6,0,P|440:251|436:206,2,90,0|0|0,0:0|0:0|0:0,0:0:0:0:
184,128,105540,2,0,L|168:36,1,90
343,39,105826,2,0,L|328:128,1,90
256,316,106111,1,0,0:0:0:0:
75,206,106254,6,0,P|71:250|96:288,2,90
216,124,106683,2,0,L|284:56,1,90
392,144,106968,2,0,L|488:112,1,90
256,192,107254,5,0,0:0:0:0:
256,316,107397,1,0,0:0:0:0:
148,130,107540,1,0,0:0:0:0:
363,130,107683,1,0,0:0:0:0:
284,284,107825,6,0,P|255:317|212:326,1,90
159,166,108111,1,0,0:0:0:0:
164,188,108183,1,0,0:0:0:0:
176,208,108254,1,0,0:0:0:0:
192,224,108325,1,0,0:0:0:0:
212,236,108397,5,0,0:0:0:0:
300,236,108540,1,0,0:0:0:0:
256,159,108683,1,0,0:0:0:0:
168,280,108825,1,0,0:0:0:0:
344,280,108968,1,0,0:0:0:0:
256,126,109111,1,0,0:0:0:0:
426,253,109254,2,0,P|418:296|385:326,1,90
256,124,109540,6,0,P|263:80|296:50,1,90
389,151,109825,1,0,0:0:0:0:
359,282,109968,1,0,0:0:0:0:
126,326,110111,2,0,P|93:296|85:253,1,90
256,36,110397,1,0,0:0:0:0:
427,253,110539,1,0,0:0:0:0:
256,192,110682,6,0,L|256:316,1,90
256,368,111111,1,0,0:0:0:0:
126,326,111254,2,0,P|93:296|85:253,1,90
426,253,111539,2,0,P|418:296|385:326,1,90
125,150,111825,5,2,0:0:0:0:
387,150,111968,1,2,0:0:0:0:
174,301,112111,1,2,0:0:0:0:
255,55,112254,1,2,0:0:0:0:
335,301,112396,1,2,0:0:0:0:
272,238,112539,5,2,0:0:0:0:
335,174,112682,1,2,0:0:0:0:
398,237,112825,1,2,0:0:0:0:
256,352,112968,5,2,0:0:0:0:
392,192,114111,1,0,0:0:0:0:
256,96,115253,1,0,0:0:0:0:
120,192,116396,1,0,0:0:0:0:
256,224,117539,5,0,0:0:0:0:
256,242,117824,1,0,0:0:0:0:
256,259,118110,1,0,0:0:0:0:
256,277,118396,1,0,0:0:0:0:
256,295,118681,1,0,0:0:0:0:
256,313,118967,1,0,0:0:0:0:
368,288,119253,5,0,0:0:0:0:
431,224,119396,1,0,0:0:0:0:
367,160,119539,1,0,0:0:0:0:
430,96,119681,1,0,0:0:0:0:
288,64,119824,2,0,P|240:80|224:128,1,90
392,192,120110,5,8,0:3:0:0:
392,192,120181,1,8,0:3:0:0:
392,192,120253,1,8,0:3:0:0:
392,192,120324,1,8,0:3:0:0:
392,192,120396,5,8,0:3:0:0:
348,194,120467,1,8,0:3:0:0:
306,180,120538,1,8,0:3:0:0:
272,151,120610,1,8,0:3:0:0:
251,111,120681,2,0,P|232:64|240:16,1,90,8|8,0:3|0:3,0:0:0:0:
256,288,120967,5,14,0:0:0:0:
220,312,121038,1,8,0:0:0:0:
176,321,121110,1,8,0:0:0:0:
132,313,121181,1,8,0:0:0:0:
94,288,121253,1,8,0:0:0:0:
256,96,121395,5,14,0:0:0:0:
292,72,121467,1,8,0:0:0:0:
336,63,121538,1,8,0:0:0:0:
380,71,121610,1,8,0:0:0:0:
418,96,121681,1,8,0:0:0:0:
199,197,121824,2,0,P|182:259|131:304,1,135.000005149842,14|0,0:0|0:0,0:0:0:0:
296,196,122110,5,0,0:0:0:0:
144,132,122253,1,0,0:0:0:0:
368,132,122395,2,0,P|412:120|444:84,1,90,12|0,0:0|0:0,0:0:0:0:
256,48,122681,1,0,0:0:0:0:
380,313,122824,6,0,P|412:282|423:239,1,90,0|12,0:0|0:0,0:0:0:0:
256,144,123110,1,0,0:0:0:0:
128,256,123252,6,0,P|96:225|85:182,1,90,0|0,0:0|0:0,0:0:0:0:
427,181,123538,2,0,P|415:224|384:256,1,90,12|4,0:0|0:0,0:0:0:0:
200,128,123824,5,12,0:0:0:0:
181,141,123895,1,8,0:0:0:0:
168,158,123967,1,12,0:0:0:0:
159,179,124038,1,8,0:0:0:0:
156,201,124109,1,12,0:0:0:0:
354,218,124252,5,2,0:0:0:0:
183,264,124395,1,2,0:0:0:0:
228,92,124538,1,2,0:0:0:0:
295,340,124681,5,2,0:0:0:0:
107,152,124824,1,2,0:0:0:0:
364,83,124967,1,2,0:0:0:0:
161,97,125109,2,0,P|194:39|256:16,1,135,10|0,0:0|0:0,0:0:0:0:
320,80,125395,1,10,0:0:0:0:
321,383,125538,5,8,0:0:0:0:
224,316,125681,1,8,0:0:0:0:
176,208,125824,1,8,0:0:0:0:
200,92,125966,1,8,0:0:0:0:
336,208,126109,6,0,B|350:250|350:250|336:292,1,90
176,176,126395,2,0,B|161:133|161:133|176:91,1,90
320,96,126681,1,0,0:0:0:0:
448,64,126823,1,0,0:0:0:0:
192,288,126966,1,12,0:0:0:0:
64,320,127109,1,0,0:0:0:0:
192,128,127252,6,0,L|160:32,1,90
320,256,127538,2,0,L|352:352,1,90,12|0,0:0|0:0,0:0:0:0:
208,192,127823,1,0,0:0:0:0:
304,192,127966,1,0,0:0:0:0:
384,96,128109,1,12,0:0:0:0:
448,320,128252,1,0,0:0:0:0:
208,192,128395,5,12,0:0:0:0:
256,80,128538,1,12,0:0:0:0:
384,288,128680,1,12,0:0:0:0:
112,336,128823,1,8,0:0:0:0:
230,211,128967,5,8,0:3:0:0:
237,222,129039,1,8,0:3:0:0:
243,233,129110,1,8,0:3:0:0:
250,245,129181,1,8,0:3:0:0:
256,256,129252,5,4,0:3:0:0:
284,239,129323,1,4,0:3:0:0:
310,217,129395,1,4,0:3:0:0:
331,191,129466,1,4,0:3:0:0:
346,160,129538,1,4,0:3:0:0:
356,128,129609,1,4,0:3:0:0:
359,95,129680,2,4,P|374:144|406:165,2,90,4|8|4,0:3|0:3|0:3,0:3:0:0:
256,136,130109,6,8,L|283:88,4,45,8|8|8|8|8,0:0|0:0|0:0|0:0|0:0,0:0:0:0:
356,300,130537,6,8,L|356:372,4,45,8|8|8|8|8,0:0|0:0|0:0|0:0|0:0,0:0:0:0:
128,312,130966,6,8,L|69:278,3,45,8|8|8|8,0:0|0:0|0:0|0:0,0:0:0:0:
152,324,131252,1,2,0:3:0:0:
256,192,131394,12,0,132680,0:0:0:0:
256,192,132966,6,0,L|256:96,1,90,8|8,0:3|0:3,0:0:0:0:
256,192,133251,2,0,L|339:240,1,90,4|4,0:3|0:3,0:0:0:0:
256,192,133537,2,0,L|172:239,1,90,4|4,0:3|0:3,0:0:0:0:
256,102,133823,6,0,L|256:8,1,90,8|4,0:3|0:3,0:0:0:0:
333,236,134108,2,0,L|415:284,1,90,4|0,0:3|0:3,0:0:0:0:
178,236,134394,2,0,L|96:284,1,90,8|4,0:3|0:3,0:0:0:0:
323,75,134680,5,4,0:3:0:0:
372,259,134824,1,4,0:3:0:0:
188,308,134966,1,8,0:3:0:0:
139,124,135109,1,4,0:3:0:0:
304,256,135251,6,0,B|315:267|315:267|372:267|372:267|383:278,1,90,8|4,0:3|0:3,0:3:0:0:
480,183,135537,1,4,0:3:0:0:
377,88,135680,5,4,0:3:0:0:
377,88,135751,1,0,0:0:0:0:
377,88,135823,2,0,B|371:103|371:103|319:126|319:126|313:141,1,90
198,141,136037,1,0,0:0:0:0:
198,141,136108,2,0,B|192:126|192:126|140:103|140:103|135:88,1,90,8|0,0:3|0:0,0:0:0:0:
160,240,136322,5,0,0:0:0:0:
160,240,136394,2,0,P|192:272|208:320,1,90,4|0,0:3|0:0,0:0:0:0:
304,313,136608,1,0,0:0:0:0:
304,313,136680,2,0,P|320:271|352:240,1,90,8|0,0:3|0:0,0:0:0:0:
144,164,136965,6,0,P|113:126|69:106,1,90,4|4,0:3|0:3,0:3:0:0:
256,56,137251,1,8,0:3:0:0:
368,164,137394,1,4,0:3:0:0:
215,335,137537,6,8,P|182:306|161:267,1,90
256,192,137822,1,8,0:0:0:0:
351,267,137965,1,8,0:0:0:0:
120,336,138108,5,2,0:3:0:0:
120,336,138251,1,2,0:3:0:0:
136,160,138394,2,0,L|46:160,2,90,8|8|8,0:0|0:0|0:0,0:0:0:0:
376,224,138822,2,0,L|466:224,2,90,8|8|8,0:0|0:0|0:0,0:0:0:0:
256,296,139251,5,8,0:0:0:0:
236,285,139322,1,0,0:0:0:0:
218,272,139394,1,8,0:0:0:0:
202,256,139465,1,0,0:0:0:0:
189,237,139536,5,8,0:0:0:0:
180,217,139608,1,0,0:0:0:0:
174,195,139679,1,8,0:0:0:0:
171,173,139751,1,0,0:0:0:0:
171,150,139822,6,0,L|132:127,1,45
277,220,139965,2,0,L|315:242,1,45
116,164,140108,2,0,L|77:141,1,45
332,206,140251,2,0,L|370:228,1,45
253,137,140393,5,8,0:0:0:0:
276,115,140465,1,0,0:0:0:0:
303,99,140536,1,8,0:0:0:0:
334,89,140608,1,0,0:0:0:0:
368,80,140679,5,8,0:0:0:0:
325,89,140751,1,0,0:0:0:0:
282,90,140822,1,8,0:0:0:0:
238,81,140893,1,0,0:0:0:0:
195,53,140965,5,10,0:0:0:0:
400,80,141251,1,10,0:0:0:0:
416,346,141536,6,0,L|416:256,1,90,6|0,0:0|0:0,0:0:0:0:
319,159,141822,2,0,L|319:249,1,90
144,164,142108,2,0,P|113:126|69:106,1,90
192,288,142393,2,0,P|231:267|259:232,1,90
435,108,142679,6,0,P|395:128|368:164,1,90,6|0,0:0|0:0,0:0:0:0:
320,288,142965,2,0,P|280:267|252:232,1,90
96,346,143250,2,0,L|96:256,1,90,0|0,0:0|0:0,0:0:0:0:
193,159,143536,2,0,L|193:249,1,90
352,128,143822,6,0,P|379:92|419:72,1,90,6|0,0:0|0:0,0:0:0:0:
419,208,144107,2,0,P|463:202|505:216,1,90,0|0,0:0|0:0,0:0:0:0:
6,216,144393,2,0,P|48:202|93:208,1,90,0|0,0:0|0:0,0:0:0:0:
92,72,144679,2,4,P|132:92|160:128,1,90,0|0,0:0|0:0,0:0:0:0:
208,320,144964,6,0,P|174:289|157:248,1,90,4|8,0:0|0:0,0:0:0:0:
147,204,145179,1,8,0:0:0:0:
150,160,145250,1,8,0:0:0:0:
169,118,145322,1,8,0:0:0:0:
199,86,145393,1,8,0:0:0:0:
71,264,145536,6,0,P|115:266|157:249,1,90,4|8,0:0|0:0,0:0:0:0:
215,212,145750,1,8,0:0:0:0:
258,161,145821,1,8,0:0:0:0:
282,97,145893,1,8,0:0:0:0:
284,31,145964,1,8,0:0:0:0:
