osu file format v13

[General]
AudioFilename: omega.mp3
AudioLeadIn: 1000
PreviewTime: 39515
Countdown: 0
SampleSet: Soft
StackLeniency: 0.7
Mode: 0
LetterboxInBreaks: 0
WidescreenStoryboard: 1

[Editor]
DistanceSpacing: 1.1
BeatDivisor: 4
GridSize: 4
TimelineZoom: 1.5

[Metadata]
Title:Omega Rhythm
TitleUnicode:オメガリズム
Artist:UPLIFT SPICE
ArtistUnicode:UPLIFT SPICE
Creator:kajiyatta
Version:Insane
Source:
Tags:
BeatmapID:548778
BeatmapSetID:237012

[Difficulty]
HPDrainRate:7
CircleSize:4
OverallDifficulty:7
ApproachRate:9
SliderMultiplier:1.9
SliderTickRate:2

[Events]
//Background and Video events
0,0,"BG.jpg",0,0
//Break Periods
2,63819,67181
2,115149,124060
//Storyboard Layer 0 (Background)
//Storyboard Layer 1 (Fail)
//Storyboard Layer 2 (Pass)
//Storyboard Layer 3 (Foreground)
//Storyboard Sound Samples

[TimingPoints]
1192,346.820809248555,4,2,1,60,1,0
18012,-100,4,2,0,50,0,0
18186,-100,4,2,1,60,0,0
19920,-100,4,2,1,50,0,0
20267,-100,4,2,1,60,0,0
20613,-100,4,2,1,50,0,0
20787,-100,4,2,1,60,0,0
22694,-100,4,2,1,50,0,0
22868,-100,4,2,1,60,0,0
23388,-100,4,2,1,50,0,0
23561,-100,4,2,1,60,0,0
25469,-100,4,2,1,50,0,0
25642,-100,4,2,1,60,0,0
26163,-100,4,2,1,50,0,0
26336,-100,4,2,1,60,0,0
29111,-100,4,2,0,50,0,0
29284,-100,4,2,1,60,0,0
30498,-100,4,2,0,50,0,0
30671,-100,4,2,1,60,0,0
31192,-100,4,2,0,50,0,0
31365,-100,4,2,1,60,0,0
34660,-100,4,2,0,50,0,0
34833,-100,4,2,1,60,0,0
37434,-100,4,2,0,50,0,0
37608,-100,4,2,1,60,0,0
39515,-200,4,2,0,50,0,0
39689,-200,4,2,0,5,0,0
39862,-200,4,2,0,50,0,0
40035,-100,4,2,1,70,0,1
41596,-100,4,2,0,50,0,1
41770,-100,4,2,1,70,0,1
45758,-100,4,2,0,50,0,1
45931,-100,4,2,1,70,0,1
47145,-100,4,2,0,50,0,1
47319,-100,4,2,1,70,0,1
49226,-100,4,2,1,60,0,1
50960,-100,4,2,1,60,0,0
51134,-100,4,2,1,70,0,1
53388,-100,4,2,0,50,0,1
53561,-100,4,2,1,70,0,1
56856,-100,4,2,0,50,0,1
57030,-100,4,2,1,70,0,1
58244,-100,4,2,0,50,0,1
58417,-100,4,2,1,70,0,1
60845,-100,4,2,1,60,0,1
63446,-100,4,2,1,60,0,0
63619,-100,4,2,0,70,0,1
63793,-100,4,2,0,70,0,0
67781,-100,4,2,1,60,0,0
75931,-100,4,2,0,50,0,0
76105,-100,4,2,1,60,0,0
81134,-100,4,2,0,50,0,0
81307,-100,4,2,1,60,0,0
82521,-100,4,2,0,50,0,0
82694,-100,4,2,1,60,0,0
85989,-100,4,2,0,50,0,0
86163,-100,4,2,1,60,0,0
87723,-100,4,2,0,50,0,0
87897,-100,4,2,1,60,0,0
91365,-100,4,2,1,70,0,1
97087,-100,4,2,0,50,0,1
97261,-100,4,2,1,70,0,1
97434,-100,4,2,0,50,0,1
97608,-100,4,2,1,70,0,1
100556,-100,4,2,1,60,0,1
102290,-100,4,2,1,60,0,0
102463,-100,4,2,1,70,0,1
109573,-100,4,2,0,50,0,1
109746,-100,4,2,1,70,0,1
112174,-100,4,2,1,60,0,1
114775,-100,4,2,1,60,0,0
114949,-100,4,2,0,70,0,1
115122,-100,4,2,0,70,0,0
124660,-100,4,2,1,60,0,0
137145,-133.333333333333,4,2,2,50,0,0
146163,-133.333333333333,4,2,1,50,0,0
146856,-100,4,2,1,60,0,0
148244,-100,4,2,1,70,0,1
155353,-100,4,2,0,50,0,1
155527,-100,4,2,1,70,0,1
157434,-100,4,2,1,60,0,1
159342,-100,4,2,1,60,0,0
160902,-100,4,2,0,50,0,0
161076,-100,4,2,1,60,0,0
162290,-100,4,2,0,50,0,0
162463,-100,4,2,1,60,0,0
164891,-100,4,2,1,70,0,1
166452,-100,4,2,0,50,0,1
166625,-100,4,2,1,70,0,1
169053,-100,4,2,1,60,0,1
171654,-100,4,2,1,60,0,0
171827,-100,4,2,1,60,0,1
172001,-100,4,2,1,60,0,0

[Colours]
Combo1 : 202,0,0
Combo2 : 14,122,60
Combo3 : 170,170,255

[HitObjects]
68,98,1192,6,0,B|100:60|152:60,1,95,2|0,0:0|0:0,0:0:0:0:
152,324,1538,2,0,B|100:324|68:284,1,95,2|0,0:0|0:0,0:0:0:0:
208,192,1885,2,0,B|304:192,1,95,2|0,0:0|0:0,0:0:0:0:
456,324,2232,2,0,B|360:324,1,95,2|0,0:0|0:0,0:0:0:0:
256,304,2579,1,2,0:0:0:0:
132,192,2752,1,0,0:0:0:0:
376,192,2926,1,2,0:0:0:0:
256,304,3099,1,0,0:0:0:0:
212,96,3272,2,0,B|256:72|304:96,1,95,2|0,0:0|0:0,0:0:0:0:
131,192,3619,2,0,B|84:216|40:192,1,95,2|0,0:0|0:0,0:0:0:0:
256,208,3966,6,0,L|256:304,1,95,2|0,0:0|0:0,0:0:0:0:
376,192,4313,2,0,L|376:96,1,95,2|0,0:0|0:0,0:0:0:0:
132,96,4660,2,0,L|132:192,1,95,2|0,0:0|0:0,0:0:0:0:
256,304,5007,2,0,L|256:209,1,95,2|0,0:0|0:0,0:0:0:0:
132,96,5353,1,2,0:0:0:0:
256,252,5527,1,0,0:0:0:0:
256,36,5700,1,2,0:0:0:0:
132,192,5874,1,0,0:0:0:0:
376,192,6047,2,0,B|428:192|456:236,1,95,2|0,0:0|0:0,0:0:0:0:
256,344,6394,2,0,B|204:344|176:300,1,95,2|0,0:0|0:0,0:0:0:0:
8,192,6741,5,2,0:0:0:0:
36,288,6914,1,0,0:0:0:0:
80,112,7087,1,2,0:0:0:0:
172,72,7261,1,0,0:0:0:0:
339,192,7434,2,0,B|296:216|248:192,1,95,2|0,0:0|0:0,0:0:0:0:
396,112,7781,2,0,B|444:112|480:152,1,95,2|0,0:0|0:0,0:0:0:0:
356,272,8128,1,2,0:0:0:0:
296,124,8301,1,0,0:0:0:0:
432,228,8475,1,2,0:0:0:0:
264,264,8648,2,0,B|172:216|80:264,1,190
136,352,9168,1,2,0:0:0:0:
264,264,9342,6,0,B|264:164|176:104,1,190,0|0,0:0|0:0,0:0:0:0:
28,24,9862,2,0,B|28:72|72:104,1,95,2|0,0:0|0:0,0:0:0:0:
80,268,10209,2,0,B|124:236|124:188,1,95,2|0,0:0|0:0,0:0:0:0:
212,40,10556,1,2,0:0:0:0:
384,40,10729,1,0,0:0:0:0:
300,100,10902,1,2,0:0:0:0:
472,100,11076,2,0,B|496:144|472:192,1,95,0|2,0:0|0:0,0:0:0:0:
232,228,11423,2,0,B|300:148|400:148,1,190
372,248,11943,1,2,0:0:0:0:
240,328,12116,6,0,P|156:292|136:200,1,190
158,38,12637,2,0,B|200:68|200:120,1,95,2|0,0:0|0:0,0:0:0:0:
44,160,12983,2,0,B|0:132|0:80,1,95,2|0,0:0|0:0,0:0:0:0:
136,204,13330,2,0,B|112:252|60:252,1,95,2|0,0:0|0:0,0:0:0:0:
96,92,13677,1,2,0:0:0:0:
232,212,13850,1,0,0:0:0:0:
44,160,14024,1,2,0:0:0:0:
224,128,14197,2,0,B|288:52|392:52,1,190
484,104,14718,1,2,0:0:0:0:
472,208,14891,6,0,B|408:284|304:284,1,190
140,212,15411,2,0,B|188:192|232:212,1,95,2|0,0:0|0:0,0:0:0:0:
88,320,15758,2,0,B|40:320|8:276,1,95,2|0,0:0|0:0,0:0:0:0:
16,108,16105,1,4,0:0:0:0:
108,60,16278,1,0,0:0:0:0:
256,136,16452,5,8,0:0:0:0:
368,24,16625,1,8,0:0:0:0:
480,136,16798,2,0,B|504:184|480:228,1,95,2|0,0:0|0:0,0:0:0:0:
256,248,17145,1,8,0:0:0:0:
144,360,17319,1,8,0:0:0:0:
32,248,17492,1,8,0:0:0:0:
23,225,17579,1,8,0:0:0:0:
20,202,17665,1,8,0:0:0:0:
22,178,17752,1,8,0:0:0:0:
32,157,17839,6,0,B|64:64|172:40,1,190,4|10,0:0|0:0,0:0:0:0:
256,100,18359,1,0,0:0:0:0:
304,196,18533,2,0,B|256:216|208:196,1,95,2|0,0:0|0:0,0:0:0:0:
348,48,18879,2,0,B|392:28|440:48,1,95,10|0,0:0|0:0,0:0:0:0:
500,228,19226,1,2,0:0:0:0:
400,300,19400,1,0,0:0:0:0:
300,228,19573,1,10,0:0:0:0:
88,168,19746,2,0,B|56:272|148:332,1,190
300,228,20267,1,10,0:0:0:0:
168,104,20440,6,0,B|160:76|88:24|20:76|12:104,1,190
208,228,20960,2,0,B|256:248|300:228,1,95,10|0,0:0|0:0,0:0:0:0:
456,104,21307,2,0,B|408:84|364:104,1,95,2|0,0:0|0:0,0:0:0:0:
408,284,21654,2,0,L|408:189,1,95,10|0,0:0|0:0,0:0:0:0:
508,328,22001,1,2,0:0:0:0:
308,328,22174,1,0,0:0:0:0:
408,384,22348,1,10,0:0:0:0:
116,228,22521,2,0,B|204:172|295:228,1,190,0|0,0:0|0:0,0:0:0:0:
204,356,23041,1,10,0:0:0:0:
56,308,23215,6,0,B|28:300|-24:228|28:160|56:152,1,190
240,72,23735,2,0,B|204:108|152:108,1,95,10|0,0:0|0:0,0:0:0:0:
332,24,24082,2,0,B|380:24|412:68,1,95,2|0,0:0|0:0,0:0:0:0:
218,173,24428,2,0,B|170:161|154:109,1,95,10|0,0:0|0:0,0:0:0:0:
344,152,24775,1,2,0:0:0:0:
436,296,24949,1,0,0:0:0:0:
436,192,25122,1,10,0:0:0:0:
344,336,25296,2,0,B|256:392|164:336,1,190
100,256,25816,1,10,0:0:0:0:
24,100,25989,6,0,B|32:72|100:20|172:72|180:100,1,190
100,256,26509,2,0,L|100:160,1,95,10|0,0:0|0:0,0:0:0:0:
308,244,26856,2,0,B|260:264|216:244,1,95,2|0,0:0|0:0,0:0:0:0:
344,100,27203,2,0,B|388:80|436:100,1,95,10|0,0:0|0:0,0:0:0:0:
492,244,27550,1,2,0:0:0:0:
400,192,27723,1,0,0:0:0:0:
424,332,27897,2,0,B|392:364|336:364,1,95,10|0,0:0|0:0,0:0:0:0:
136,344,28244,1,2,0:0:0:0:
220,280,28417,1,0,0:0:0:0:
52,280,28590,1,8,0:0:0:0:
36,260,28677,1,8,0:0:0:0:
24,240,28764,1,8,0:0:0:0:
20,216,28850,1,8,0:0:0:0:
20,192,28937,6,0,B|20:92|132:52,1,190,4|10,0:0|0:0,0:0:0:0:
216,112,29457,1,0,0:0:0:0:
403,59,29631,2,0,B|356:36|312:60,1,95,2|0,0:0|0:0,0:0:0:0:
312,164,29978,2,0,B|356:188|403:164,1,95,10|0,0:0|0:0,0:0:0:0:
216,112,30324,2,0,B|156:200|216:292,1,190,2|10,0:0|0:0,0:0:0:0:
348,368,30845,1,0,0:0:0:0:
480,292,31018,2,0,B|536:200|476:112,1,190,2|10,0:0|0:0,0:0:0:0:
348,32,31538,1,0,0:0:0:0:
216,112,31712,6,0,B|184:152|132:152,1,95,2|0,0:0|0:0,0:0:0:0:
0,56,32059,2,0,B|32:16|84:16,1,95,10|0,0:0|0:0,0:0:0:0:
24,192,32405,1,10,0:0:0:0:
216,112,32579,1,10,0:0:0:0:
284,308,32752,2,0,B|232:308|200:268,1,95,10|0,0:0|0:0,0:0:0:0:
256,180,33099,1,10,0:0:0:0:
152,356,33272,1,10,0:0:0:0:
52,180,33446,1,10,0:0:0:0:
284,308,33619,1,0,0:0:0:0:
284,308,33706,1,8,0:0:0:0:
284,308,33793,2,0,B|332:308|368:268,1,95,10|8,0:0|0:0,0:0:0:0:
256,180,34139,2,0,B|208:180|172:220,1,95,0|10,0:0|0:0,0:0:0:0:
356,168,34486,6,0,B|356:68|248:28,1,190,4|10,0:0|0:0,0:0:0:0:
168,96,35007,1,0,0:0:0:0:
20,180,35180,2,0,B|40:228|88:240,1,95,2|0,0:0|0:0,0:0:0:0:
88,28,35527,2,0,B|40:40|20:88,1,95,10|0,0:0|0:0,0:0:0:0:
204,240,35874,2,0,B|280:304,1,95,2|0,0:0|0:0,0:0:0:0:
364,356,36220,1,10,0:0:0:0:
456,304,36394,1,0,0:0:0:0:
204,240,36567,2,0,B|204:192|248:160,1,95,2|0,0:0|0:0,0:0:0:0:
352,160,36914,2,0,B|396:192|396:240,1,95,10|0,0:0|0:0,0:0:0:0:
220,80,37261,6,0,B|228:52|296:0|368:52|376:80,1,190,4|8,0:0|0:0,0:0:0:0:
300,236,37781,1,0,0:0:0:0:
220,80,37955,1,8,0:0:0:0:
152,236,38128,1,0,0:0:0:0:
80,80,38301,1,8,0:0:0:0:
8,236,38475,1,0,0:0:0:0:
80,80,38648,1,8,0:0:0:0:
256,324,38822,1,8,0:0:0:0:
256,324,38908,1,8,0:0:0:0:
256,324,38995,1,8,0:0:0:0:
436,80,39168,1,8,0:0:0:0:
256,324,39515,6,0,L|256:228,1,95,0|0,0:0|0:0,0:0:0:0:
212,112,40035,6,0,B|256:88|304:112,1,95,4|0,0:0|0:0,0:0:0:0:
152,192,40382,1,10,0:0:0:0:
352,192,40556,1,0,0:0:0:0:
256,324,40729,2,0,B|228:368|176:368,1,95,2|0,0:0|0:0,0:0:0:0:
72,236,41076,2,0,B|100:192|152:192,1,95,10|0,0:0|0:0,0:0:0:0:
60,328,41423,2,0,P|-12:272|0:180,1,190,2|10,0:0|0:0,0:0:0:0:
56,96,41943,1,0,0:0:0:0:
227,31,42116,2,0,B|180:8|136:32,1,95,2|0,0:0|0:0,0:0:0:0:
56,96,42463,1,10,0:0:0:0:
180,184,42637,1,0,0:0:0:0:
304,96,42810,6,0,B|336:60|388:60,1,95,2|0,0:0|0:0,0:0:0:0:
500,204,43157,1,10,0:0:0:0:
320,204,43330,1,0,0:0:0:0:
476,108,43504,1,2,0:0:0:0:
408,276,43677,2,0,B|388:320|336:336,1,95,0|10,0:0|0:0,0:0:0:0:
256,268,44024,1,0,0:0:0:0:
104,276,44197,2,0,B|124:320|176:336,1,95,2|0,0:0|0:0,0:0:0:0:
152,180,44544,2,0,B|104:156|60:180,1,95,10|0,0:0|0:0,0:0:0:0:
104,276,44891,1,2,0:0:0:0:
216,92,45064,1,0,0:0:0:0:
8,92,45238,1,10,0:0:0:0:
112,28,45411,1,0,0:0:0:0:
104,276,45585,6,0,B|192:336|284:276,1,190,4|10,0:0|0:0,0:0:0:0:
344,192,46105,1,0,0:0:0:0:
308,96,46278,2,0,B|259:110|242:161,1,95,2|0,0:0|0:0,0:0:0:0:
379,296,46625,2,0,B|428:279|443:231,1,95,10|0,0:0|0:0,0:0:0:0:
256,16,46972,2,0,B|160:52|140:156,1,190,2|10,0:0|0:0,0:0:0:0:
188,248,47492,1,0,0:0:0:0:
104,312,47665,2,0,B|56:336|12:312,1,95,2|0,0:0|0:0,0:0:0:0:
188,248,48012,2,0,B|236:224|280:248,1,95,10|0,0:0|0:0,0:0:0:0:
456,312,48359,6,0,B|412:332|364:312,1,95,2|0,0:0|0:0,0:0:0:0:
376,132,48706,2,0,B|412:160|412:220,1,95,10|0,0:0|0:0,0:0:0:0:
256,152,49053,1,8,3:0:0:0:
188,76,49226,1,0,0:0:0:0:
160,68,49313,1,0,0:0:0:0:
132,72,49400,1,8,0:0:0:0:
104,80,49486,1,0,0:0:0:0:
80,96,49573,1,8,3:0:0:0:
68,120,49660,1,0,0:0:0:0:
64,148,49746,5,12,0:0:0:0:
64,176,49833,1,0,0:0:0:0:
64,204,49920,1,0,0:0:0:0:
64,232,50007,1,0,0:0:0:0:
64,260,50093,1,8,0:0:0:0:
196,336,50267,5,12,0:0:0:0:
196,304,50353,1,0,0:0:0:0:
196,272,50440,1,8,0:0:0:0:
196,240,50527,1,0,0:0:0:0:
196,208,50613,1,0,0:0:0:0:
336,148,50787,5,12,0:0:0:0:
336,188,50874,1,0,0:0:0:0:
336,228,50960,1,0,0:0:0:0:
336,268,51047,1,0,0:0:0:0:
336,308,51134,6,0,B|384:332|428:308,1,95,4|0,0:0|0:0,0:0:0:0:
336,148,51481,2,0,B|292:124|244:148,1,95,10|0,0:0|0:0,0:0:0:0:
100,256,51827,1,2,0:0:0:0:
160,84,52001,1,0,0:0:0:0:
212,256,52174,1,10,0:0:0:0:
160,84,52348,1,0,0:0:0:0:
212,256,52521,2,0,B|240:304|288:304,1,95,2|0,0:0|0:0,0:0:0:0:
412,196,52868,2,0,B|384:148|336:148,1,95,10|0,0:0|0:0,0:0:0:0:
404,296,53215,2,0,P|488:268|504:176,1,190,2|10,0:0|0:0,0:0:0:0:
460,80,53735,1,0,0:0:0:0:
272,36,53908,6,0,B|300:80|352:80,1,95,2|0,0:0|0:0,0:0:0:0:
168,64,54255,2,0,B|116:64|84:100,1,95,10|0,0:0|0:0,0:0:0:0:
32,192,54602,1,2,0:0:0:0:
168,320,54775,2,0,B|116:320|84:284,1,95,0|10,0:0|0:0,0:0:0:0:
32,192,55122,1,0,0:0:0:0:
220,192,55296,2,0,B|256:152|304:152,1,95,2|0,0:0|0:0,0:0:0:0:
448,280,55642,2,0,B|412:320|364:320,1,95,10|0,0:0|0:0,0:0:0:0:
220,192,55989,1,2,0:0:0:0:
280,372,56163,1,0,0:0:0:0:
128,260,56336,1,10,0:0:0:0:
316,260,56509,1,0,0:0:0:0:
164,372,56683,6,0,B|56:372|24:268,1,190,4|10,0:0|0:0,0:0:0:0:
60,164,57203,1,0,0:0:0:0:
124,76,57376,2,0,B|168:52|215:75,1,95,2|0,0:0|0:0,0:0:0:0:
219,260,57723,2,0,B|172:284|128:260,1,95,10|0,0:0|0:0,0:0:0:0:
280,164,58070,2,0,B|364:112|460:164,1,190,2|10,0:0|0:0,0:0:0:0:
512,256,58590,1,0,0:0:0:0:
460,344,58764,2,0,B|413:368|369:344,1,95,2|0,0:0|0:0,0:0:0:0:
220,260,59111,2,0,B|264:236|311:260,1,95,10|0,0:0|0:0,0:0:0:0:
160,344,59457,6,0,B|113:368|69:344,1,95,2|0,0:0|0:0,0:0:0:0:
172,184,59804,2,0,B|220:208|220:260,1,95,10|0,0:0|0:0,0:0:0:0:
284,344,60151,1,2,0:0:0:0:
88,264,60324,2,0,B|60:256|8:184|60:116|88:108,1,190
236,88,60845,5,4,0:0:0:0:
220,112,60932,1,0,0:0:0:0:
204,136,61019,1,0,0:0:0:0:
188,160,61106,1,0,0:0:0:0:
172,184,61192,1,8,0:0:0:0:
276,296,61365,5,4,0:0:0:0:
292,272,61452,1,0,0:0:0:0:
308,248,61539,1,8,0:0:0:0:
324,224,61626,1,0,0:0:0:0:
340,200,61712,1,0,0:0:0:0:
200,264,61885,5,4,0:0:0:0:
176,284,61972,1,0,0:0:0:0:
144,296,62059,1,0,0:0:0:0:
112,300,62145,1,0,0:0:0:0:
80,296,62232,1,8,0:0:0:0:
48,284,62319,1,0,0:0:0:0:
28,260,62405,1,0,0:0:0:0:
12,232,62492,1,0,0:0:0:0:
8,200,62579,1,8,0:0:0:0:
12,168,62665,1,0,0:0:0:0:
24,136,62752,1,0,0:0:0:0:
44,112,62839,1,0,0:0:0:0:
72,92,62926,6,0,L|156:44,1,95,4|0,0:0|0:0,0:0:0:0:
440,92,63272,2,0,L|356:44,1,95,10|0,0:0|0:0,0:0:0:0:
256,192,63619,1,4,0:0:0:0:
160,88,67781,5,8,0:0:0:0:
160,88,67868,1,0,0:0:0:0:
160,88,67955,1,0,0:0:0:0:
160,88,68041,1,0,0:0:0:0:
160,88,68128,1,8,0:0:0:0:
352,88,68301,1,0,0:0:0:0:
352,88,68388,1,0,0:0:0:0:
352,88,68475,1,8,0:0:0:0:
352,88,68561,1,0,0:0:0:0:
352,88,68648,1,0,0:0:0:0:
256,256,68822,1,8,0:0:0:0:
256,256,68908,1,0,0:0:0:0:
256,256,68995,1,0,0:0:0:0:
256,256,69082,1,0,0:0:0:0:
256,256,69168,6,0,B|220:292|168:292,1,95,4|0,0:0|0:0,0:0:0:0:
12,228,69515,2,0,B|48:191|97:192,1,95,10|0,0:0|0:0,0:0:0:0:
152,40,69862,2,0,B|188:72|187:125,1,95,2|0,0:0|0:0,0:0:0:0:
360,40,70209,2,0,B|324:72|324:125,1,95,10|0,0:0|0:0,0:0:0:0:
256,256,70556,1,2,0:0:0:0:
176,360,70729,1,0,0:0:0:0:
336,360,70902,1,10,0:0:0:0:
332,184,71076,2,0,B|324:156|256:104|184:156|176:184,1,190
256,256,71596,1,10,0:0:0:0:
424,272,71770,6,0,B|452:264|504:192|452:124|424:116,1,190
228,52,72290,2,0,B|252:100|304:100,1,95,10|0,0:0|0:0,0:0:0:0:
464,0,72637,2,0,B|416:0|376:36,1,95,2|0,0:0|0:0,0:0:0:0:
256,256,72983,2,0,B|304:256|340:216,1,95,10|0,0:0|0:0,0:0:0:0:
168,192,73330,1,2,0:0:0:0:
132,292,73504,1,0,0:0:0:0:
216,352,73677,1,10,0:0:0:0:
324,124,73850,2,0,B|349:109|434:121|448:208|434:234,1,190
352,304,74371,1,10,0:0:0:0:
132,292,74544,6,0,B|28:292|0:180,1,190,0|0,0:0|0:0,0:0:0:0:
128,108,75064,2,0,B|168:140|168:192,1,95,10|0,0:0|0:0,0:0:0:0:
48,52,75411,2,0,B|80:12|132:12,1,95,2|0,0:0|0:0,0:0:0:0:
256,96,75758,2,0,B|268:128|336:164|404:128|416:96,1,190,10|2,0:0|0:0,0:0:0:0:
500,28,76278,1,0,0:0:0:0:
336,28,76452,1,10,0:0:0:0:
500,188,76625,2,0,B|480:240|436:256,1,95,0|2,0:0|0:0,0:0:0:0:
256,216,76972,2,0,B|304:192|348:216,1,95,0|10,0:0|0:0,0:0:0:0:
256,336,77319,6,0,B|164:384|72:336,1,190,0|0,0:0|0:0,0:0:0:0:
172,196,77839,1,10,0:0:0:0:
8,248,78012,1,0,0:0:0:0:
116,116,78186,2,0,B|144:76|200:76,1,95,2|0,0:0|0:0,0:0:0:0:
340,176,78533,2,0,B|312:216|256:216,1,95,10|0,0:0|0:0,0:0:0:0:
356,64,78879,1,2,0:0:0:0:
264,112,79053,1,0,0:0:0:0:
440,132,79226,2,0,B|476:168|476:220,1,95,10|0,0:0|0:0,0:0:0:0:
264,240,79573,1,2,0:0:0:0:
356,296,79746,1,0,0:0:0:0:
172,296,79920,1,8,0:0:0:0:
148,288,80007,1,8,0:0:0:0:
124,280,80093,1,8,0:0:0:0:
100,272,80180,1,8,0:0:0:0:
76,264,80267,6,0,B|36:232|36:180,1,95,4|0,0:0|0:0,0:0:0:0:
160,108,80613,2,0,B|200:140|200:192,1,95,10|0,0:0|0:0,0:0:0:0:
80,52,80960,2,0,B|92:20|160:-16|228:20|240:52,1,190,2|10,0:0|0:0,0:0:0:0:
328,108,81481,1,0,0:0:0:0:
508,44,81654,2,0,B|464:24|416:44,1,95,2|0,0:0|0:0,0:0:0:0:
416,164,82001,2,0,B|464:184|508:164,1,95,10|0,0:0|0:0,0:0:0:0:
328,108,82348,2,0,B|264:192|328:284,1,190,2|10,0:0|0:0,0:0:0:0:
416,344,82868,1,0,0:0:0:0:
256,344,83041,6,0,L|208:344,3,47.5,8|0|0|0,0:0|0:0|0:0|0:0,0:0:0:0:
160,292,83388,2,0,L|124:260,3,47.5,8|0|8|0,0:0|0:0|3:0|0:0,0:0:0:0:
84,200,83735,2,0,L|84:152,3,47.5,8|0|8|0,0:0|0:0|3:0|0:0,0:0:0:0:
124,92,84082,2,0,L|157:58,3,47.5,8|0|8|8,0:0|0:0|0:0|0:0,0:0:0:0:
220,24,84428,5,8,3:0:0:0:
244,40,84515,1,0,0:0:0:0:
272,52,84602,1,0,0:0:0:0:
300,60,84689,1,0,0:0:0:0:
328,64,84775,1,8,0:0:0:0:
356,60,84862,1,0,0:0:0:0:
384,52,84949,1,8,3:0:0:0:
412,44,85035,1,8,3:0:0:0:
440,32,85122,5,8,3:0:0:0:
464,44,85209,1,0,0:0:0:0:
480,68,85296,1,8,0:0:0:0:
492,96,85382,1,0,0:0:0:0:
500,124,85469,1,8,0:0:0:0:
504,152,85556,1,0,0:0:0:0:
496,180,85642,1,8,3:0:0:0:
488,208,85729,1,0,0:0:0:0:
476,232,85816,6,0,B|376:232|324:328,1,190,4|10,0:0|0:0,0:0:0:0:
428,344,86336,1,0,0:0:0:0:
256,244,86509,2,0,B|212:220|164:244,1,95,2|0,0:0|0:0,0:0:0:0:
0,328,86856,2,0,B|44:352|91:327,1,95,10|0,0:0|0:0,0:0:0:0:
96,156,87203,2,0,B|44:176|44:228,1,95,2|0,0:0|0:0,0:0:0:0:
164,28,87550,2,0,B|59:27|0:107,1,190,10|2,0:0|0:0,0:0:0:0:
96,156,88070,1,0,0:0:0:0:
256,156,88244,1,10,0:0:0:0:
176,224,88417,1,0,0:0:0:0:
256,56,88590,5,4,0:0:0:0:
464,104,88764,1,8,0:0:0:0:
352,156,88937,1,8,0:0:0:0:
352,156,89024,1,8,0:0:0:0:
352,156,89111,2,0,L|352:252,1,95,8|8,0:0|0:0,0:0:0:0:
488,364,89457,1,0,0:0:0:0:
488,364,89544,1,8,0:0:0:0:
488,364,89631,2,0,L|488:268,1,95,10|10,0:0|0:0,0:0:0:0:
256,308,89978,5,8,0:0:0:0:
228,320,90064,1,0,0:0:0:0:
200,328,90151,1,0,0:0:0:0:
172,332,90238,1,0,0:0:0:0:
144,328,90324,1,8,0:0:0:0:
116,320,90411,1,0,0:0:0:0:
92,308,90498,1,0,0:0:0:0:
68,160,90671,5,8,0:0:0:0:
92,144,90758,1,0,0:0:0:0:
120,132,90844,1,0,0:0:0:0:
148,124,90931,1,0,0:0:0:0:
176,120,91018,1,8,0:0:0:0:
204,124,91104,1,0,0:0:0:0:
232,132,91191,1,0,0:0:0:0:
256,144,91278,1,0,0:0:0:0:
280,160,91365,6,0,B|316:192|368:192,1,95,4|0,0:0|0:0,0:0:0:0:
508,112,91712,2,0,B|472:80|420:80,1,95,10|0,0:0|0:0,0:0:0:0:
400,288,92059,2,0,B|448:276|468:228,1,95,2|0,0:0|0:0,0:0:0:0:
280,160,92405,1,10,0:0:0:0:
280,160,92579,1,0,0:0:0:0:
64,228,92752,2,0,B|84:276|132:288,1,95,2|0,0:0|0:0,0:0:0:0:
108,128,93099,2,0,B|64:104|16:128,1,95,10|0,0:0|0:0,0:0:0:0:
216,224,93446,2,0,B|263:247|307:223,1,95,2|0,0:0|0:0,0:0:0:0:
388,52,93793,1,10,0:0:0:0:
388,52,93966,1,0,0:0:0:0:
504,192,94139,6,0,B|504:240|456:268,1,95,2|0,0:0|0:0,0:0:0:0:
300,380,94486,1,10,0:0:0:0:
360,200,94660,1,0,0:0:0:0:
420,380,94833,1,2,0:0:0:0:
264,268,95007,2,0,B|232:308|180:308,1,95,0|10,0:0|0:0,0:0:0:0:
132,216,95353,1,0,0:0:0:0:
0,268,95527,2,0,B|36:308|84:308,1,95,2|0,0:0|0:0,0:0:0:0:
176,128,95874,2,0,B|132:104|84:128,1,95,10|0,0:0|0:0,0:0:0:0:
132,216,96220,1,2,0:0:0:0:
244,52,96394,1,0,0:0:0:0:
20,52,96567,1,10,0:0:0:0:
132,8,96741,1,0,0:0:0:0:
132,216,96914,6,0,B|180:316|280:316,2,190,4|10|2,0:0|0:0|0:0,0:0:0:0:
72,128,97781,1,0,0:0:0:0:
192,128,97955,1,10,0:0:0:0:
20,52,98128,1,0,0:0:0:0:
244,52,98301,2,0,B|296:52|328:92,1,95,2|0,0:0|0:0,0:0:0:0:
508,52,98648,2,0,B|456:52|424:92,1,95,10|0,0:0|0:0,0:0:0:0:
376,280,98995,2,0,L|376:184,1,95,2|0,0:0|0:0,0:0:0:0:
328,372,99342,2,0,B|376:396|420:372,1,95,10|0,0:0|0:0,0:0:0:0:
264,280,99689,5,2,0:0:0:0:
84,352,99862,1,0,0:0:0:0:
188,352,100035,1,10,0:0:0:0:
8,280,100209,2,0,B|-16:236|8:188,1,95,0|8,0:0|3:0,0:0:0:0:
84,120,100556,1,0,0:0:0:0:
108,108,100642,1,0,0:0:0:0:
132,96,100729,1,8,0:0:0:0:
160,88,100816,1,0,0:0:0:0:
188,80,100902,1,8,3:0:0:0:
216,76,100989,1,0,0:0:0:0:
244,80,101076,5,4,0:0:0:0:
272,88,101163,1,0,0:0:0:0:
300,96,101249,1,0,0:0:0:0:
328,108,101336,1,0,0:0:0:0:
356,120,101423,1,8,0:0:0:0:
488,192,101596,5,4,0:0:0:0:
468,220,101683,1,0,0:0:0:0:
452,248,101770,1,8,0:0:0:0:
444,280,101856,1,0,0:0:0:0:
444,312,101943,1,8,3:0:0:0:
292,308,102116,5,4,0:0:0:0:
288,272,102203,1,0,0:0:0:0:
276,236,102290,1,0,0:0:0:0:
252,208,102376,1,0,0:0:0:0:
224,184,102463,6,0,B|172:184|144:228,1,95,4|0,0:0|0:0,0:0:0:0:
16,344,102810,2,0,B|60:368|108:344,1,95,10|0,0:0|0:0,0:0:0:0:
204,304,103157,1,2,0:0:0:0:
52,260,103330,1,0,0:0:0:0:
232,328,103504,1,10,0:0:0:0:
24,236,103677,1,0,0:0:0:0:
224,184,103850,2,0,B|276:184|308:144,1,95,2|0,0:0|0:0,0:0:0:0:
144,72,104197,2,0,B|92:72|60:112,1,95,10|0,0:0|0:0,0:0:0:0:
216,276,104544,2,0,B|242:230|224:184,1,95,2|0,0:0|0:0,0:0:0:0:
124,312,104891,1,10,0:0:0:0:
200,380,105064,1,0,0:0:0:0:
296,336,105238,6,0,B|348:336|380:296,1,95,2|0,0:0|0:0,0:0:0:0:
484,164,105585,1,10,0:0:0:0:
484,336,105758,1,0,0:0:0:0:
380,200,105931,1,2,0:0:0:0:
500,76,106105,1,0,0:0:0:0:
452,256,106278,1,10,0:0:0:0:
300,156,106452,1,0,0:0:0:0:
452,256,106625,2,0,B|424:300|372:300,1,95,2|0,0:0|0:0,0:0:0:0:
188,288,106972,2,0,B|216:244|268:244,1,95,10|0,0:0|0:0,0:0:0:0:
156,376,107319,1,2,0:0:0:0:
132,208,107492,1,0,0:0:0:0:
256,348,107665,1,10,0:0:0:0:
84,300,107839,1,0,0:0:0:0:
236,192,108012,6,0,B|276:160|276:108,1,95,4|0,0:0|0:0,0:0:0:0:
172,36,108359,2,0,B|124:36|84:68,1,95,10|0,0:0|0:0,0:0:0:0:
340,36,108706,2,0,B|388:36|428:68,1,95,2|0,0:0|0:0,0:0:0:0:
324,224,109053,2,0,B|276:224|236:192,1,95,10|0,0:0|0:0,0:0:0:0:
424,172,109400,2,0,B|512:212|512:328,1,190,2|10,0:0|0:0,0:0:0:0:
416,368,109920,1,0,0:0:0:0:
240,264,110093,2,0,B|272:224|324:224,1,95,2|0,0:0|0:0,0:0:0:0:
180,348,110440,2,0,B|132:368|88:348,1,95,10|0,0:0|0:0,0:0:0:0:
88,192,110787,6,0,B|132:172|180:192,1,95,2|0,0:0|0:0,0:0:0:0:
16,264,111134,1,10,0:0:0:0:
16,96,111307,2,0,B|84:24|188:24,1,190,0|0,0:0|0:0,0:0:0:0:
348,104,111827,2,0,B|304:124|256:104,1,95,10|0,0:0|0:0,0:0:0:0:
384,24,112174,5,4,0:0:0:0:
412,36,112261,1,0,0:0:0:0:
436,48,112348,1,0,0:0:0:0:
460,60,112434,1,0,0:0:0:0:
484,72,112521,1,8,0:0:0:0:
484,224,112694,5,4,0:0:0:0:
460,236,112781,1,0,0:0:0:0:
436,248,112867,1,8,0:0:0:0:
412,260,112954,1,0,0:0:0:0:
384,272,113041,1,0,0:0:0:0:
240,324,113215,5,4,0:0:0:0:
208,336,113301,1,0,0:0:0:0:
176,344,113388,1,0,0:0:0:0:
144,348,113475,1,0,0:0:0:0:
112,348,113561,1,8,0:0:0:0:
80,344,113648,1,0,0:0:0:0:
48,340,113735,1,0,0:0:0:0:
16,324,113822,1,0,0:0:0:0:
24,292,113908,1,8,0:0:0:0:
32,260,113995,1,0,0:0:0:0:
40,228,114082,1,0,0:0:0:0:
48,196,114168,1,0,0:0:0:0:
60,164,114255,6,0,P|104:172|156:164,1,95,4|8,0:0|0:0,0:0:0:0:
184,156,114515,1,0,0:0:0:0:
212,148,114602,1,8,0:0:0:0:
248,144,114689,1,0,0:0:0:0:
280,144,114775,1,0,0:0:0:0:
312,148,114862,1,0,0:0:0:0:
344,156,114949,1,4,0:0:0:0:
256,96,124660,5,4,0:0:0:0:
136,188,124833,1,0,0:0:0:0:
136,188,124920,1,0,0:0:0:0:
136,188,125007,1,8,0:0:0:0:
136,188,125093,1,0,0:0:0:0:
136,188,125180,1,0,0:0:0:0:
256,96,125353,5,4,0:0:0:0:
376,188,125527,1,0,0:0:0:0:
376,188,125613,1,0,0:0:0:0:
376,188,125700,1,8,0:0:0:0:
376,188,125787,1,0,0:0:0:0:
376,188,125874,1,0,0:0:0:0:
256,280,126047,6,0,B|256:376,1,95,4|0,0:0|0:0,0:0:0:0:
92,268,126394,2,0,B|92:216|136:188,1,95,10|0,0:0|0:0,0:0:0:0:
376,188,126741,2,0,B|420:216|420:268,1,95,2|0,0:0|0:0,0:0:0:0:
256,280,127087,2,0,L|256:184,1,95,10|0,0:0|0:0,0:0:0:0:
116,52,127434,2,0,B|164:52|192:100,1,95,2|0,0:0|0:0,0:0:0:0:
396,52,127781,2,0,B|348:52|320:100,1,95,10|0,0:0|0:0,0:0:0:0:
256,184,128128,1,2,0:0:0:0:
152,324,128301,1,0,0:0:0:0:
256,376,128475,1,10,0:0:0:0:
356,324,128648,1,0,0:0:0:0:
456,184,128822,6,0,B|500:160|500:104,1,95,2|0,0:0|0:0,0:0:0:0:
300,104,129168,2,0,B|256:128|256:184,1,95,10|0,0:0|0:0,0:0:0:0:
172,240,129515,1,2,0:0:0:0:
344,240,129689,1,0,0:0:0:0:
256,300,129862,1,10,0:0:0:0:
88,180,130035,2,0,B|60:172|8:100|60:32|88:24,1,190,0|0,0:0|0:0,0:0:0:0:
256,100,130556,2,0,L|161:100,1,95,10|0,0:0|0:0,0:0:0:0:
324,20,130902,1,2,0:0:0:0:
424,152,131076,1,4,0:0:0:0:
256,100,131249,1,10,0:0:0:0:
424,48,131423,1,0,0:0:0:0:
256,260,131596,6,0,B|224:304|176:304,1,95,2|0,0:0|0:0,0:0:0:0:
20,236,131943,2,0,B|52:192|100:192,1,95,10|0,0:0|0:0,0:0:0:0:
256,260,132290,2,0,L|332:320,1,95,2|0,0:0|0:0,0:0:0:0:
420,372,132637,1,10,0:0:0:0:
504,220,132810,2,0,B|456:220|424:264,1,95,0|2,0:0|0:0,0:0:0:0:
420,372,133157,1,0,0:0:0:0:
256,260,133330,2,0,L|330:201,1,95,10|0,0:0|0:0,0:0:0:0:
504,116,133677,2,0,B|472:76|420:76,1,95,2|0,0:0|0:0,0:0:0:0:
232,64,134024,2,0,B|264:104|316:104,1,95,10|0,0:0|0:0,0:0:0:0:
168,192,134371,6,0,B|132:228|132:228|132:272,1,95,4|0,0:0|0:0,0:0:0:0:
256,355,134718,2,0,L|256:260,1,95,2|0,0:0|0:0,0:0:0:0:
344,192,135064,2,0,B|380:228|380:228|380:272,1,95,10|0,0:0|0:0,0:0:0:0:
256,124,135411,2,0,L|256:29,1,95,10|0,0:0|0:0,0:0:0:0:
168,192,135758,5,8,0:0:0:0:
344,192,135931,1,8,0:0:0:0:
152,148,136105,1,8,0:0:0:0:
360,236,136278,1,8,0:0:0:0:
152,236,136452,1,8,0:0:0:0:
360,148,136625,1,8,0:0:0:0:
92,192,136798,1,8,0:0:0:0:
420,192,136972,1,8,0:0:0:0:
256,356,137145,6,0,B|188:384|116:356,1,142.500005435944,2|0,0:0|0:0,0:0:0:0:
52,316,137665,1,0,0:0:0:0:
16,248,137839,2,0,B|-8:240|-32:188|-8:136|16:128,1,142.500005435944,0|0,0:0|0:0,0:0:0:0:
80,80,138359,1,0,0:0:0:0:
240,132,138533,2,0,B|208:144|168:132,1,71.2500027179719,2|0,0:0|0:0,0:0:0:0:
172,32,138879,2,0,B|210:20|242:32,1,71.2500027179719,0|0,0:0|0:0,0:0:0:0:
276,220,139226,2,0,B|208:252|136:220,1,142.500005435944,0|0,0:0|0:0,0:0:0:0:
72,180,139746,1,0,0:0:0:0:
116,340,139920,6,0,B|144:364|181:363,1,71.2500027179719,2|0,0:0|0:0,0:0:0:0:
306,303,140267,2,0,B|268:292|236:304,1,71.2500027179719,0|0,0:0|0:0,0:0:0:0:
358,363,140613,2,0,B|396:364|424:340,1,71.2500027179719,0|0,0:0|0:0,0:0:0:0:
480,284,140960,1,0,0:0:0:0:
444,216,141134,1,0,0:0:0:0:
376,176,141307,2,0,B|332:112|376:40,1,142.500005435944,2|0,0:0|0:0,0:0:0:0:
456,112,141827,1,0,0:0:0:0:
280,192,142001,2,0,B|248:208|212:192,1,71.2500027179719,0|0,0:0|0:0,0:0:0:0:
96,116,142348,2,0,B|132:100|164:116,1,71.2500027179719,0|0,0:0|0:0,0:0:0:0:
32,176,142694,6,0,B|8:168|-16:116|8:64|32:56,1,142.500005435944,2|0,0:0|0:0,0:0:0:0:
96,236,143215,1,0,0:0:0:0:
96,236,143388,2,0,L|96:308,1,71.2500027179719
196,236,143735,2,0,L|196:164,1,71.2500027179719
296,308,144082,2,0,B|364:340|436:308,1,142.500005435944,2|0,0:0|0:0,0:0:0:0:
480,244,144602,1,0,0:0:0:0:
396,126,144775,2,0,B|396:168|420:192,1,71.2500027179719,0|0,0:0|0:0,0:0:0:0:
468,96,145122,2,0,B|468:54|444:30,1,71.2500027179719,0|0,0:0|0:0,0:0:0:0:
324,96,145469,6,0,B|284:164|204:164,1,142.500005435944,2|0,0:0|0:0,0:0:0:0:
68,88,145989,2,0,B|102:76|138:88,1,71.2500027179719,0|8,0:0|0:3,0:0:0:0:
24,192,146336,1,0,0:0:0:0:
24,192,146423,1,0,0:0:0:0:
24,192,146509,1,8,0:0:0:0:
24,192,146596,1,0,0:0:0:0:
24,192,146683,1,0,0:0:0:0:
100,320,146856,5,4,0:0:0:0:
128,308,146943,1,0,0:0:0:0:
156,296,147030,1,0,0:0:0:0:
184,284,147116,1,0,0:0:0:0:
212,272,147203,1,8,0:0:0:0:
256,128,147376,5,4,0:0:0:0:
256,128,147463,1,0,0:0:0:0:
256,128,147550,1,8,0:0:0:0:
256,128,147637,1,0,0:0:0:0:
256,128,147723,1,0,0:0:0:0:
300,272,147897,5,4,0:0:0:0:
328,284,147984,1,0,0:0:0:0:
356,296,148070,1,0,0:0:0:0:
384,308,148157,1,0,0:0:0:0:
412,320,148244,6,0,B|460:308|476:256,1,95,4|0,0:0|0:0,0:0:0:0:
412,128,148590,2,0,B|364:140|348:192,1,95,10|0,0:0|0:0,0:0:0:0:
508,108,148937,1,2,0:0:0:0:
356,16,149111,1,0,0:0:0:0:
304,108,149284,1,10,0:0:0:0:
460,16,149457,1,0,0:0:0:0:
304,108,149631,2,0,B|276:152|224:152,1,95,2|0,0:0|0:0,0:0:0:0:
64,128,149978,2,0,B|92:84|144:84,1,95,10|0,0:0|0:0,0:0:0:0:
144,300,150324,2,0,B|92:300|64:256,1,95,2|0,0:0|0:0,0:0:0:0:
240,244,150671,1,10,0:0:0:0:
148,192,150845,1,0,0:0:0:0:
240,352,151018,6,0,B|284:372|332:352,1,95,2|0,0:0|0:0,0:0:0:0:
392,192,151365,1,10,0:0:0:0:
448,352,151538,1,0,0:0:0:0:
304,256,151712,1,2,0:0:0:0:
476,256,151885,2,0,B|508:224|508:168,1,95,0|10,0:0|0:0,0:0:0:0:
424,64,152232,1,0,0:0:0:0:
256,168,152405,2,0,B|256:120|296:84,1,95,2|0,0:0|0:0,0:0:0:0:
208,256,152752,2,0,B|176:300|128:300,1,95,10|0,0:0|0:0,0:0:0:0:
16,196,153099,1,2,0:0:0:0:
60,340,153272,1,0,0:0:0:0:
100,172,153446,1,10,0:0:0:0:
60,340,153619,1,0,0:0:0:0:
184,196,153793,6,0,B|228:176|240:124,1,95,4|0,0:0|0:0,0:0:0:0:
176,24,154139,2,0,B|132:24|92:64,1,95,10|0,0:0|0:0,0:0:0:0:
304,24,154486,2,0,B|348:24|388:64,1,95,2|0,0:0|0:0,0:0:0:0:
508,192,154833,2,0,B|480:236|428:236,1,95,10|0,0:0|0:0,0:0:0:0:
212,248,155180,2,0,B|236:142|340:126,1,190,2|10,0:0|0:0,0:0:0:0:
308,352,155700,1,0,0:0:0:0:
112,352,155874,2,0,B|64:352|36:304,1,95,2|0,0:0|0:0,0:0:0:0:
4,144,156220,2,0,B|52:144|80:192,1,95,10|0,0:0|0:0,0:0:0:0:
248,192,156567,5,2,0:0:0:0:
164,256,156741,1,0,0:0:0:0:
332,256,156914,1,10,0:0:0:0:
248,192,157087,2,0,L|248:96,1,95,0|8,0:0|3:0,0:0:0:0:
332,36,157434,1,0,0:0:0:0:
360,36,157521,1,0,0:0:0:0:
388,44,157608,1,8,0:0:0:0:
412,56,157694,1,0,0:0:0:0:
432,76,157781,1,0,0:0:0:0:
492,216,157955,5,4,0:0:0:0:
464,236,158041,1,0,0:0:0:0:
432,244,158128,1,0,0:0:0:0:
400,244,158215,1,0,0:0:0:0:
368,236,158301,1,8,0:0:0:0:
340,216,158388,1,0,0:0:0:0:
316,196,158475,5,4,0:0:0:0:
288,176,158561,1,0,0:0:0:0:
256,168,158648,1,8,0:0:0:0:
224,168,158735,1,0,0:0:0:0:
192,176,158822,1,0,0:0:0:0:
164,196,158908,1,0,0:0:0:0:
140,220,158995,5,4,0:0:0:0:
112,236,159082,1,0,0:0:0:0:
80,244,159168,1,0,0:0:0:0:
48,236,159255,1,0,0:0:0:0:
20,216,159342,6,0,B|20:168|60:128,1,95,4|0,0:0|0:0,0:0:0:0:
204,44,159689,2,0,B|156:24|112:44,1,95,10|0,0:0|0:0,0:0:0:0:
20,216,160035,2,0,B|20:264|60:304,1,95,2|0,0:0|0:0,0:0:0:0:
256,300,160382,2,0,B|212:276|164:300,1,95,10|0,0:0|0:0,0:0:0:0:
336,376,160729,2,0,B|440:376|480:272,1,190,2|10,0:0|0:0,0:0:0:0:
396,208,161249,1,0,0:0:0:0:
312,52,161423,2,0,B|288:100|312:144,1,95,2|0,0:0|0:0,0:0:0:0:
480,143,161770,2,0,B|504:96|480:52,1,95,10|0,0:0|0:0,0:0:0:0:
216,16,162116,6,0,B|152:100|216:192,1,190,4|10,0:0|0:0,0:0:0:0:
256,288,162637,1,0,0:0:0:0:
416,256,162810,1,2,0:0:0:0:
348,336,162983,1,0,0:0:0:0:
380,152,163157,2,0,B|332:152|296:192,1,95,10|0,0:0|0:0,0:0:0:0:
416,256,163504,2,0,B|460:276|508:256,1,95,2|0,0:0|0:0,0:0:0:0:
508,56,163850,2,0,B|460:36|416:56,1,95,10|0,0:0|0:0,0:0:0:0:
380,152,164197,1,2,0:0:0:0:
324,24,164371,1,0,0:0:0:0:
320,212,164544,1,10,0:0:0:0:
240,24,164718,1,0,0:0:0:0:
260,272,164891,6,0,B|228:316|180:316,1,95,4|0,0:0|0:0,0:0:0:0:
4,272,165238,2,0,B|36:316|84:316,1,95,10|0,0:0|0:0,0:0:0:0:
132,140,165585,2,0,L|132:236,1,95,2|0,0:0|0:0,0:0:0:0:
84,60,165931,2,0,B|132:36|176:60,1,95,10|0,0:0|0:0,0:0:0:0:
416,140,166278,2,0,B|328:196|236:140,1,190,2|10,0:0|0:0,0:0:0:0:
240,24,166798,1,0,0:0:0:0:
424,24,166972,2,0,B|476:24|508:64,1,95,2|0,0:0|0:0,0:0:0:0:
460,220,167319,2,0,B|416:192|416:140,1,95,10|0,0:0|0:0,0:0:0:0:
504,312,167665,6,0,B|472:352|420:352,1,95,2|0,0:0|0:0,0:0:0:0:
316,288,168012,1,10,0:0:0:0:
76,256,168186,2,0,B|124:352|228:352,1,190,0|0,0:0|0:0,0:0:0:0:
316,192,168706,2,0,L|316:288,1,95,10|0,0:0|0:0,0:0:0:0:
196,188,169053,5,4,0:0:0:0:
180,164,169139,1,0,0:0:0:0:
164,140,169226,1,0,0:0:0:0:
148,116,169313,1,0,0:0:0:0:
132,92,169400,1,8,0:0:0:0:
316,192,169573,5,4,0:0:0:0:
332,168,169659,1,0,0:0:0:0:
348,144,169746,1,8,0:0:0:0:
364,120,169833,1,0,0:0:0:0:
380,96,169920,1,0,0:0:0:0:
420,252,170093,5,4,0:0:0:0:
404,280,170180,1,0,0:0:0:0:
380,304,170267,1,0,0:0:0:0:
352,320,170353,1,0,0:0:0:0:
320,332,170440,1,8,0:0:0:0:
288,340,170527,1,0,0:0:0:0:
256,344,170613,1,0,0:0:0:0:
224,340,170700,1,0,0:0:0:0:
192,332,170787,1,8,0:0:0:0:
160,320,170874,1,0,0:0:0:0:
132,304,170960,1,0,0:0:0:0:
108,280,171047,1,0,0:0:0:0:
92,252,171134,6,0,L|20:320,1,95,4|0,0:0|0:0,0:0:0:0:
420,252,171481,2,0,L|492:320,1,95,10|0,0:0|0:0,0:0:0:0:
256,140,171827,6,0,B|256:44,1,95,4|0,0:0|0:0,0:0:0:0:
148,100,172174,2,0,B|124:144|148:192,1,95,2|0,0:0|0:0,0:0:0:0:
364,192,172521,2,0,B|387:144|363:100,1,95,2|0,0:0|0:0,0:0:0:0:
256,244,172868,2,0,B|256:340,1,95,2|0,0:0|0:0,0:0:0:0:
96,244,173215,2,0,B|44:244|20:196,1,95,2|0,0:0|0:0,0:0:0:0:
72,52,173561,2,0,B|124:52|148:100,1,95,2|0,0:0|0:0,0:0:0:0:
440,52,173908,2,0,B|388:52|364:100,1,95,2|0,0:0|0:0,0:0:0:0:
416,244,174255,2,0,B|468:244|492:196,1,95,2|0,0:0|0:0,0:0:0:0:
192,248,174602,6,0,B|160:283|160:283|160:331,1,95,2|0,0:0|0:0,0:0:0:0:
320,248,174949,2,0,B|352:283|352:283|352:331,1,95,2|0,0:0|0:0,0:0:0:0:
320,136,175296,2,0,B|352:101|352:101|352:53,1,95,2|0,0:0|0:0,0:0:0:0:
192,136,175643,2,0,B|160:101|160:101|160:53,1,95,2|0,0:0|0:0,0:0:0:0:
48,152,175989,6,0,B|0:176|0:228,1,95,8|0,0:0|0:0,0:0:0:0:
20,248,176249,1,0,0:0:0:0:
40,268,176336,1,8,0:0:0:0:
60,288,176423,1,0,0:0:0:0:
80,308,176509,1,0,0:0:0:0:
100,328,176596,1,0,0:0:0:0:
128,328,176683,5,8,0:0:0:0:
156,328,176770,1,0,0:0:0:0:
184,328,176856,1,0,0:0:0:0:
212,328,176943,1,0,0:0:0:0:
232,308,177030,1,8,0:0:0:0:
252,288,177116,1,0,0:0:0:0:
272,268,177203,1,0,0:0:0:0:
292,248,177290,1,0,0:0:0:0:
