osu file format v13

[General]
AudioFilename: omega.mp3
AudioLeadIn: 1000
PreviewTime: 39515
Countdown: 0
SampleSet: Soft
StackLeniency: 0.7
Mode: 0
LetterboxInBreaks: 0
WidescreenStoryboard: 1

[Editor]
DistanceSpacing: 1
BeatDivisor: 4
GridSize: 4
TimelineZoom: 1

[Metadata]
Title:Omega Rhythm
TitleUnicode:オメガリズム
Artist:UPLIFT SPICE
ArtistUnicode:UPLIFT SPICE
Creator:kajiyatta
Version:Easy
Source:
Tags:
BeatmapID:548776
BeatmapSetID:237012

[Difficulty]
HPDrainRate:2
CircleSize:3
OverallDifficulty:2
ApproachRate:3
SliderMultiplier:0.8
SliderTickRate:1

[Events]
//Background and Video events
0,0,"BG.jpg",0,0
//Break Periods
2,63819,67728
2,115149,124607
2,160929,162757
//Storyboard Layer 0 (Background)
//Storyboard Layer 1 (Fail)
//Storyboard Layer 2 (Pass)
//Storyboard Layer 3 (Foreground)
//Storyboard Sound Samples
//Background Colour Transformations
3,100,163,162,255

[TimingPoints]
1192,346.820809248555,4,2,1,60,1,0
38995,-100,4,2,0,50,0,0
39168,-100,4,2,1,60,0,0
40035,-100,4,2,1,70,0,1
49746,-100,4,2,1,60,0,1
50093,-100,4,2,0,50,0,1
50267,-100,4,2,1,60,0,1
50440,-100,4,2,0,50,0,1
50787,-100,4,2,1,60,0,1
50960,-100,4,2,1,60,0,0
51134,-100,4,2,1,70,0,1
60845,-100,4,2,1,60,0,1
63446,-100,4,2,1,60,0,0
63619,-100,4,2,0,70,0,1
63793,-100,4,2,0,70,0,0
67781,-100,4,2,1,60,0,0
91365,-100,4,2,1,70,0,1
101076,-100,4,2,1,60,0,1
101423,-100,4,2,0,50,0,1
101596,-100,4,2,1,60,0,1
101770,-100,4,2,0,50,0,1
102116,-100,4,2,1,60,0,1
102290,-100,4,2,1,60,0,0
102463,-100,4,2,1,70,0,1
112174,-100,4,2,1,60,0,1
114775,-100,4,2,1,60,0,0
114949,-100,4,2,0,70,0,1
115122,-100,4,2,0,70,0,0
124660,-100,4,2,1,60,0,0
137145,-100,4,2,2,50,0,0
146856,-100,4,2,0,60,0,0
148244,-100,4,2,1,70,0,1
159342,-100,4,2,1,60,0,0
164891,-100,4,2,1,70,0,1
169053,-100,4,2,1,60,0,1
171654,-100,4,2,1,60,0,1
171827,-100,4,2,0,70,0,1
172001,-100,4,2,1,60,0,0

[Colours]
Combo1 : 202,0,0
Combo2 : 14,122,60
Combo3 : 170,170,255

[HitObjects]
256,76,1192,6,0,B|184:32|104:76,1,160,2|2,0:0|0:0,0:0:0:0:
104,236,2579,2,0,B|184:280|256:236,1,160,2|2,0:0|0:0,0:0:0:0:
396,156,3966,6,0,B|472:180|500:268,2,160,2|2|2,0:0|0:0|0:0,0:0:0:0:
256,236,6047,1,2,0:0:0:0:
116,156,6741,6,0,B|40:180|12:268,2,160,2|2|2,0:0|0:0|0:0,0:0:0:0:
256,76,8822,1,2,0:0:0:0:
412,40,9515,6,0,B|456:116|412:192,1,160,2|2,0:0|0:0,0:0:0:0:
332,332,10902,2,0,B|256:292|176:332,1,160,2|2,0:0|0:0,0:0:0:0:
100,192,12290,6,0,B|56:116|100:40,2,160,2|2|2,0:0|0:0|0:0,0:0:0:0:
256,156,14371,1,2,0:0:0:0:
412,192,15064,6,0,B|456:116|412:40,2,160,2|2|8,0:0|0:0|0:0,0:0:0:0:
256,156,17145,1,8,0:0:0:0:
244,316,17839,6,0,B|168:360|92:316,2,160,4|0|0,0:0|0:0|0:0,0:0:0:0:
308,272,19573,2,0,L|368:328,2,79.9999999999999,2|0|2,0:0|0:0|0:0,0:0:0:0:
268,200,20613,6,0,B|312:124|268:48,1,160,0|0,0:0|0:0,0:0:0:0:
192,24,21654,1,2,0:0:0:0:
116,48,22001,2,0,B|72:124|116:200,1,160,0|0,0:0|0:0,0:0:0:0:
180,252,23041,1,2,0:0:0:0:
256,280,23388,6,0,B|320:280|360:328|408:328,2,160
192,228,25122,2,0,L|192:148,2,79.9999999999999,2|0|2,0:0|0:0|0:0,0:0:0:0:
132,280,26163,6,0,B|44:280|4:200,1,160,0|0,0:0|0:0,0:0:0:0:
16,120,27203,1,2,0:0:0:0:
64,56,27550,2,0,B|136:12|216:56,2,160,0|0|4,0:0|0:0|0:0,0:0:0:0:
136,200,29631,6,0,B|84:272|136:352,2,160
208,160,31365,1,2,0:0:0:0:
284,192,31712,6,0,B|316:216|360:216,1,79.9999999999999,0|2,0:0|0:0,0:0:0:0:
436,192,32405,2,0,B|464:168|464:120,1,79.9999999999999,0|2,0:0|0:0,0:0:0:0:
416,56,33099,2,0,B|340:8|264:56,1,160
184,64,34139,2,0,L|100:64,1,79.9999999999999,2|4,0:0|0:0,0:0:0:0:
0,180,35180,6,0,B|0:268|76:316,2,160
72,140,36914,1,2,0:0:0:0:
148,172,37261,6,0,B|200:236|288:236,1,160,4|0,0:0|0:0,0:0:0:0:
368,236,38301,1,2,0:0:0:0:
436,192,38648,2,0,B|488:152|488:88,1,120,2|2,0:0|0:0,0:0:0:0:
288,56,40035,6,0,B|212:16|132:56,1,160,4|0,0:0|0:0,0:0:0:0:
64,92,41076,1,2,0:0:0:0:
24,160,41423,2,0,B|24:248|96:296,1,160
164,336,42463,1,2,0:0:0:0:
236,300,42810,6,0,B|280:300|308:272,1,79.9999999999999,0|2,0:0|0:0,0:0:0:0:
388,272,43504,2,0,B|416:300|460:300,1,79.9999999999999,0|2,0:0|0:0,0:0:0:0:
508,236,44197,2,0,B|508:152|432:104,1,160,0|0,0:0|0:0,0:0:0:0:
352,92,45238,1,2,0:0:0:0:
284,136,45585,6,0,B|212:180|132:136,2,160,4|0|0,0:0|0:0|0:0,0:0:0:0:
352,92,47319,2,0,L|396:20,2,79.9999999999999,2|0|2,0:0|0:0|0:0,0:0:0:0:
356,172,48359,6,0,L|356:252,1,79.9999999999999,0|2,0:0|0:0,0:0:0:0:
308,316,49053,2,0,B|284:348|236:348,1,79.9999999999999,8|2,3:0|0:0,0:0:0:0:
164,316,49746,2,0,B|116:272|52:272,2,120,4|4|4,0:0|0:0|0:0,0:0:0:0:
228,268,51134,6,0,B|272:196|228:116,1,160,4|0,0:0|0:0,0:0:0:0:
152,84,52174,1,2,0:0:0:0:
76,116,52521,2,0,B|32:196|76:268,1,160,0|0,0:0|0:0,0:0:0:0:
140,320,53561,1,2,0:0:0:0:
216,348,53908,6,0,B|300:348|356:280,1,160,0|0,0:0|0:0,0:0:0:0:
408,220,54949,1,2,0:0:0:0:
448,152,55296,2,0,B|464:112|448:72,1,79.9999999999999,0|2,0:0|0:0,0:0:0:0:
368,72,55989,2,0,B|352:112|367:150,1,79.9999999999999,0|2,0:0|0:0,0:0:0:0:
328,220,56683,6,0,B|256:264|176:220,1,160,4|0,0:0|0:0,0:0:0:0:
100,192,57723,1,2,0:0:0:0:
24,164,58070,2,0,B|-24:232|24:316,2,160
72,100,59804,5,2,0:0:0:0:
136,52,60151,2,0,B|172:40|216:52,1,79.9999999999999,0|2,0:0|0:0,0:0:0:0:
256,192,60845,12,4,62926,0:0:0:0:
256,192,63619,5,4,0:0:0:0:
368,76,69168,6,0,B|340:48|296:48,1,79.9999999999999,4|2,0:0|0:0,0:0:0:0:
232,96,69862,2,0,B|200:124|160:124,1,80,0|2,0:0|0:0,0:0:0:0:
80,124,70556,2,0,B|0:168|0:256,2,160
152,156,72290,5,2,0:0:0:0:
220,196,72637,2,0,B|188:272,1,80,0|2,0:0|0:0,0:0:0:0:
164,344,73330,2,0,B|240:384|320:344,1,160
388,308,74371,1,2,0:0:0:0:
444,252,74718,6,0,B|444:176|384:108,1,160,0|0,0:0|0:0,0:0:0:0:
316,64,75758,1,2,0:0:0:0:
244,32,76105,2,0,B|204:32|168:60,1,79.9999999999999,0|2,0:0|0:0,0:0:0:0:
168,140,76798,2,0,B|128:152|89:140,1,79.9999999999999,0|2,0:0|0:0,0:0:0:0:
44,72,77492,6,0,B|20:80|-16:140|20:200|44:208,1,160
96,268,78533,2,0,L|44:328,2,79.9999999999999,2|0|2,0:0|0:0|0:0,0:0:0:0:
176,268,79573,2,0,L|228:328,2,79.9999999999999,0|2|4,0:0|0:0|0:0,0:0:0:0:
256,128,80960,6,0,B|332:84|408:128,2,160
256,208,82694,1,2,0:0:0:0:
256,192,83041,12,4,85816,0:0:0:0:
256,288,86509,6,0,B|180:332|104:288,2,160
256,208,88244,1,2,0:0:0:0:
256,128,88590,6,0,B|332:84|408:128,2,160,4|0|0,0:0|0:0|0:0,0:0:0:0:
176,128,90324,2,0,L|120:72,2,79.9999999999999,2|0|2,0:0|0:0|0:0,0:0:0:0:
216,196,91365,6,0,L|216:288,1,79.9999999999999,4|2,0:0|0:0,0:0:0:0:
260,344,92059,2,0,B|300:344|336:320,1,79.9999999999999,0|2,0:0|0:0,0:0:0:0:
416,320,92752,2,0,B|452:344|492:344,2,79.9999999999999,0|2|0,0:0|0:0|0:0,0:0:0:0:
376,248,93793,1,2,0:0:0:0:
308,200,94139,6,0,B|316:176|376:140|436:176|444:200,2,160
256,260,95874,1,2,0:0:0:0:
200,316,96220,2,0,L|116:316,1,79.9999999999999,0|2,0:0|0:0,0:0:0:0:
40,316,96914,6,0,B|-4:240|40:164,1,160,4|0,0:0|0:0,0:0:0:0:
100,112,97955,1,2,0:0:0:0:
172,144,98301,2,0,B|248:184|328:144,1,160,0|0,0:0|0:0,0:0:0:0:
400,112,99342,1,2,0:0:0:0:
468,152,99689,6,0,B|500:176|500:224,1,79.9999999999999,0|2,0:0|0:0,0:0:0:0:
484,300,100382,2,0,B|460:328|408:324,1,79.9999999999999,8|2,3:0|0:0,0:0:0:0:
348,272,101076,2,0,B|292:244|232:272,2,120,4|4|4,0:0|0:0|0:0,0:0:0:0:
424,244,102463,6,0,B|488:192|488:104,1,160,4|0,0:0|0:0,0:0:0:0:
424,56,103504,1,2,0:0:0:0:
352,92,103850,2,0,B|300:156|212:156,1,160,0|0,0:0|0:0,0:0:0:0:
132,156,104891,1,2,0:0:0:0:
68,108,105238,6,0,L|4:56,2,79.9999999999999,0|2|0,0:0|0:0|0:0,0:0:0:0:
132,156,106278,1,2,0:0:0:0:
92,228,106625,2,0,B|76:264|92:308,1,79.9999999999999,0|2,0:0|0:0,0:0:0:0:
172,308,107319,2,0,B|188:272|172:228,1,79.9999999999999,0|2,0:0|0:0,0:0:0:0:
132,156,108012,6,0,B|160:72|256:72,1,160,4|0,0:0|0:0,0:0:0:0:
308,132,109053,1,2,0:0:0:0:
360,72,109400,2,0,B|454:71|482:155,2,160
308,132,111134,6,0,L|308:212,2,79.9999999999999,2|0|2,0:0|0:0|0:0,0:0:0:0:
256,192,112174,12,4,114949,0:0:0:0:
256,72,126047,6,0,B|180:28|104:72,1,160,4|0,0:0|0:0,0:0:0:0:
56,136,127087,1,2,0:0:0:0:
104,200,127434,2,0,B|180:244|256:200,1,160
304,136,128475,1,2,0:0:0:0:
384,136,128822,6,0,L|432:72,2,79.9999999999999,0|2|0,0:0|0:0|0:0,0:0:0:0:
440,192,129862,1,2,0:0:0:0:
384,248,130209,2,0,L|432:312,2,79.9999999999999,0|2|0,0:0|0:0|0:0,0:0:0:0:
304,248,131249,1,2,0:0:0:0:
248,192,131596,6,0,B|164:192|108:264,1,160,0|0,0:0|0:0,0:0:0:0:
52,320,132637,1,2,0:0:0:0:
28,244,132983,2,0,B|-16:168|28:92,1,160,0|0,0:0|0:0,0:0:0:0:
100,60,134024,1,2,0:0:0:0:
172,92,134371,6,0,B|228:156|312:156,1,160,4|0,0:0|0:0,0:0:0:0:
384,192,135411,1,2,0:0:0:0:
380,112,135758,2,0,P|400:80|436:56,2,80,2|2|2,0:0|0:0|0:0,0:0:0:0:
384,192,136798,1,2,0:0:0:0:
384,272,137145,6,0,B|332:340|244:340,1,160,2|0,0:0|0:0,0:0:0:0:
92,296,138533,2,0,B|144:228|232:228,1,160,2|0,0:0|0:0,0:0:0:0:
384,192,139920,6,0,B|456:144|456:56,2,160,2|0|2,0:0|0:0|0:0,0:0:0:0:
256,96,142001,1,0,0:0:0:0:
128,192,142694,6,0,B|56:144|56:56,2,160,2|0|2,0:0|0:0|0:0,0:0:0:0:
256,288,144775,1,0,0:0:0:0:
416,288,145469,5,2,0:0:0:0:
416,128,146163,1,8,0:3:0:0:
256,128,146856,2,0,B|256:64|200:28,2,120,4|4|4,0:0|0:0|0:0,0:0:0:0:
208,192,148244,6,0,B|164:268|208:344,1,160,4|0,0:0|0:0,0:0:0:0:
284,368,149284,1,2,0:0:0:0:
360,344,149631,2,0,B|404:268|360:192,1,160
284,168,150671,1,2,0:0:0:0:
256,92,151018,6,0,L|308:32,2,79.9999999999999,0|2|0,0:0|0:0|0:0,0:0:0:0:
200,152,152059,1,2,0:0:0:0:
144,92,152405,2,0,L|92:32,2,79.9999999999999,0|2|0,0:0|0:0|0:0,0:0:0:0:
200,152,153446,1,2,0:0:0:0:
256,212,153793,6,0,B|256:252|288:284,1,79.9999999999999,4|2,0:0|0:0,0:0:0:0:
344,340,154486,2,0,B|384:356|424:340,1,79.9999999999999,0|2,0:0|0:0,0:0:0:0:
480,284,155180,2,0,B|520:208|481:130,1,160,0|0,0:0|0:0,0:0:0:0:
408,96,156220,1,2,0:0:0:0:
332,72,156567,6,0,B|256:116|180:72,1,160,0|0,0:0|0:0,0:0:0:0:
108,32,157608,1,2,0:0:0:0:
256,192,157955,12,2,160729,0:0:0:0:
256,96,164197,6,0,L|176:96,1,79.9999999999999,0|2,0:0|0:0,0:0:0:0:
96,96,164891,6,0,B|16:132|16:224,1,160,4|0,0:0|0:0,0:0:0:0:
76,276,165931,1,2,0:0:0:0:
140,324,166278,2,0,B|216:364|296:324,1,160,0|0,0:0|0:0,0:0:0:0:
356,276,167319,1,2,0:0:0:0:
408,216,167665,6,0,L|456:152,2,79.9999999999999,0|2|0,0:0|0:0|0:0,0:0:0:0:
356,276,168706,1,2,0:0:0:0:
256,192,169053,12,4,171134,0:0:0:0:
256,192,171827,6,0,B|180:232|100:192,1,160,4|2,0:0|0:0,0:0:0:0:
60,124,172868,1,2,0:0:0:0:
100,56,173215,2,0,B|177:17|253:57,1,160,2|2,0:0|0:0,0:0:0:0:
300,124,174255,1,2,0:0:0:0:
380,124,174602,6,0,L|416:52,2,79.9999999999999,2|2|2,0:0|0:0|0:0,0:0:0:0:
340,192,175642,1,2,0:0:0:0:
380,260,175989,2,0,L|416:332,2,79.9999999999999,2|2|2,0:0|0:0|0:0,0:0:0:0:
340,192,177030,2,0,L|288:192,1,40,2|0,0:0|0:0,0:0:0:0:
