osu file format v10

[General]
AudioFilename: Omega Rhythm.mp3
AudioLeadIn: 1500
PreviewTime: 39406
Countdown: 0
SampleSet: Soft
StackLeniency: 0.7
Mode: 0
LetterboxInBreaks: 1

[Editor]
DistanceSpacing: 0
BeatDivisor: 4
GridSize: 4

[Metadata]
Title:Omega Rhythm
TitleUnicode:Omega Rhythm
Artist:UPLIFT SPICE
ArtistUnicode:UPLIFT SPICE
Creator:jamxx
Version:Ideologie
Source:
Tags:
BeatmapID:200277
BeatmapSetID:68150

[Difficulty]
HPDrainRate:6
CircleSize:4
OverallDifficulty:7
ApproachRate:9
SliderMultiplier:1.84
SliderTickRate:2

[Events]
//Background and Video events
0,0,"bg.jpg"
//Break Periods
2,63793,68542
2,115123,125421
2,137319,144843
2,161250,163571
//Storyboard Layer 0 (Background)
//Storyboard Layer 1 (Fail)
//Storyboard Layer 2 (Pass)
//Storyboard Layer 3 (Foreground)
//Storyboard Sound Samples
//Background Colour Transformations
3,100,163,162,255

[TimingPoints]
1166,346.820809248555,4,2,1,60,1,0
40009,-100,4,2,1,80,0,1
60905,-100,4,2,1,50,0,1
62986,-100,4,2,1,80,0,1
63593,-100,4,2,1,80,0,0
69056,-100,4,2,1,60,0,0
91339,-100,4,2,1,80,0,1
112235,-100,4,2,1,50,0,1
114923,-100,4,2,1,80,0,0
125934,-100,4,2,1,60,0,0
136339,-100,4,2,1,80,0,0
145443,-100,4,2,1,70,0,0
148218,-100,4,2,1,80,0,1
159316,-100,4,2,1,70,0,0
161050,-100,4,2,1,30,0,0
164085,-100,4,2,1,70,0,0
169113,-100,4,2,1,60,0,0
171194,-100,4,2,1,70,0,0

[Colours]
Combo1 : 128,255,128
Combo2 : 0,128,255
Combo3 : 255,128,192
Combo4 : 255,128,64

[HitObjects]
208,192,1166,2,0,P|160:184|120:160,1,92,2|0,0:0|0:0,0:0:0
304,192,1512,2,0,P|352:200|392:224,1,92,2|0,0:0|0:0,0:0:0
256,144,1859,2,0,P|264:96|288:56,1,92,2|0,0:0|0:0,0:0:0
256,240,2206,2,0,P|248:288|224:328,1,92,2|0,0:0|0:0,0:0:0
116,344,2553,5,2,0:0:0
172,248,2726,1,0,0:0:0
64,224,2900,2,0,P|40:180|36:136,1,92,2|0,0:0|0:0,0:0:0
80,36,3246,1,2,0:0:0
116,140,3420,1,0,0:0:0
220,88,3593,1,2,0:0:0
256,192,3767,1,0,0:0:0
292,296,3940,6,0,P|372:344,1,92,2|0,0:0|0:0,0:0:0
220,296,4287,2,0,P|140:344,1,92,2|0,0:0|0:0,0:0:0
292,212,4634,2,0,P|384:212,1,92,2|0,0:0|0:0,0:0:0
220,212,4981,2,0,P|128:212,1,92,2|0,0:0|0:0,0:0:0
76,116,5327,5,2,0:0:0
76,308,5501,1,0,0:0:0
76,116,5674,2,0,P|108:80|144:56,1,92,2|0,0:0|0:0,0:0:0
300,120,6021,2,0,P|256:128|208:120,1,92,2|0,0:0|0:0,0:0:0
368,56,6368,2,0,P|404:80|436:116,1,92,2|0,0:0|0:0,0:0:0
436,267,6715,5,2,0:0:0
356,192,6888,2,0,P|264:192,1,92,0|2,0:0|0:0,0:0:0
172,192,7235,1,0,0:0:0
112,264,7408,2,0,P|92:312|64:344,1,92,2|0,0:0|0:0,0:0:0
112,120,7755,2,0,P|132:72|160:40,1,92,2|0,0:0|0:0,0:0:0
304,32,8102,5,2,0:0:0
204,112,8275,1,0,0:0:0
332,120,8449,1,2,0:0:0
432,40,8622,2,0,P|456:128|436:216,1,184,0|0,0:0|0:0,0:0:0
368,280,9142,1,2,0:0:0
288,232,9316,6,0,P|196:212|108:232,1,184
76,316,9836,1,2,0:0:0
48,160,10009,1,0,0:0:0
76,316,10183,2,0,P|116:340|160:348,2,92,2|0|2,0:0|0:0|0:0,0:0:0
48,160,10703,6,0,P|128:104|216:96,1,184
256,192,11223,1,2,0:0:0
464,160,11397,2,0,P|384:104|296:96,1,184
256,192,11917,1,2,0:0:0
48,224,12090,6,0,P|128:280|216:288,1,184
256,192,12611,2,0,P|256:96,1,92,2|0,0:0|0:0,0:0:0
336,56,12957,1,2,0:0:0
176,56,13131,1,0,0:0:0
336,56,13304,1,2,0:0:0
176,56,13478,1,0,0:0:0
336,56,13651,6,0,P|384:72|420:96,1,92,2|0,0:0|0:0,0:0:0
418,289,13998,1,2,0:0:0
436,192,14171,2,0,P|364:196|340:236|340:236|320:272|280:284,1,184
256,192,14692,1,2,0:0:0
227,101,14865,6,0,P|192:112|172:148|172:148|148:188|76:192,1,184
93,94,15385,2,0,P|124:52|160:28,1,92,2|0,0:0|0:0,0:0:0
355,29,15732,1,2,0:0:0
312,132,15905,1,0,0:0:0
421,117,16079,6,0,P|440:208|416:296,1,184,6|2,0:0|0:0,0:0:0
416,294,16599,1,2,0:0:0
348,208,16772,2,0,P|308:240|308:296|308:296|224:296,1,184,0|0,0:0|0:0,0:0:0
224,296,17293,1,2,0:0:0
126,243,17466,1,8,0:0:0
116,221,17553,1,8,0:0:0
111,198,17639,1,8,0:0:0
112,174,17726,1,8,0:0:0
121,153,17813,6,0,P|104:112|68:80,1,92,6|0,0:0|0:0,0:0:0
188,64,18160,2,0,P|205:105|241:137,1,92,10|0,0:0|0:0,0:0:0
312,80,18507,1,2,0:0:0
312,196,18680,1,0,0:0:0
312,80,18853,2,0,P|352:56|396:48,1,92,10|0,0:0|0:0,0:0:0
476,112,19200,5,2,0:0:0
476,272,19374,1,2,3:0:0
476,112,19547,1,10,0:0:0
476,272,19720,2,0,P|388:304|296:312,1,184,2|2,3:0|3:0,0:0:0
176,236,20241,1,10,0:0:0
312,196,20414,1,2,3:0:0
176,236,20587,6,0,P|128:244|80:240,1,92,2|0,0:0|0:0,0:0:0
80,64,20934,2,0,P|128:56|176:60,1,92,10|0,0:0|0:0,0:0:0
268,144,21281,1,2,0:0:0
144,152,21455,1,0,0:0:0
268,144,21628,2,0,P|324:140|364:144,1,92,10|0,0:0|0:0,0:0:0
428,56,21975,5,2,0:0:0
404,244,22148,1,2,3:0:0
472,156,22322,1,10,0:0:0
404,244,22495,2,0,P|320:284|228:296,1,184,2|2,3:0|3:0,0:0:0
160,352,23015,2,0,P|140:308|148:264,1,92,10|2,0:0|3:0,0:0:0
256,104,23362,6,0,P|276:148|268:192,1,92,2|0,0:0|0:0,0:0:0
104,208,23709,1,10,0:0:0
156,52,23882,1,0,0:0:0
256,104,24056,2,0,P|348:124,1,92,2|0,0:0|0:0,0:0:0
488,152,24402,1,10,0:0:0
428,80,24576,1,0,0:0:0
406,194,24749,6,0,P|408:240|424:284,1,92,2|2,0:0|3:0,0:0:0
484,352,25096,1,10,0:0:0
364,352,25270,2,0,P|256:344|180:328,1,184,2|2,3:0|3:0,0:0:0
268,260,25790,2,0,P|224:252|176:236,1,92,10|2,0:0|3:0,0:0:0
244,124,26137,6,0,P|288:132|336:148,1,92,2|0,0:0|0:0,0:0:0
400,40,26483,2,0,P|425:76|448:122,1,92,10|0,0:0|0:0,0:0:0
432,284,26830,1,2,0:0:0
268,260,27004,1,0,0:0:0
108,220,27177,2,0,P|124:176|148:136,1,92,10|0,0:0|0:0,0:0:0
248,92,27524,5,2,0:0:0
96,40,27697,1,2,3:0:0
248,92,27871,2,0,P|332:128,1,92,10|2,0:0|3:0,0:0:0
488,192,28218,1,2,0:0:0
440,100,28391,1,2,3:0:0
383,226,28564,1,10,0:0:0
367,243,28651,1,0,0:0:0
349,258,28738,1,2,3:0:0
328,268,28824,1,0,0:0:0
305,273,28911,6,0,P|212:292,1,92,6|0,0:0|0:0,0:0:0
268,184,29258,2,0,P|176:164,1,92,10|0,0:0|0:0,0:0:0
351,137,29605,2,0,P|332:44,1,92,2|0,0:0|0:0,0:0:0
440,100,29952,2,0,P|460:8,1,92,10|0,0:0|0:0,0:0:0
444,224,30298,6,0,P|463:317,1,92,2|0,0:0|0:0,0:0:0
355,261,30645,2,0,P|335:353,1,92,10|0,0:0|0:0,0:0:0
308,178,30992,2,0,P|215:197,1,92,2|0,0:0|0:0,0:0:0
271,89,31339,2,0,P|179:69,1,92,10|0,0:0|0:0,0:0:0
73,41,31686,5,2,0:0:0
59,59,31772,1,0,0:0:0
48,79,31859,1,0,0:0:0
42,101,31946,1,0,0:0:0
41,124,32033,1,10,0:0:0
50,144,32119,1,0,0:0:0
61,164,32206,1,0,0:0:0
71,184,32293,1,0,0:0:0
78,205,32379,1,2,0:0:0
82,227,32466,1,0,0:0:0
83,250,32553,1,0,0:0:0
79,272,32639,1,0,0:0:0
76,294,32726,2,0,P|101:336|139:356,1,92,10|0,0:0|0:0,0:0:0
220,284,33073,6,0,P|284:216|368:180,1,184,2|10,0:0|0:0,0:0:0
476,196,33593,2,0,P|448:108|368:68,1,184
212,120,34113,1,10,0:0:0
269,25,34287,1,0,0:0:0
314,162,34460,5,6,0:0:0
322,183,34547,1,0,0:0:0
325,205,34634,1,0,0:0:0
322,227,34720,1,0,0:0:0
311,247,34807,1,10,0:0:0
292,261,34894,1,0,0:0:0
269,266,34981,1,0,0:0:0
246,268,35067,1,0,0:0:0
224,276,35154,1,2,0:0:0
205,289,35241,1,0,0:0:0
187,303,35327,1,0,0:0:0
169,317,35414,1,0,0:0:0
150,330,35501,2,0,P|105:340|60:333,1,92,10|0,0:0|0:0,0:0:0
56,224,35848,6,0,P|136:108|256:52,1,276,2|0,0:0|0:0,0:0:0
392,80,36541,1,2,0:0:0
476,192,36715,1,0,0:0:0
392,304,36888,2,0,P|348:292|312:264,2,92,10|0|4,0:0|0:0|0:0,0:0:0
256,80,37582,5,2,0:0:0
352,136,37755,1,2,0:0:0
352,248,37929,1,2,0:0:0
256,304,38102,1,2,0:0:0
159,248,38275,1,2,0:0:0
159,136,38449,1,2,0:0:0
256,185,38622,5,2,0:0:0
262,188,38709,5,2,0:0:0
262,195,38796,5,2,0:0:0
256,199,38882,5,2,0:0:0
249,195,38969,5,2,0:0:0
249,188,39056,5,2,0:0:0
256,185,39142,5,8,0:0:0
256,192,40009,5,6,0:0:0
396,192,40183,1,0,0:0:0
326,95,40356,2,0,P|224:95,1,92,10|0,0:0|0:0,0:0:0
73,51,40703,1,2,0:0:0
160,192,40876,2,0,P|184:232|192:276,1,92,0|10,0:0|0:0,0:0:0
112,352,41223,1,0,0:0:0
256,316,41397,5,2,0:0:0
400,352,41570,1,0,0:0:0
320,276,41744,2,0,P|328:232|352:192,1,92,10|0,0:0|0:0,0:0:0
256,192,42090,2,0,P|264:148|288:108,1,92,2|0,0:0|0:0,0:0:0
400,104,42437,1,10,0:0:0
212,28,42611,1,0,0:0:0
400,104,42784,6,0,P|432:140|452:184,1,92,2|0,0:0|0:0,0:0:0
428,344,43131,1,10,0:0:0
368,252,43304,2,0,P|280:212|192:208,1,184
84,204,43824,2,0,P|80:152|88:112,1,92,10|0,0:0|0:0,0:0:0
220,48,44171,5,2,0:0:0
242,53,44258,1,0,0:0:0
263,60,44345,1,0,0:0:0
282,71,44431,1,0,0:0:0
299,86,44518,2,0,P|339:119|381:138,1,92,10|0,0:0|0:0,0:0:0
375,247,44865,2,0,P|339:265|299:298,1,92,2|0,0:0|0:0,0:0:0
256,192,45212,2,0,P|164:192,1,92,10|0,0:0|0:0,0:0:0
52,192,45559,5,2,0:0:0
460,192,45905,1,10,0:0:0
126,321,46252,1,2,0:0:0
385,62,46599,1,10,0:0:0
255,357,46946,5,2,0:0:0
255,26,47293,1,10,0:0:0
361,297,47639,1,2,0:0:0
150,86,47986,1,10,0:0:0
389,192,48333,6,0,P|292:192,1,92,2|0,0:0|0:0,0:0:0
122,192,48680,2,0,P|216:192,1,92,10|0,0:0|0:0,0:0:0
256,80,49027,1,2,0:0:0
136,80,49200,1,0,0:0:0
113,82,49287,1,0,0:0:0
91,89,49374,1,10,0:0:0
72,101,49460,1,0,0:0:0
58,119,49547,1,0,0:0:0
47,139,49634,1,0,0:0:0
44,160,49720,5,10,0:0:0
44,184,49807,1,0,0:0:0
44,208,49894,1,0,0:0:0
44,232,49981,1,0,0:0:0
44,256,50067,1,2,0:0:0
184,324,50241,5,10,0:0:0
184,300,50327,1,0,0:0:0
184,276,50414,1,0,0:0:0
184,252,50501,1,0,0:0:0
184,228,50587,1,2,0:0:0
324,160,50761,5,10,0:0:0
324,184,50848,1,0,0:0:0
324,208,50934,1,0,0:0:0
324,232,51021,1,0,0:0:0
324,256,51108,6,0,P|416:220|468:152,1,184,6|10,0:0|0:0,0:0:0
480,44,51628,1,0,0:0:0
392,112,51801,2,0,P|352:136|304:148,1,92,2|0,0:0|0:0,0:0:0
212,61,52148,2,0,P|256:50|300:61,1,92,10|0,0:0|0:0,0:0:0
203,147,52495,6,0,P|160:136|120:112,1,92,2|0,0:0|0:0,0:0:0
45,154,52842,2,0,P|96:220|188:256,1,184,10|2,0:0|0:0,0:0:0
323,256,53362,1,0,0:0:0
256,168,53535,2,0,P|256:120|272:80,1,92,10|0,0:0|0:0,0:0:0
424,92,53882,6,0,P|424:140|408:180,1,92,2|0,0:0|0:0,0:0:0
323,256,54229,1,10,0:0:0
256,168,54402,2,0,P|168:136|76:128,1,184
32,228,54923,2,0,P|72:256|112:272,1,92,10|0,0:0|0:0,0:0:0
256,312,55270,5,2,0:0:0
278,317,55356,1,0,0:0:0
301,317,55443,1,0,0:0:0
324,317,55530,1,0,0:0:0
346,317,55616,2,0,P|391:305|427:277,1,92,10|0,0:0|0:0,0:0:0
464,136,55963,1,2,0:0:0
332,240,56137,1,0,0:0:0
388,88,56310,1,10,0:0:0
256,192,56483,1,0,0:0:0
144,192,56657,6,0,P|96:184|60:160,1,92,2|0,0:0|0:0,0:0:0
48,32,57004,1,10,0:0:0
140,120,57177,1,0,0:0:0
256,192,57350,2,0,P|264:144|288:108,1,92,2|0,0:0|0:0,0:0:0
412,76,57697,1,10,0:0:0
464,192,57871,1,0,0:0:0
412,308,58044,6,0,P|372:284|340:248,1,92,2|0,0:0|0:0,0:0:0
300,100,58391,1,10,0:0:0
256,248,58564,1,0,0:0:0
100,308,58738,2,0,P|140:284|172:248,1,92,2|0,0:0|0:0,0:0:0
212,100,59085,1,10,0:0:0
256,248,59258,1,0,0:0:0
347,248,59431,6,0,P|448:248,1,92,2|0,0:0|0:0,0:0:0
165,248,59778,2,0,P|64:248,1,92,10|0,0:0|0:0,0:0:0
172,108,60125,1,2,0:0:0
172,108,60298,1,0,0:0:0
340,108,60472,1,10,0:0:0
340,108,60645,1,0,0:0:0
256,24,60819,1,2,0:0:0
256,192,60992,5,8,0:0:0
256,185,61079,1,8,0:0:0
262,188,61165,1,8,0:0:0
262,195,61252,1,8,0:0:0
256,198,61339,5,8,0:0:0
249,195,61426,1,8,0:0:0
249,188,61512,1,8,0:0:0
256,185,61599,1,8,0:0:0
262,188,61686,1,8,0:0:0
262,195,61772,1,8,0:0:0
256,198,61859,5,8,0:0:0
249,195,61946,1,8,0:0:0
249,188,62033,1,8,0:0:0
256,185,62119,1,8,0:0:0
262,188,62206,1,8,0:0:0
262,195,62293,1,8,0:0:0
256,198,62379,1,8,0:0:0
249,195,62466,1,8,0:0:0
249,188,62553,1,8,0:0:0
256,185,62639,1,8,0:0:0
262,188,62726,1,8,0:0:0
262,195,62813,1,8,0:0:0
256,192,62900,5,12,0:0:0
440,192,63246,5,2,0:0:0
72,192,63593,5,4,0:0:0
256,192,69142,5,6,0:0:0
256,109,69316,2,0,P|256:16,2,92,0|10|0,0:0|0:0|0:0,0:0:0
328,233,69836,2,0,P|411:282,1,92,2|0,0:0|0:0,0:0:0
184,233,70183,2,0,P|100:282,1,92,10|0,0:0|0:0,0:0:0
36,192,70530,5,2,0:0:0
176,148,70703,1,2,3:0:0
36,108,70876,1,10,0:0:0
176,64,71050,2,0,P|240:72|256:128|256:128|336:128,1,184,2|2,3:0|3:0,0:0:0
480,128,71570,1,10,0:0:0
405,46,71744,1,2,3:0:0
405,209,71917,6,0,P|420:252|448:288,1,92,2|0,0:0|0:0,0:0:0
352,344,72264,2,0,P|337:301|309:265,1,92,10|0,0:0|0:0,0:0:0
216,152,72611,1,2,0:0:0
204,300,72784,1,0,0:0:0
216,152,72957,2,0,P|252:120|292:104,1,92,10|0,0:0|0:0,0:0:0
496,152,73304,6,0,P|460:120|420:104,1,92,2|2,0:0|3:0,0:0:0
356,40,73651,1,10,0:0:0
356,172,73824,2,0,P|288:240|200:264,1,184,2|2,3:0|3:0,0:0:0
200,172,74345,2,0,P|152:164|112:144,1,92,10|2,0:0|3:0,0:0:0
169,44,74692,6,0,P|217:52|256:72,1,92,2|0,0:0|0:0,0:0:0
342,44,75038,2,0,P|294:52|256:72,1,92,10|0,0:0|0:0,0:0:0
168,140,75385,1,2,0:0:0
168,140,75559,1,0,0:0:0
344,140,75732,1,10,0:0:0
344,140,75906,1,0,0:0:0
256,204,76079,6,0,P|272:248|304:280,1,92,2|2,0:0|3:0,0:0:0
404,232,76426,1,10,0:0:0
344,140,76599,2,0,P|256:117|168:140,1,184,2|2,3:0|3:0,0:0:0
108,232,77119,1,10,0:0:0
72,84,77293,1,2,3:0:0
108,232,77466,6,0,P|140:268|176:292,1,92,2|0,0:0|0:0,0:0:0
324,252,77813,2,0,P|292:216|256:192,1,92,10|0,0:0|0:0,0:0:0
168,140,78160,1,2,0:0:0
168,140,78334,1,0,0:0:0
344,140,78507,1,10,0:0:0
344,140,78681,1,0,0:0:0
168,140,78853,6,0,P|76:140,1,92,2|2,0:0|3:0,0:0:0
344,140,79200,2,0,P|440:140,1,92,10|2,0:0|3:0,0:0:0
168,48,79547,2,0,P|76:48,1,92,2|2,0:0|3:0,0:0:0
344,48,79894,1,10,0:0:0
367,48,79981,1,0,0:0:0
389,48,80067,1,2,3:0:0
412,48,80154,1,0,0:0:0
435,48,80241,6,0,P|484:128,1,92,6|0,0:0|0:0,0:0:0
384,180,80587,2,0,P|404:272,1,92,10|0,0:0|0:0,0:0:0
300,232,80934,2,0,P|232:300,1,92,2|0,0:0|0:0,0:0:0
200,192,81281,2,0,P|108:192,1,92,10|0,0:0|0:0,0:0:0
164,96,81628,6,0,P|244:47,1,92,2|0,0:0|0:0,0:0:0
288,148,81974,2,0,P|380:128,1,92,10|0,0:0|0:0,0:0:0
392,240,82321,2,0,P|460:308,1,92,2|0,0:0|0:0,0:0:0
352,340,82668,2,0,P|260:340,1,92,10|0,0:0|0:0,0:0:0
152,311,83015,5,2,0:0:0
130,301,83102,1,0,0:0:0
109,289,83189,1,8,0:0:0
94,271,83275,1,0,0:0:0
89,248,83362,1,2,0:0:0
91,225,83449,1,0,0:0:0
97,203,83535,1,8,0:0:0
102,180,83622,1,0,0:0:0
107,157,83709,5,2,0:0:0
107,133,83796,1,0,0:0:0
104,110,83882,1,8,0:0:0
97,87,83969,1,0,0:0:0
89,65,84056,1,2,0:0:0
111,66,84142,1,0,0:0:0
133,69,84229,1,8,0:0:0
156,68,84316,1,0,0:0:0
178,63,84402,5,2,0:0:0
200,57,84489,1,0,0:0:0
222,50,84576,1,8,0:0:0
244,46,84663,1,0,0:0:0
266,50,84749,1,2,0:0:0
287,57,84836,1,0,0:0:0
307,68,84923,1,8,0:0:0
324,82,85009,1,0,0:0:0
339,99,85096,5,2,0:0:0
348,119,85183,1,0,0:0:0
352,141,85270,1,8,0:0:0
359,162,85356,1,0,0:0:0
372,180,85443,1,2,0:0:0
389,194,85530,1,0,0:0:0
408,205,85616,1,8,0:0:0
424,220,85703,1,0,0:0:0
436,240,85790,6,0,P|480:320,1,92,6|0,0:0|0:0,0:0:0
336,292,86137,2,0,P|260:352,1,92,10|0,0:0|0:0,0:0:0
220,248,86483,2,0,P|132:276,1,92,2|0,0:0|0:0,0:0:0
128,164,86830,2,0,P|36:164,1,92,10|0,0:0|0:0,0:0:0
128,48,87177,6,0,P|176:56|216:88,1,92,2|0,0:0|0:0,0:0:0
384,48,87524,2,0,P|336:56|296:88,1,92,10|0,0:0|0:0,0:0:0
176,192,87871,1,2,0:0:0
336,192,88044,1,0,0:0:0
256,304,88218,2,0,P|212:320|168:320,2,92,10|0|4,0:0|0:0|0:0,0:0:0
256,80,88911,5,2,0:0:0
160,136,89084,1,2,0:0:0
160,248,89258,1,2,0:0:0
256,304,89431,1,2,0:0:0
353,248,89604,1,2,0:0:0
353,136,89778,1,2,0:0:0
256,80,89952,5,2,0:0:0
233,83,90038,1,0,0:0:0
211,90,90125,1,0,0:0:0
190,101,90212,1,0,0:0:0
173,117,90298,1,10,0:0:0
160,136,90385,1,0,0:0:0
154,158,90472,1,0,0:0:0
256,304,90645,5,6,0:0:0
279,301,90731,1,0,0:0:0
301,294,90818,1,0,0:0:0
322,283,90905,1,0,0:0:0
339,267,90991,1,10,0:0:0
352,248,91078,1,0,0:0:0
358,226,91165,1,0,0:0:0
256,192,91339,6,0,P|176:248,1,92,6|0,0:0|0:0,0:0:0
100,320,91686,2,0,P|76:280|72:236,1,92,10|0,0:0|0:0,0:0:0
72,69,92033,1,2,0:0:0
12,152,92206,1,0,0:0:0
132,152,92379,2,0,P|176:140|220:116,1,92,10|0,0:0|0:0,0:0:0
344,44,92726,5,2,0:0:0
168,44,92900,1,0,0:0:0
344,44,93073,2,0,P|388:60|428:84,1,92,10|0,0:0|0:0,0:0:0
460,248,93420,1,2,0:0:0
344,128,93593,1,0,0:0:0
336,292,93767,2,0,P|296:316|256:336,1,92,10|0,0:0|0:0,0:0:0
176,292,94113,6,0,P|216:316|256:336,1,92,2|0,0:0|0:0,0:0:0
256,236,94460,1,10,0:0:0
256,136,94634,2,0,P|184:76|96:48,1,184
24,100,95154,2,0,P|64:132|104:140,1,92,10|0,0:0|0:0,0:0:0
191,213,95501,5,2,0:0:0
171,225,95587,1,0,0:0:0
149,234,95674,1,0,0:0:0
127,241,95761,1,0,0:0:0
104,244,95848,2,0,P|64:252|24:284,1,92,10|0,0:0|0:0,0:0:0
108,356,96194,2,0,P|148:348|188:316,1,92,2|0,0:0|0:0,0:0:0
404,356,96541,2,0,P|364:348|324:316,1,92,10|0,0:0|0:0,0:0:0
256,192,96888,6,0,P|440:192,1,184,2|10,0:0|0:0,0:0:0
256,32,97582,2,0,P|216:64|200:100,1,92,2|0,0:0|0:0,0:0:0
256,352,97929,2,0,P|296:320|312:284,1,92,10|0,0:0|0:0,0:0:0
256,192,98275,6,0,P|72:192,1,184,2|10,0:0|0:0,0:0:0
256,32,98969,2,0,P|296:64|312:100,1,92,2|0,0:0|0:0,0:0:0
256,352,99316,2,0,P|216:320|200:284,1,92,10|0,0:0|0:0,0:0:0
312,100,99663,6,0,P|395:144,1,92,2|0,0:0|0:0,0:0:0
199,283,100009,2,0,P|117:240,1,92,10|0,0:0|0:0,0:0:0
256,192,100356,1,2,0:0:0
360,228,100530,1,0,0:0:0
377,243,100616,1,0,0:0:0
389,262,100703,1,10,0:0:0
394,284,100790,1,0,0:0:0
389,306,100876,1,0,0:0:0
378,326,100963,1,0,0:0:0
356,333,101050,5,10,0:0:0
332,333,101137,1,0,0:0:0
308,333,101224,1,0,0:0:0
284,333,101311,1,0,0:0:0
260,333,101397,1,2,0:0:0
192,193,101571,5,10,0:0:0
216,193,101657,1,0,0:0:0
240,193,101744,1,0,0:0:0
264,193,101831,1,0,0:0:0
288,193,101917,1,2,0:0:0
356,53,102091,5,10,0:0:0
332,53,102178,1,0,0:0:0
308,53,102264,1,0,0:0:0
284,53,102351,1,0,0:0:0
260,53,102437,6,0,P|172:80|100:136,1,184,6|10,0:0|0:0,0:0:0
36,228,102957,1,0,0:0:0
116,304,103131,2,0,P|164:300|204:284,1,92,2|0,0:0|0:0,0:0:0
300,156,103478,2,0,P|256:144|212:156,1,92,10|0,0:0|0:0,0:0:0
308,284,103824,6,0,P|348:300|396:304,1,92,2|0,0:0|0:0,0:0:0
344,208,104171,2,0,P|256:184|168:208,1,184,10|2,0:0|0:0,0:0:0
116,304,104692,1,0,0:0:0
84,136,104865,2,0,P|108:96|144:64,1,92,10|0,0:0|0:0,0:0:0
252,88,105212,6,0,P|296:90|342:78,1,92,2|0,0:0|0:0,0:0:0
442,31,105559,1,10,0:0:0
434,140,105732,2,0,P|416:232|372:312,1,184
316,216,106252,2,0,P|296:260|264:296,1,92,10|0,0:0|0:0,0:0:0
172,180,106599,5,2,0:0:0
186,161,106686,1,0,0:0:0
203,146,106772,1,0,0:0:0
222,132,106859,1,0,0:0:0
243,122,106946,2,0,P|288:105|336:102,1,92,10|0,0:0|0:0,0:0:0
412,180,107293,1,2,0:0:0
412,28,107466,1,0,0:0:0
412,180,107639,1,10,0:0:0
412,28,107812,1,0,0:0:0
412,180,107986,6,0,P|412:228|396:268,1,92,2|0,0:0|0:0,0:0:0
268,344,108333,1,10,0:0:0
336,212,108507,1,0,0:0:0
286,94,108680,2,0,P|269:134|236:168,1,92,2|0,0:0|0:0,0:0:0
88,188,109027,1,10,0:0:0
192,80,109201,1,0,0:0:0
332,36,109374,6,0,P|380:40|420:60,1,92,2|0,0:0|0:0,0:0:0
480,192,109720,1,10,0:0:0
356,116,109894,1,0,0:0:0
268,180,110067,2,0,P|231:148|188:134,1,92,2|0,0:0|0:0,0:0:0
44,136,110413,1,10,0:0:0
156,232,110587,1,0,0:0:0
256,340,110761,6,0,P|308:348|352:348,1,92,2|0,0:0|0:0,0:0:0
256,340,111108,2,0,P|204:348|164:348,1,92,10|0,0:0|0:0,0:0:0
172,236,111455,1,2,0:0:0
172,236,111628,1,0,0:0:0
340,236,111801,1,10,0:0:0
340,236,111974,1,0,0:0:0
256,88,112148,1,2,0:0:0
256,192,112322,5,8,0:0:0
256,214,112408,1,8,0:0:0
254,237,112495,1,10,0:0:0
251,259,112582,1,8,0:0:0
245,281,112668,5,8,0:0:0
230,299,112755,1,8,0:0:0
210,311,112842,1,10,0:0:0
187,317,112929,1,8,0:0:0
164,319,113015,1,8,0:0:0
141,313,113102,1,8,0:0:0
120,303,113189,5,10,0:0:0
101,288,113275,1,8,0:0:0
85,270,113362,1,8,0:0:0
73,250,113449,1,8,0:0:0
64,228,113535,1,10,0:0:0
59,205,113622,1,8,0:0:0
64,182,113709,1,8,0:0:0
72,160,113796,1,8,0:0:0
84,140,113882,1,10,0:0:0
94,119,113969,1,8,0:0:0
96,96,114056,1,8,0:0:0
91,73,114142,1,8,0:0:0
82,51,114229,6,0,P|127:60|173:61,1,92,6|8,0:0|0:0,0:0:0
196,62,114489,1,8,0:0:0
219,61,114576,1,10,0:0:0
241,61,114663,1,8,0:0:0
263,60,114749,1,8,0:0:0
285,57,114836,1,8,0:0:0
308,53,114923,1,6,0:0:0
200,192,126021,6,0,P|152:192|112:176,1,92,6|0,0:0|0:0,0:0:0
312,192,126368,2,0,P|360:192|400:208,1,92,10|0,0:0|0:0,0:0:0
468,332,126715,1,2,0:0:0
340,276,126888,1,0,0:0:0
256,136,127061,2,0,P|256:88|272:48,1,92,10|0,0:0|0:0,0:0:0
256,248,127408,6,0,P|256:296|240:336,1,92,2|0,0:0|0:0,0:0:0
92,324,127755,1,10,0:0:0
156,192,127929,1,0,0:0:0
92,60,128102,2,0,P|140:60|180:76,1,92,2|0,0:0|0:0,0:0:0
420,60,128449,2,0,P|372:60|332:76,1,92,10|0,0:0|0:0,0:0:0
156,192,128796,5,2,0:0:0
256,292,128969,1,0,0:0:0
356,192,129142,1,10,0:0:0
256,92,129316,1,0,0:0:0
185,262,129489,1,2,0:0:0
326,262,129662,1,0,0:0:0
326,121,129835,1,10,0:0:0
185,121,130009,1,0,0:0:0
64,192,130183,6,0,P|32:280,1,92,2|0,0:0|0:0,0:0:0
156,192,130530,2,0,P|156:288,1,92,10|0,0:0|0:0,0:0:0
236,344,130876,1,2,0:0:0
76,344,131050,1,8,0:0:0
236,344,131223,2,0,P|280:328|316:300,1,92,10|0,0:0|0:0,0:0:0
316,84,131571,6,0,P|280:56|236:40,1,92,2|0,0:0|0:0,0:0:0
156,192,131917,2,0,P|248:192,1,92,10|0,0:0|0:0,0:0:0
380,192,132264,1,2,0:0:0
316,84,132437,1,0,0:0:0
316,300,132611,2,0,P|280:328|236:344,1,92,10|0,0:0|0:0,0:0:0
128,340,132957,5,2,0:0:0
63,250,133131,1,0,0:0:0
156,192,133304,2,0,P|128:152|92:128,1,92,10|0,0:0|0:0,0:0:0
52,36,133651,2,0,P|100:28|140:40,1,92,2|0,0:0|0:0,0:0:0
256,146,133998,2,0,P|256:238,1,92,10|0,0:0|0:0,0:0:0
328,332,134345,5,2,0:0:0
184,332,134518,1,0,0:0:0
375,243,134692,1,10,0:0:0
137,243,134865,1,0,0:0:0
375,141,135038,1,2,0:0:0
137,141,135211,1,0,0:0:0
328,52,135385,1,10,0:0:0
184,52,135558,1,0,0:0:0
328,52,135732,6,0,P|420:52,1,92,2|2,0:0|0:0,0:0:0
184,52,136079,2,0,P|92:52,1,92,2|2,0:0|0:0,0:0:0
375,141,136426,2,0,P|469:141,1,92,2|2,0:0|0:0,0:0:0
137,141,136772,2,0,P|43:141,1,92,2|2,0:0|0:0,0:0:0
256,192,137119,5,4,0:0:0
256,192,145443,12,4,146483,0:0:0
395,75,146830,5,10,0:0:0
402,80,146917,1,0,0:0:0
399,88,147004,1,0,0:0:0
391,88,147090,1,0,0:0:0
388,80,147177,1,6,0:0:0
255,184,147350,5,10,0:0:0
262,189,147437,1,0,0:0:0
259,197,147524,1,0,0:0:0
251,197,147610,1,0,0:0:0
248,189,147697,1,6,0:0:0
116,75,147871,5,10,0:0:0
109,80,147958,1,0,0:0:0
112,88,148045,1,0,0:0:0
120,88,148131,1,0,0:0:0
123,80,148218,2,0,P|88:168|92:256,1,184,6|10,0:0|0:0,0:0:0
168,340,148738,1,0,0:0:0
204,236,148911,2,0,P|204:188|192:144,1,92,2|0,0:0|0:0,0:0:0
319,145,149258,2,0,P|308:188|308:236,1,92,10|0,0:0|0:0,0:0:0
256,312,149605,5,2,0:0:0
344,340,149778,1,0,0:0:0
256,312,149952,2,0,P|256:128,1,184,10|2,0:0|0:0,0:0:0
176,52,150472,1,0,0:0:0
336,52,150645,2,0,P|380:64|420:88,1,92,10|0,0:0|0:0,0:0:0
419,198,150992,6,0,P|379:222|335:234,1,92,2|0,0:0|0:0,0:0:0
256,128,151339,1,10,0:0:0
176,233,151512,2,0,P|100:180|48:108,1,184
108,36,152033,2,0,P|132:76|160:112,1,92,10|0,0:0|0:0,0:0:0
256,196,152379,5,2,0:0:0
275,208,152466,1,0,0:0:0
296,217,152553,1,0,0:0:0
318,219,152639,1,0,0:0:0
341,217,152726,2,0,P|384:212|428:192,1,92,10|0,0:0|0:0,0:0:0
464,96,153073,1,2,0:0:0
464,288,153246,1,0,0:0:0
464,96,153420,1,10,0:0:0
464,288,153593,1,0,0:0:0
464,96,153767,6,0,P|376:64|288:48,1,184,2|10,0:0|0:0,0:0:0
168,208,154460,2,0,P|216:228|256:232,1,92,2|0,0:0|0:0,0:0:0
344,176,154807,2,0,P|296:156|256:152,1,92,10|0,0:0|0:0,0:0:0
48,288,155154,6,0,P|136:320|224:336,1,184,2|10,0:0|0:0,0:0:0
256,152,155848,2,0,P|216:156|168:176,1,92,2|0,0:0|0:0,0:0:0
256,232,156195,2,0,P|296:228|344:208,1,92,10|0,0:0|0:0,0:0:0
428,68,156541,5,2,0:0:0
328,112,156715,1,0,0:0:0
256,28,156888,2,0,P|208:32|168:48,1,92,10|0,0:0|0:0,0:0:0
72,100,157235,1,2,0:0:0
72,212,157408,1,0,0:0:0
79,233,157495,1,0,0:0:0
91,252,157582,1,10,0:0:0
108,267,157668,1,0,0:0:0
127,279,157755,1,0,0:0:0
147,289,157842,1,0,0:0:0
170,289,157929,5,10,0:0:0
194,289,158016,1,0,0:0:0
218,289,158103,1,0,0:0:0
242,289,158190,1,0,0:0:0
266,289,158276,1,2,0:0:0
401,192,158450,5,10,0:0:0
377,192,158536,1,0,0:0:0
353,192,158623,1,0,0:0:0
329,192,158710,1,0,0:0:0
305,192,158796,1,2,0:0:0
170,95,158969,5,10,0:0:0
194,95,159056,1,0,0:0:0
218,95,159143,1,0,0:0:0
242,95,159230,1,0,0:0:0
266,95,159316,1,6,0:0:0
256,192,159402,12,0,161050,0:0:0
320,140,164171,6,0,P|352:104|388:80,1,92,2|0,0:0|0:0,0:0:0
192,244,164518,2,0,P|160:280|124:304,1,92,10|0,0:0|0:0,0:0:0
56,192,164865,5,2,0:0:0
456,192,165212,1,10,0:0:0
128,64,165559,1,2,0:0:0
383,319,165906,1,10,0:0:0
256,30,166252,5,2,0:0:0
256,353,166599,1,10,0:0:0
358,89,166946,1,2,0:0:0
153,294,167293,1,10,0:0:0
388,192,167639,6,0,P|381:240|361:280,1,92,2|0,0:0|0:0,0:0:0
124,192,167986,2,0,P|130:143|150:104,1,92,10|0,0:0|0:0,0:0:0
256,311,168333,2,0,P|208:304|168:284,1,92,2|0,0:0|0:0,0:0:0
256,73,168680,2,0,P|304:79|342:98,2,92,10|0|2,0:0|0:0|0:0,0:0:0
256,192,169200,5,8,0:0:0
256,185,169287,1,8,0:0:0
262,188,169373,1,8,0:0:0
262,195,169460,1,8,0:0:0
256,198,169547,5,8,0:0:0
249,195,169634,1,8,0:0:0
249,188,169720,1,8,0:0:0
256,185,169807,1,8,0:0:0
262,188,169894,1,8,0:0:0
262,195,169980,1,8,0:0:0
256,198,170067,5,8,0:0:0
249,195,170154,1,8,0:0:0
249,188,170241,1,8,0:0:0
256,185,170327,1,8,0:0:0
262,188,170414,1,8,0:0:0
262,195,170501,1,8,0:0:0
256,198,170587,1,8,0:0:0
249,195,170674,1,8,0:0:0
249,188,170761,1,8,0:0:0
256,185,170847,1,8,0:0:0
262,188,170934,1,8,0:0:0
262,195,171021,1,8,0:0:0
256,192,171108,5,12,0:0:0
440,192,171454,5,2,0:0:0
72,192,171801,5,4,0:0:0
