osu file format v10

[General]
AudioFilename: Omega Rhythm.mp3
AudioLeadIn: 1500
PreviewTime: 39328
Countdown: 0
SampleSet: Soft
StackLeniency: 0.7
Mode: 0
LetterboxInBreaks: 1

[Editor]
DistanceSpacing: 1
BeatDivisor: 2
GridSize: 4

[Metadata]
Title:Omega Rhythm
TitleUnicode:Omega Rhythm
Artist:UPLIFT SPICE
ArtistUnicode:UPLIFT SPICE
Creator:Wax789
Version:Hard
Source:
Tags:Rock Emo Punk Giffen
BeatmapID:185333
BeatmapSetID:62430

[Difficulty]
HPDrainRate:5
CircleSize:4
OverallDifficulty:5
ApproachRate:7
SliderMultiplier:1.4
SliderTickRate:1

[Events]
//Background and Video events
0,0,"BG.jpg"
//Break Periods
2,63805,66849
2,115135,123728
//Storyboard Layer 0 (Background)
//Storyboard Layer 1 (Fail)
//Storyboard Layer 2 (Pass)
//Storyboard Layer 3 (Foreground)
//Storyboard Sound Samples
//Background Colour Transformations
3,100,255,255,255

[TimingPoints]
1178,346.820809248555,4,2,1,40,1,0
16438,-100,4,1,1,70,0,0
28923,-133.333333333333,4,1,1,50,0,0
37247,-100,4,1,1,75,0,0
39501,-133.333333333333,4,1,1,60,0,0
40021,-80,4,1,1,80,0,1
49732,-80,4,1,1,85,0,1
51120,-80,4,1,1,80,0,1
60831,-80,4,1,1,90,0,1
61871,-133.333333333333,4,1,1,90,0,1
62912,-100,4,1,1,80,0,1
63605,-100,4,2,1,80,0,0
67767,-100,4,1,1,90,0,0
69154,-100,4,1,1,70,0,0
80253,-133.333333333333,4,1,1,50,0,0
83201,-133.333333333333,4,1,1,30,0,0
83374,-133.333333333333,4,1,1,35,0,0
83547,-133.333333333333,4,1,1,40,0,0
83721,-133.333333333333,4,1,1,45,0,0
83894,-133.333333333333,4,1,1,50,0,0
84068,-133.333333333333,4,1,1,55,0,0
84414,-133.333333333333,4,1,1,60,0,0
85802,-133.333333333333,4,1,1,65,0,0
88576,-133.333333333333,4,1,1,75,0,0
88923,-133.333333333333,4,1,1,40,0,0
89097,-133.333333333333,4,1,1,45,0,0
89270,-133.333333333333,4,1,1,50,0,0
89443,-133.333333333333,4,1,1,55,0,0
89617,-133.333333333333,4,1,1,60,0,0
89790,-133.333333333333,4,1,1,65,0,0
89964,-100,4,1,1,70,0,0
90310,-100,4,1,1,75,0,0
90657,-100,4,1,1,80,0,0
91351,-80,4,1,1,80,0,1
101062,-80,4,1,1,85,0,1
102449,-80,4,1,1,80,0,1
112160,-80,4,1,1,90,0,1
113201,-133.333333333333,4,1,1,90,0,1
114068,-80,4,1,1,90,0,1
114935,-80,4,1,1,65,0,0
124664,-80,4,1,1,75,0,0
134357,-80,4,1,1,40,0,0
134704,-80,4,1,1,47,0,0
135050,-80,4,1,1,55,0,0
135397,-80,4,1,1,62,0,0
135744,-80,4,1,1,76,0,0
136091,-80,4,1,1,83,0,0
136438,-80,4,1,1,90,0,0
136784,-80,4,1,1,97,0,0
137131,-133.333333333333,4,2,1,40,0,0
145802,-100,4,2,1,60,0,0
146842,-100,4,1,1,70,0,0
148230,-79.9999999999999,4,1,1,85,0,1
169039,-80,4,1,1,95,0,1
170079,-133.333333333333,4,1,1,95,0,1
170946,-80,4,1,1,85,0,1
171813,-100,4,2,1,60,0,0
175975,-100,4,2,1,70,0,0

[Colours]
Combo1 : 175,12,81
Combo2 : 0,0,160

[HitObjects]
192,72,1178,2,0,B|256:24|320:72,1,140,10|10,0:0|0:0,0:0:0
320,212,1871,2,0,B|256:260|192:212,1,140,10|10,0:0|0:0,0:0:0
59,162,2565,2,0,B|-2:126,2,70,10|0|10,0:0|0:0|0:0,0:0:0
59,162,3085,1,0,0:0:0
69,231,3258,2,0,B|130:266,2,70,10|0|10,0:0|0:0|0:0,0:0:0
32,291,3779,1,0,0:0:0
32,291,3952,6,0,B|19:327|32:359,1,70,10|0,0:0|0:0,0:0:0
96,332,4299,1,10,0:0:0
152,292,4472,1,0,0:0:0
212,332,4646,2,0,B|292:332,2,70,10|0|10,0:0|0:0|0:0,0:0:0
212,332,5166,1,0,0:0:0
228,264,5339,5,10,0:0:0
248,200,5513,1,0,0:0:0
316,200,5686,2,0,B|408:200,1,70,10|0,0:0|0:0,0:0:0
400,132,6033,2,0,B|422:65,1,70,10|0,0:0|0:0,0:0:0
352,76,6380,2,0,B|329:9,1,70,10|0,0:0|0:0,0:0:0
276,56,6727,6,0,B|209:78,1,70,10|0,0:0|0:0,0:0:0
172,136,7073,2,0,B|105:158,2,70,10|0|10,0:0|0:0|0:0,0:0:0
209,203,7594,2,0,B|276:225,2,70,0|10|0,0:0|0:0|0:0,0:0:0
184,276,8114,5,10,0:0:0
136,336,8287,1,0,0:0:0
60,352,8461,1,10,0:0:0
60,352,8634,2,0,B|12:288|60:224,1,140,10|10,0:0|0:0,0:0:0
39,156,9154,1,10,0:0:0
60,88,9328,6,0,B|124:40|188:88,1,140,10|10,0:0|0:0,0:0:0
256,104,9848,2,0,B|256:192,1,70,10|0,0:0|0:0,0:0:0
256,244,10195,2,0,B|256:332,2,70,10|0|10,0:0|0:0|0:0,0:0:0
325,252,10715,2,0,B|338:285|375:302,2,70,0|10|0,0:0|0:0|0:0,0:0:0
325,252,11235,1,10,0:0:0
388,220,11409,2,0,B|467:215|486:137,1,140,10|10,0:0|0:0,0:0:0
444,80,11929,1,10,0:0:0
384,40,12102,6,0,B|320:-8|256:40,1,140,10|10,0:0|0:0,0:0:0
256,112,12623,1,10,0:0:0
188,112,12796,1,0,0:0:0
188,181,12969,2,0,B|188:251,1,70,10|0,0:0|0:0,0:0:0
117,251,13316,2,0,B|117:321,1,70,10|0,0:0|0:0,0:0:0
188,321,13663,6,0,B|284:321,2,70,10|0|10,0:0|0:0|0:0,0:0:0
181,251,14183,2,0,B|117:299|53:251,1,140,10|10,0:0|0:0,0:0:0
78,185,14704,1,0,0:0:0
140,152,14877,6,0,B|92:88|140:24,1,140,10|10,0:0|0:0,0:0:0
200,60,15397,2,0,B|256:101,1,70,10|0,0:0|0:0,0:0:0
312,60,15744,2,0,B|255:101,1,70,10|0,0:0|0:0,0:0:0
256,172,16091,1,4,0:0:0
128,300,16438,5,12,0:0:0
128,300,16611,1,8,0:0:0
384,300,17131,1,12,0:0:0
384,300,17305,1,8,0:0:0
256,288,17478,6,8,B|256:236,2,35
288,187,17825,6,0,B|356:115,1,70,4|0,0:0|0:0,0:0:0
440,123,18172,2,0,B|440:203,1,70,8|0,0:0|0:0,0:0:0
388,284,18519,1,0,0:0:0
296,336,18692,1,0,0:0:0
204,284,18865,1,8,0:0:0
204,180,19039,1,0,0:0:0
112,132,19212,6,0,B|112:44,1,70,0|0,0:0|0:0,0:0:0
112,132,19559,2,0,B|36:132,1,70,8|0,0:0|0:0,0:0:0
112,132,19906,2,0,B|112:212,1,70,0|0,0:0|0:0,0:0:0
112,272,20253,1,8,0:0:0
112,272,20426,6,0,B|176:320|240:272,1,140,0|0,0:0|0:0,0:0:0
244,168,20946,2,0,B|228:132|244:100,1,70,8|0,0:0|0:0,0:0:0
324,168,21293,2,0,B|340:200|324:236,1,70,0|0,0:0|0:0,0:0:0
244,304,21640,2,0,B|228:268|244:236,1,70,8|0,0:0|0:0,0:0:0
428,304,21987,5,0,0:0:0
324,304,22160,1,0,0:0:0
372,216,22334,1,8,0:0:0
476,216,22507,2,0,B|464:136|385:125,1,140,0|0,0:0|0:0,0:0:0
279,125,23027,1,8,0:0:0
200,56,23201,6,0,B|180:124|200:200,1,140,0|0,0:0|0:0,0:0:0
116,128,23721,2,0,B|32:128,1,70,8|0,0:0|0:0,0:0:0
116,208,24068,2,0,B|62:261,1,70,0|0,0:0|0:0,0:0:0
116,308,24414,2,0,B|116:378,1,70,8|0,0:0|0:0,0:0:0
220,268,24761,5,0,0:0:0
252,368,24935,1,0,0:0:0
340,310,25108,1,8,0:0:0
381,213,25282,2,0,B|349:139|270:149,1,140,0|0,0:0|0:0,0:0:0
269,149,25802,1,8,0:0:0
269,44,25975,6,0,B|129:44,1,140,0|0,0:0|0:0,0:0:0
44,108,26495,2,0,B|44:178,1,70,8|0,0:0|0:0,0:0:0
129,239,26842,2,0,B|129:169,1,70,0|0,0:0|0:0,0:0:0
216,232,27189,2,0,B|216:302,1,70,8|0,0:0|0:0,0:0:0
396,192,27883,6,0,B|466:192,1,70,8|0,0:0|0:0,0:0:0
256,192,28576,5,8,0:0:0
256,192,28663,1,8,0:0:0
256,192,28750,1,0,0:0:0
256,112,28923,5,0,0:0:0
304,92,29097,1,0,0:0:0
353,73,29270,1,0,0:0:0
408,220,29617,6,0,B|432:272|412:336|352:360|296:344,2,210.000008010865,0|0|0,0:0|0:0|0:0,0:0:0
104,292,31698,5,0,0:0:0
153,274,31871,1,0,0:0:0
202,257,32045,2,0,B|310:213,1,105.000004005432,0|0,0:0|0:0,0:0:0
156,84,32912,5,0,0:0:0
204,148,33085,2,0,B|256:160|308:148,1,105.000004005432,0|0,0:0|0:0,0:0:0
376,80,33605,2,0,B|376:188,1,105.000004005432,0|0,0:0|0:0,0:0:0
376,264,34125,2,0,B|329:295,1,52.5000020027161
256,268,34472,5,0,0:0:0
256,216,34646,1,0,0:0:0
256,164,34819,1,0,0:0:0
360,45,35166,6,0,B|256:13|147:46,2,210.000008010865,0|0|0,0:0|0:0|0:0,0:0:0
256,216,37247,5,4,0:0:0
256,76,37594,2,0,B|188:112,1,70,8|8,0:0|0:0,0:0:0
256,76,37941,2,0,B|317:108,1,70,8|8,0:0|0:0,0:0:0
256,192,38287,2,0,B|256:262,1,70,8|8,0:0|0:0,0:0:0
192,316,38634,5,8,0:0:0
256,368,38808,1,0,0:0:0
256,368,38894,1,0,0:0:0
256,368,38981,1,0,0:0:0
320,316,39154,1,8,0:0:0
256,192,39501,5,0,0:0:0
256,192,39848,1,0,0:0:0
148,268,40021,6,0,B|100:252|92:202,1,87.5,4|0,0:0|0:0,0:0:0
151,111,40368,2,0,B|199:127|206:176,1,87.5,8|0,0:0|0:0,0:0:0
256,268,40715,1,0,0:0:0
256,268,40888,1,0,0:0:0
356,232,41062,1,8,0:0:0
356,232,41235,1,0,0:0:0
396,136,41409,6,0,B|308:136,1,87.5,0|0,0:0|0:0,0:0:0
296,32,41756,2,0,B|208:32,1,87.5,8|0,0:0|0:0,0:0:0
208,136,42102,2,0,B|192:180|207:221,2,87.5,0|0|8,0:0|0:0|0:0,0:0:0
300,188,42623,1,0,0:0:0
388,248,42796,6,0,B|403:206|387:162,2,87.5,0|0|8,0:0|0:0|0:0,0:0:0
350,346,43316,1,0,0:0:0
260,292,43490,2,0,B|213:283|185:249,2,87.5,0|0|8,0:0|0:0|0:0,0:0:0
260,292,44010,1,0,0:0:0
160,328,44183,6,0,B|72:328,1,87.5,0|0,0:0|0:0,0:0:0
104,228,44530,2,0,B|12:228,1,87.5,8|0,0:0|0:0,0:0:0
73,139,44877,2,0,B|160:139,1,87.5,0|0,0:0|0:0,0:0:0
104,49,45224,2,0,B|191:49,1,87.5,8|0,0:0|0:0,0:0:0
256,168,45571,5,4,0:0:0
400,268,45917,1,8,0:0:0
256,368,46264,1,0,0:0:0
112,268,46611,1,8,0:0:0
88,168,46958,6,0,B|168:124|256:168,1,175,0|8,0:0|0:0,0:0:0
423,168,47651,2,0,B|344:124|256:168,1,175,0|8,0:0|0:0,0:0:0
67,264,48345,6,0,B|51:308|66:349,1,87.5
159,300,48692,2,0,B|174:258|158:214,1,87.5,8|0,0:0|0:0,0:0:0
260,244,49039,1,0,0:0:0
352,192,49212,1,8,0:0:0
352,296,49386,1,8,0:0:0
444,244,49559,1,0,0:0:0
476,140,49732,6,0,B|324:44,1,175,4|0,0:0|0:0,0:0:0
280,136,50253,2,0,B|128:40,1,175,4|0,0:0|0:0,0:0:0
80,132,50773,2,0,B|6:84,1,87.5,4|0,0:0|0:0,0:0:0
6,190,51120,6,0,B|79:237,1,87.5,4|0,0:0|0:0,0:0:0
184,237,51467,2,0,B|257:189,2,87.5,8|0|0,0:0|0:0|0:0,0:0:0
131,328,51987,1,0,0:0:0
235,344,52160,1,8,0:0:0
339,328,52334,1,0,0:0:0
422,264,52507,6,0,B|509:203|485:114,2,175,0|8|0,0:0|0:0|0:0,0:0:0
318,243,53374,2,0,B|299:284|295:328,2,87.5,0|8|0,0:0|0:0|0:0,0:0:0
330,138,53894,6,0,B|286:134|245:115,1,87.5,0|0,0:0|0:0,0:0:0
330,138,54241,2,0,B|374:134|414:115,2,87.5,8|0|0,0:0|0:0|0:0,0:0:0
292,244,54761,1,0,0:0:0
224,324,54935,1,8,0:0:0
156,244,55108,1,0,0:0:0
96,152,55282,6,0,B|64:114|60:73,1,87.5,0|0,0:0|0:0,0:0:0
164,84,55628,2,0,B|202:52|242:48,1,87.5,8|0,0:0|0:0,0:0:0
272,149,55975,2,0,B|304:187|307:227,1,87.5,0|0,0:0|0:0,0:0:0
200,217,56322,2,0,B|162:249|121:252,1,87.5,8|0,0:0|0:0,0:0:0
196,360,56669,5,4,0:0:0
412,125,57016,1,8,0:0:0
93,125,57362,1,0,0:0:0
310,360,57709,1,8,0:0:0
256,76,58056,5,0,0:0:0
106,307,58403,1,8,0:0:0
404,307,58750,1,0,0:0:0
256,76,59097,1,8,0:0:0
88,252,59443,6,0,B|168:208|256:252,1,175,0|8,0:0|0:0,0:0:0
348,304,59964,2,0,B|268:348|180:304,1,175,0|8,0:0|0:0,0:0:0
88,252,60484,1,8,0:0:0
88,252,60657,1,0,0:0:0
180,157,60831,6,0,B|0:61,1,175,4|0,0:0|0:0,0:0:0
140,10,61351,2,0,B|294:92,1,175,4|0,0:0|0:0,0:0:0
399,92,61871,6,0,B|474:159|394:235|322:299|399:378,1,315.000012016297,4|0,0:0|0:0,0:0:0
256,224,63258,5,0,0:0:0
256,224,63605,1,4,0:0:0
204,108,67767,6,0,B|161:150,4,35,0|0|0|0|0,0:0|0:0|0:0|0:0|0:0,0:0:0
308,108,68287,2,0,B|332:132,4,35,0|0|0|0|0,0:0|0:0|0:0|0:0|0:0,0:0:0
256,200,68808,2,0,B|256:260,2,35
256,304,69154,6,0,B|256:404,1,70,4|0,0:0|0:0,0:0:0
160,324,69501,2,0,B|148:284|157:254,1,70,8|0,0:0|0:0,0:0:0
355,255,69848,2,0,B|364:284|352:324,1,70,0|0,0:0|0:0,0:0:0
256,228,70195,2,0,B|256:152,1,70,8|0,0:0|0:0,0:0:0
256,52,70542,5,0,0:0:0
352,92,70715,1,0,0:0:0
432,168,70888,1,8,0:0:0
432,168,71062,2,0,B|416:244|431:306,1,140,0|0,0:0|0:0,0:0:0
431,306,71582,1,8,0:0:0
348,240,71756,6,0,B|192:240,1,140,0|0,0:0|0:0,0:0:0
152,152,72276,2,0,B|120:140|84:152,1,70,8|0,0:0|0:0,0:0:0
16,232,72623,2,0,B|52:244|84:232,1,70,0|0,0:0|0:0,0:0:0
152,312,72969,2,0,B|120:324|84:312,1,70,8|0,0:0|0:0,0:0:0
152,232,73316,5,0,0:0:0
256,256,73490,1,0,0:0:0
360,232,73663,1,8,0:0:0
307,139,73836,2,0,B|276:104|312:76|352:48|308:14,1,140,0|0,0:0|0:0,0:0:0
309,14,74357,1,8,0:0:0
408,45,74530,6,0,B|459:107|409:173,1,140,0|0,0:0|0:0,0:0:0
452,268,75050,2,0,B|352:268,1,70,8|0,0:0|0:0,0:0:0
304,338,75397,2,0,B|304:268,1,70,0|0,0:0|0:0,0:0:0
225,198,75744,2,0,B|225:268,1,70,8|0,0:0|0:0,0:0:0
128,308,76091,5,0,0:0:0
60,228,76264,1,0,0:0:0
128,148,76438,1,8,0:0:0
128,148,76611,2,0,B|173:154|209:227|177:299|127:308,1,210,0|8,0:0|0:0,0:0:0
60,228,77305,6,0,B|212:228,1,140,0|0,0:0|0:0,0:0:0
300,260,77825,2,0,B|284:224|300:192,1,70,8|0,0:0|0:0,0:0:0
380,260,78172,2,0,B|396:292|380:328,2,70,0|0|8,0:0|0:0|0:0,0:0:0
380,260,78692,1,0,0:0:0
256,28,79212,6,0,B|256:124,1,70,8|0,0:0|0:0,0:0:0
256,300,79906,5,8,0:0:0
256,300,79993,1,8,0:0:0
256,300,80079,1,0,0:0:0
256,220,80253,5,0,0:0:0
276,172,80426,1,0,0:0:0
316,140,80599,1,0,0:0:0
423,206,80946,6,0,B|359:206|359:206|419:122|359:78,1,210.000008010865,0|0,0:0|0:0,0:0:0
89,206,82334,2,0,B|153:206|153:206|93:122|153:78,1,210.000008010865,0|4,0:0|0:0,0:0:0
256,192,83201,12,0,84068,0:0:0
332,92,84414,6,0,B|312:144|254:156,1,105.000004005432,0|0,0:0|0:0,0:0:0
176,136,84935,2,0,B|196:188|253:200,1,105.000004005432,0|0,0:0|0:0,0:0:0
332,180,85455,2,0,B|312:232|254:244,1,105.000004005432,0|0,0:0|0:0,0:0:0
212,264,85975,1,0,0:0:0
164,272,86149,1,0,0:0:0
105,137,86495,6,0,B|112:84|179:50|251:82|255:137,1,210.000008010865,0|0,0:0|0:0,0:0:0
405,136,87883,2,0,B|398:84|331:50|259:82|255:137,1,210.000008010865,0|4,0:0|0:0,0:0:0
294,248,88923,5,8,0:0:0
244,262,89097,1,8,0:0:0
193,248,89270,1,8,0:0:0
156,211,89443,1,8,0:0:0
142,160,89617,1,8,0:0:0
156,110,89790,1,8,0:0:0
193,72,89964,6,0,B|226:133,1,70,0|8,0:0|0:0,0:0:0
288,100,90310,2,0,B|288:169,1,70,8|8,0:0|0:0,0:0:0
356,188,90657,2,0,B|320:248,2,70,8|8|8,0:0|0:0|0:0,0:0:0
356,188,91177,1,8,0:0:0
372,100,91351,6,0,B|330:118|288:100,1,87.5,4|0,0:0|0:0,0:0:0
232,189,91698,2,0,B|190:207|148:189,1,87.5,8|0,0:0|0:0,0:0:0
50,147,92045,2,0,B|32:189|50:231,1,87.5,0|0,0:0|0:0,0:0:0
114,315,92391,1,0,0:0:0
114,315,92565,1,0,0:0:0
217,328,92738,6,0,B|262:322|289:286,1,87.5,0|0,0:0|0:0,0:0:0
376,224,93085,1,8,0:0:0
324,132,93258,1,0,0:0:0
428,132,93432,1,0,0:0:0
376,224,93605,2,0,B|376:352,2,87.5,0|8|0,0:0|0:0|0:0,0:0:0
272,224,94125,6,0,B|228:240|185:224,1,87.5,0|0,0:0|0:0,0:0:0
186,119,94472,2,0,B|142:135|99:119,1,87.5,8|0,0:0|0:0,0:0:0
100,15,94819,2,0,B|144:-1|186:14,1,87.5,0|0,0:0|0:0,0:0:0
185,119,95166,2,0,B|229:103|271:118,1,87.5,8|0,0:0|0:0,0:0:0
256,224,95513,5,0,0:0:0
256,224,95686,1,0,0:0:0
360,224,95860,1,8,0:0:0
360,224,96033,1,0,0:0:0
308,316,96206,2,0,B|260:312|223:294,1,87.5,0|0,0:0|0:0,0:0:0
307,315,96553,2,0,B|355:311|391:293,1,87.5,8|0,0:0|0:0,0:0:0
472,224,96900,5,4,0:0:0
256,148,97247,1,8,0:0:0
44,224,97594,1,0,0:0:0
256,304,97941,1,8,0:0:0
256,44,98287,5,0,0:0:0
169,311,98634,1,8,0:0:0
396,146,98981,1,0,0:0:0
115,146,99328,1,8,0:0:0
342,311,99675,6,0,B|376:340|432:356,1,87.5,0|0,0:0|0:0,0:0:0
418,351,100021,1,8,0:0:0
460,252,100195,2,0,B|417:240|383:211,1,87.5,0|0,0:0|0:0,0:0:0
296,152,100542,2,0,B|240:172,4,43.75,8|8|8|8|0,0:0|0:0|0:0|0:0|0:0,0:0:0
224,76,101062,6,0,B|52:132,1,175,4|0,0:0|0:0,0:0:0
24,232,101582,2,0,B|190:177,1,175,4|0,0:0|0:0,0:0:0
224,280,102102,2,0,B|108:320,1,87.5,4|0,0:0|0:0,0:0:0
36,296,102449,6,0,B|64:378,1,87.5,4|0,0:0|0:0,0:0:0
141,308,102796,1,8,0:0:0
104,208,102969,1,0,0:0:0
176,132,103143,2,0,B|205:215,1,87.5,0|0,0:0|0:0,0:0:0
284,148,103490,1,8,0:0:0
247,48,103663,1,0,0:0:0
348,76,103836,6,0,B|392:68|431:47,1,87.5,0|0,0:0|0:0,0:0:0
348,75,104183,2,0,B|340:119|319:158,1,87.5,8|0,0:0|0:0,0:0:0
288,260,104530,2,0,B|296:304|317:343,1,87.5,0|0,0:0|0:0,0:0:0
289,260,104877,2,0,B|245:252|206:231,1,87.5,8|0,0:0|0:0,0:0:0
120,168,105224,6,0,B|92:144|92:144|184:136|184:56,1,175,0|8,0:0|0:0,0:0:0
256,156,105744,1,0,0:0:0
392,168,105917,2,0,B|420:144|420:144|328:136|328:56,1,175,0|8,0:0|0:0,0:0:0
256,156,106438,1,0,0:0:0
300,280,106611,6,0,B|320:328|368:332,1,87.5,0|0,0:0|0:0,0:0:0
452,272,106958,2,0,B|500:252|504:204,1,87.5,8|0,0:0|0:0,0:0:0
472,108,107305,2,0,B|452:60|404:56,1,87.5,0|0,0:0|0:0,0:0:0
320,116,107651,2,0,B|272:136|268:184,1,87.5,8|0,0:0|0:0,0:0:0
256,284,107998,5,4,0:0:0
256,31,108345,1,8,0:0:0
108,240,108692,1,0,0:0:0
403,240,109039,1,8,0:0:0
184,304,109386,5,0,0:0:0
404,304,109732,1,0,0:0:0
96,128,110079,1,0,0:0:0
316,128,110426,1,0,0:0:0
131,228,110773,6,0,B|187:296|285:301,1,175,0|8,0:0|0:0,0:0:0
241,176,111293,2,0,B|339:171|395:104,1,175,0|0,0:0|0:0,0:0:0
368,237,111813,1,8,0:0:0
255,314,111987,1,0,0:0:0
144,238,112160,6,0,B|256:104,1,175,4|0,0:0|0:0,0:0:0
369,238,112680,2,0,B|256:104,1,175,4|0,0:0|0:0,0:0:0
255,314,113201,6,0,B|255:104,1,210.000008010865,4|0,0:0|0:0,0:0:0
220,24,114068,5,8,0:0:0
312,91,114241,1,8,0:0:0
198,91,114414,1,8,0:0:0
291,24,114588,1,8,0:0:0
255,133,114761,1,8,0:0:0
255,133,114935,1,4,0:0:0
256,60,124646,5,0,0:0:0
184,136,124819,2,0,B|214:166,4,43.75
256,60,125339,5,0,0:0:0
328,136,125513,2,0,B|297:166,4,43.75
256,248,126033,6,0,B|256:335,1,87.5,4|0,0:0|0:0,0:0:0
156,296,126380,2,0,B|111:284|97:236,1,87.5,8|0,0:0|0:0,0:0:0
184,177,126727,2,0,B|208:137|184:93,2,87.5,0|0|8,0:0|0:0|0:0,0:0:0
184,177,127247,1,0,0:0:0
256,252,127420,6,0,B|269:205|315:193,1,87.5,0|0,0:0|0:0,0:0:0
312,298,127767,2,0,B|301:250|335:217,1,87.5,8|0,0:0|0:0,0:0:0
391,306,128114,2,0,B|357:271|370:226,1,87.5,0|0,0:0|0:0,0:0:0
456,285,128461,2,0,B|410:271|399:225,1,87.5,8|0,0:0|0:0,0:0:0
352,100,128808,6,0,B|339:147|293:159,1,87.5,0|0,0:0|0:0,0:0:0
296,54,129154,2,0,B|307:102|273:135,1,87.5,8|0,0:0|0:0,0:0:0
217,46,129501,2,0,B|251:81|238:126,1,87.5,0|0,0:0|0:0,0:0:0
152,67,129848,2,0,B|198:81|209:127,1,87.5,8|0,0:0|0:0,0:0:0
209,259,130195,6,0,B|142:316,1,87.5
39,295,130542,2,0,B|107:239,1,87.5,8|0,0:0|0:0,0:0:0
184,168,130888,1,0,0:0:0
256,92,131062,1,8,0:0:0
152,67,131235,1,8,0:0:0
328,168,131582,6,0,B|404:124,2,87.5,0|0|8,0:0|0:0|0:0,0:0:0
256,244,132102,1,0,0:0:0
184,168,132276,2,0,B|108:124,2,87.5,0|0|8,0:0|0:0|0:0,0:0:0
256,244,132796,1,0,0:0:0
256,244,132969,6,0,B|180:288,1,87.5
180,182,133316,2,0,B|179:95,1,87.5,8|0,0:0|0:0,0:0:0
276,50,133663,2,0,B|351:5,1,87.5
351,110,134010,2,0,B|352:197,1,87.5,8|0,0:0|0:0,0:0:0
352,284,134357,6,0,B|352:196,1,87.5,0|0,0:0|0:0,0:0:0
276,240,134704,2,0,B|276:152,1,87.5,0|0,0:0|0:0,0:0:0
196,192,135050,2,0,B|196:88,1,87.5,0|0,0:0|0:0,0:0:0
116,144,135397,2,0,B|116:56,1,87.5,0|0,0:0|0:0,0:0:0
196,104,135744,6,0,B|196:191,1,87.5,0|0,0:0|0:0,0:0:0
272,148,136091,2,0,B|272:235,1,87.5,0|0,0:0|0:0,0:0:0
352,196,136437,2,0,B|352:300,1,87.5,0|0,0:0|0:0,0:0:0
432,244,136784,2,0,B|432:331,1,87.5,0|0,0:0|0:0,0:0:0
380,340,137131,6,0,B|352:387|292:384,1,105.000004005432,0|2,0:0|0:0,0:0:0
312,304,137825,1,0,0:0:0
384,106,138519,6,0,B|412:59|472:62,1,105.000004005432,0|2,0:0|0:0,0:0:0
452,142,139213,1,0,0:0:0
340,268,139906,5,0,0:0:0
296,196,140253,1,2,0:0:0
256,268,140599,1,0,0:0:0
216,196,140946,1,2,0:0:0
176,268,141293,2,0,B|168:332|108:340,2,105.000004005432,0|2|0,0:0|0:0|0:0,0:0:0
91,264,142334,1,2,0:0:0
159,215,142680,6,0,B|143:163|106:124,1,105.000004005432,0|2,0:0|0:0,0:0:0
256,172,143374,2,0,B|256:66,1,105.000004005432,0|2,0:0|0:0,0:0:0
405,124,144068,2,0,B|368:163|353:215,1,105.000004005432,0|2,0:0|0:0,0:0:0
256,336,144761,1,0,0:0:0
435,348,145802,6,0,B|354:370|303:316,1,140,0|0,0:0|0:0,0:0:0
370,291,146322,2,0,B|303:327|236:291,1,140,0|0,0:0|0:0,0:0:0
216,352,146842,6,0,B|200:284|215:213,1,140,4|0,0:0|0:0,0:0:0
300,276,147362,2,0,B|316:208|300:136,1,140,4|0,0:0|0:0,0:0:0
256,40,147883,2,0,B|256:110,1,70,4|0,0:0|0:0,0:0:0
256,236,148230,6,0,B|308:232|340:160,1,87.5,4|0,0:0|0:0,0:0:0
256,110,148576,1,8,0:0:0
324,24,148750,1,0,0:0:0
392,108,148923,2,0,B|409:151|461:155,2,87.5,0|0|8,0:0|0:0|0:0,0:0:0
392,108,149443,1,0,0:0:0
392,212,149617,6,0,B|367:304,1,87.5,0|0,0:0|0:0,0:0:0
280,244,149964,2,0,B|217:306,1,87.5,8|0,0:0|0:0,0:0:0
172,212,150310,2,0,B|86:234,1,87.5,0|0,0:0|0:0,0:0:0
104,132,150657,2,0,B|18:109,1,87.5,8|0,0:0|0:0,0:0:0
112,56,151004,6,0,B|197:78,1,87.5,0|0,0:0|0:0,0:0:0
256,164,151351,1,8,0:0:0
256,164,151524,1,0,0:0:0
256,164,151698,1,0,0:0:0
316,252,151871,2,0,B|401:274,1,87.5,0|8,0:0|0:0,0:0:0
308,328,152218,2,0,B|222:305,1,87.5,0|0,0:0|0:0,0:0:0
122,276,152565,5,0,0:0:0
122,276,152738,1,8,0:0:0
122,276,152912,1,0,0:0:0
172,184,153085,1,0,0:0:0
286,102,153258,1,0,0:0:0
146,103,153432,1,8,0:0:0
259,185,153605,1,0,0:0:0
215,52,153779,5,4,0:0:0
388,172,154125,1,8,0:0:0
215,291,154472,1,0,0:0:0
388,172,154819,1,8,0:0:0
212,172,155166,6,0,B|37:172,1,175,0|8,0:0|0:0,0:0:0
300,172,155860,2,0,B|475:172,1,175,0|8,0:0|0:0,0:0:0
300,60,156553,6,0,B|256:72|213:60,2,87.5,0|0|8,0:0|0:0|0:0,0:0:0
260,156,157073,2,0,B|218:205|292:275|258:323,2,175
182,114,157941,6,0,B|116:192|182:272,1,175,4|0,0:0|0:0,0:0:0
330,272,158461,2,0,B|396:192|330:114,1,175,4|0,0:0|0:0,0:0:0
256,192,158981,12,8,161062,0:0:0
304,60,161409,5,0,0:0:0
208,60,161582,1,0,0:0:0
304,60,161756,1,8,0:0:0
208,60,161929,1,0,0:0:0
188,144,162102,6,0,B|207:190|256:188,1,87.5,0|0,0:0|0:0,0:0:0
212,257,162449,2,0,B|258:237|256:188,1,87.5,8|0,0:0|0:0,0:0:0
324,232,162796,2,0,B|304:185|255:187,1,87.5,0|0,0:0|0:0,0:0:0
300,119,163143,2,0,B|253:138|255:187,1,87.5,8|0,0:0|0:0,0:0:0
140,211,163490,6,0,B|205:238|252:188,1,87.5,0|0,0:0|0:0,0:0:0
276,300,163836,2,0,B|303:235|252:188,1,87.5,8|0,0:0|0:0,0:0:0
362,164,164183,2,0,B|297:137|250:187,1,87.5,0|0,0:0|0:0,0:0:0
226,76,164530,2,0,B|199:141|250:187,1,87.5,8|0,0:0|0:0,0:0:0
128,192,164877,5,4,0:0:0
384,192,165224,1,8,0:0:0
256,312,165571,1,0,0:0:0
256,72,165917,1,8,0:0:0
92,86,166264,5,0,0:0:0
364,288,166611,1,8,0:0:0
153,288,166958,1,0,0:0:0
425,86,167305,1,8,0:0:0
410,294,167651,6,0,B|312:289|256:221,1,175,0|8,0:0|0:0,0:0:0
256,221,168172,2,0,B|200:289|102:294,1,175,0|8,0:0|0:0,0:0:0
114,189,168691,1,8,0:0:0
200,129,168865,1,0,0:0:0
256,220,169039,6,0,B|418:126,1,175,4|0,0:0|0:0,0:0:0
256,220,169559,2,0,B|93:126,1,175,4|0,0:0|0:0,0:0:0
155,40,170079,6,0,B|256:-5|358:39,1,210.000008010865,4|0,0:0|0:0,0:0:0
220,144,170946,5,8,0:0:0
256,254,171120,1,8,0:0:0
292,144,171293,1,8,0:0:0
198,212,171467,1,8,0:0:0
314,212,171640,1,8,0:0:0
341,316,171813,6,0,B|360:249,1,70,8|0,0:0|0:0,0:0:0
421,287,172160,2,0,B|439:219,1,70,8|0,0:0|0:0,0:0:0
377,188,172507,2,0,B|395:120,1,70,8|0,0:0|0:0,0:0:0
455,159,172854,2,0,B|473:91,1,70,8|0,0:0|0:0,0:0:0
380,56,173201,6,0,B|310:56,1,70,8|0,0:0|0:0,0:0:0
204,56,173547,2,0,B|222:123,1,70,8|0,0:0|0:0,0:0:0
310,181,173894,2,8,B|328:248,1,70,8|0,0:0|0:0,0:0:0
222,249,174241,2,0,B|152:249,1,70,8|0,0:0|0:0,0:0:0
170,316,174588,6,0,B|152:249,1,70,8|0,0:0|0:0,0:0:0
91,287,174935,2,0,B|72:219,1,70,8|0,0:0|0:0,0:0:0
135,188,175282,2,0,B|116:120,1,70,8|0,0:0|0:0,0:0:0
57,159,175628,2,0,B|38:91,1,70,8|0,0:0|0:0,0:0:0
100,36,175975,6,0,B|196:36,1,70,8|0,0:0|0:0,0:0:0
256,148,176322,2,0,B|256:78,1,70,8|0,0:0|0:0,0:0:0
412,36,176669,2,0,B|316:36,1,70,8|0,0:0|0:0,0:0:0
256,148,177016,2,0,B|256:218,1,70,8|0,0:0|0:0,0:0:0
