osu file format v10

[General]
AudioFilename: Omega Rhythm.mp3
AudioLeadIn: 1500
PreviewTime: 39396
Countdown: 0
SampleSet: Normal
StackLeniency: 0.7
Mode: 0
LetterboxInBreaks: 1

[Editor]
Bookmarks: 1136,6685,17783,28881,39979,51078,63563,69112,80211,91309,102407,114893,124604,136569,148188,164835,171771
DistanceSpacing: 1.2
BeatDivisor: 4
GridSize: 4

[Metadata]
Title:Omega Rhythm
TitleUnicode:Omega Rhythm
Artist:UPLIFT SPICE
ArtistUnicode:UPLIFT SPICE
Creator:Wax789
Version:GiffDance
Source:
Tags:Rock Emo Punk Giffen
BeatmapID:185332
BeatmapSetID:62430

[Difficulty]
HPDrainRate:6
CircleSize:4
OverallDifficulty:8
ApproachRate:9
SliderMultiplier:1.8
SliderTickRate:1

[Events]
//Background and Video events
0,0,"BG.jpg"
//Break Periods
2,63805,67167
2,115135,124046
//Storyboard Layer 0 (Background)
//Storyboard Layer 1 (Fail)
//Storyboard Layer 2 (Pass)
//Storyboard Layer 3 (Foreground)
//Storyboard Sound Samples
//Background Colour Transformations
3,100,255,255,255

[TimingPoints]
1178,346.820809248555,4,2,1,60,1,0
28923,-133.333333333333,4,1,1,60,0,0
37334,-133.333333333333,4,1,1,5,0,0
37420,-133.333333333333,4,1,1,60,0,0
37507,-133.333333333333,4,1,1,5,0,0
37594,-133.333333333333,4,1,1,60,0,0
37680,-133.333333333333,4,1,1,5,0,0
37767,-133.333333333333,4,1,1,60,0,0
37854,-133.333333333333,4,1,1,5,0,0
37940,-133.333333333333,4,1,1,60,0,0
38027,-133.333333333333,4,1,1,5,0,0
38114,-133.333333333333,4,1,1,60,0,0
38201,-133.333333333333,4,1,1,5,0,0
38287,-133.333333333333,4,1,1,60,0,0
38374,-133.333333333333,4,1,1,5,0,0
38461,-133.333333333333,4,1,1,60,0,0
38547,-133.333333333333,4,1,1,5,0,0
38634,-133.333333333333,4,1,1,60,0,0
40021,-100,4,1,1,80,0,1
40282,-100,4,1,1,5,0,1
40368,-100,4,1,1,80,0,1
45831,-100,4,1,1,5,0,1
45917,-100,4,1,1,80,0,1
46178,-100,4,1,1,5,0,1
46264,-100,4,1,1,80,0,1
46524,-100,4,1,1,5,0,1
46611,-100,4,1,1,80,0,1
46871,-100,4,1,1,5,0,1
46958,-200,4,1,1,50,0,1
47651,-100,4,1,1,80,0,1
47912,-100,4,1,1,5,0,1
47998,-100,4,1,1,80,0,1
50946,-100,4,1,1,80,0,0
51120,-100,4,1,1,80,0,1
56929,-100,4,1,1,5,0,1
57016,-100,4,1,1,80,0,1
57276,-100,4,1,1,5,0,1
57362,-100,4,1,1,80,0,1
57623,-100,4,1,1,5,0,1
57709,-100,4,1,1,80,0,1
57969,-100,4,1,1,5,0,1
58056,-100,4,1,1,80,0,1
58316,-100,4,1,1,5,0,1
58403,-100,4,1,1,80,0,1
58663,-100,4,1,1,5,0,1
58750,-100,4,1,1,80,0,1
59010,-100,4,1,1,5,0,1
59097,-100,4,1,1,80,0,1
62912,-100,4,1,1,70,0,1
63605,-100,4,1,1,70,0,0
69156,-100,4,2,1,70,0,0
80253,-100,4,1,1,60,0,0
83027,-100,4,1,1,50,0,0
84935,-100,4,1,1,70,0,0
88576,-100,4,1,1,80,0,0
89877,-100,4,1,1,5,0,0
89964,-200,4,1,1,50,0,0
91351,-100,4,1,1,80,0,1
97160,-100,4,1,1,5,0,1
97247,-100,4,1,1,80,0,1
97507,-100,4,1,1,5,0,1
97594,-100,4,1,1,80,0,1
97854,-100,4,1,1,5,0,1
97941,-100,4,1,1,80,0,1
98201,-100,4,1,1,5,0,1
98287,-100,4,1,1,80,0,1
98547,-100,4,1,1,5,0,1
98634,-100,4,1,1,80,0,1
98894,-100,4,1,1,5,0,1
98981,-100,4,1,1,80,0,1
99241,-100,4,1,1,5,0,1
99328,-100,4,1,1,80,0,1
102276,-100,4,1,1,80,0,0
102449,-100,4,1,1,80,0,1
108258,-100,4,1,1,5,0,1
108345,-100,4,1,1,80,0,1
108605,-100,4,1,1,5,0,1
108692,-100,4,1,1,80,0,1
108952,-100,4,1,1,5,0,1
109039,-100,4,1,1,80,0,1
109299,-100,4,1,1,5,0,1
109386,-200,4,1,1,50,0,1
110079,-100,4,1,1,80,0,1
110339,-100,4,1,1,5,0,1
110426,-100,4,1,1,80,0,1
114241,-100,4,1,1,70,0,1
114935,-100,4,1,1,60,0,0
134532,-100,4,1,1,40,0,0
134619,-100,4,1,1,5,0,0
134704,-100,4,1,1,40,0,0
134790,-100,4,1,1,5,0,0
134877,-100,4,1,1,60,0,0
134964,-100,4,1,1,5,0,0
135050,-100,4,1,1,60,0,0
135137,-100,4,1,1,5,0,0
135224,-100,4,1,1,60,0,0
135310,-100,4,1,1,5,0,0
135397,-100,4,1,1,60,0,0
135484,-100,4,1,1,5,0,0
135571,-100,4,1,1,60,0,0
135657,-100,4,1,1,5,0,0
135744,-100,4,1,1,60,0,0
135831,-100,4,1,1,5,0,0
135917,-100,4,1,1,70,0,0
136004,-100,4,1,1,5,0,0
136091,-100,4,1,1,70,0,0
136178,-100,4,1,1,5,0,0
136264,-100,4,1,1,70,0,0
136351,-100,4,1,1,5,0,0
136438,-100,4,1,1,70,0,0
136524,-100,4,1,1,5,0,0
136611,-100,4,2,1,40,0,0
146149,-100,4,1,1,70,0,0
148230,-100,4,1,1,80,0,1
154039,-100,4,1,1,5,0,1
154125,-100,4,1,1,80,0,1
154386,-100,4,1,1,5,0,1
154472,-100,4,1,1,80,0,1
154732,-100,4,1,1,5,0,1
154819,-100,4,1,1,80,0,1
155079,-100,4,1,1,5,0,1
155166,-200,4,1,1,50,0,1
155860,-100,4,1,1,80,0,1
160890,-100,4,1,1,5,0,1
161064,-100,4,1,1,80,0,1
161237,-100,4,1,1,5,0,1
161411,-100,4,1,1,80,0,1
161584,-100,4,1,1,5,0,1
161758,-100,4,1,1,80,0,1
161931,-100,4,1,1,5,0,1
162104,-100,4,1,1,80,0,1
162278,-100,4,1,1,5,0,1
162451,-100,4,1,1,80,0,1
162625,-100,4,1,1,5,0,1
162798,-100,4,1,1,80,0,1
162971,-100,4,1,1,5,0,1
163145,-100,4,1,1,80,0,1
163318,-100,4,1,1,5,0,1
163492,-100,4,1,1,80,0,1
163750,-100,4,1,1,5,0,1
163836,-100,4,1,1,80,0,1
164097,-100,4,1,1,5,0,1
164183,-100,4,1,1,80,0,1
165137,-100,4,1,1,5,0,1
165224,-100,4,1,1,80,0,1
165484,-100,4,1,1,5,0,1
165571,-100,4,1,1,80,0,1
165831,-100,4,1,1,5,0,1
165917,-100,4,1,1,80,0,1
166177,-100,4,1,1,5,0,1
166264,-200,4,1,1,50,0,1
166958,-100,4,1,1,80,0,1
170946,-100,4,1,1,70,0,1
171813,-100,4,2,1,60,0,0
175975,-100,4,1,1,60,0,0

[Colours]
Combo1 : 175,12,81
Combo2 : 0,0,160

[HitObjects]
419,266,1178,1,10,0:0:0
419,266,1351,1,0,0:0:0
419,266,1524,1,10,0:0:0
419,266,1698,1,0,0:0:0
338,226,1871,1,10,0:0:0
412,174,2045,1,0,0:0:0
490,216,2218,1,10,0:0:0
498,305,2391,1,0,0:0:0
422,354,2565,5,10,0:0:0
282,320,2738,1,0,0:0:0
142,356,2912,1,10,0:0:0
82,225,3085,1,0,0:0:0
216,173,3258,1,10,0:0:0
184,267,3432,1,0,0:0:0
122,137,3605,1,10,0:0:0
260,95,3779,1,0,0:0:0
323,224,3952,6,0,B|356:193|356:193|419:188,1,90,10|0,0:0|0:0,0:0:0
189,224,4299,2,0,B|156:193|156:193|93:188,1,90,10|0,0:0|0:0,0:0:0
330,331,4646,2,0,B|374:327|374:327|407:296,1,90,10|0,0:0|0:0,0:0:0
182,331,4993,2,0,B|137:327|137:327|104:296,1,90,10|0,0:0|0:0,0:0:0
256,201,5339,6,0,B|256:296,1,90,10|0,0:0|0:0,0:0:0
256,30,5686,2,0,B|256:142,1,90,10|0,0:0|0:0,0:0:0
184,189,6033,2,0,B|208:229|256:237|256:237|304:229|336:185,1,180,10|10,0:0|0:0,0:0:0
256,120,6553,1,2,0:0:0
256,120,6727,1,10,0:0:0
256,218,6900,6,8,B|256:317,1,90,2|8,0:0|0:0,0:0:0
165,348,7247,2,0,B|165:258,1,90,2|8,0:0|0:0,0:0:0
347,258,7594,2,0,B|347:348,2,90,2|10|2,0:0|0:0|0:0,0:0:0
338,157,8114,5,10,0:0:0
433,89,8287,1,2,0:0:0
336,44,8461,1,10,0:0:0
446,215,8634,2,8,B|429:295|346:273|346:273|288:317,1,180,10|10,0:0|0:0,0:0:0
221,353,9154,1,10,0:0:0
264,215,9328,5,8,0:0:0
124,249,9501,2,0,B|78:251|42:283,1,90,10|0,0:0|0:0,0:0:0
50,120,9848,2,0,B|95:122|131:154,1,90,10|0,0:0|0:0,0:0:0
300,244,10195,2,0,B|254:241|218:209,1,90,10|0,0:0|0:0,0:0:0
303,60,10542,2,0,B|302:152,1,90,10|8,0:0|0:0,0:0:0
300,244,10888,5,10,0:0:0
389,200,11062,1,10,0:0:0
389,200,11235,1,10,0:0:0
273,113,11409,1,8,0:0:0
194,233,11582,1,2,0:0:0
309,320,11756,1,8,0:0:0
415,303,11929,1,10,0:0:0
290,214,12102,1,8,0:0:0
164,302,12276,6,0,B|133:267|130:219,1,90,10|0,0:0|0:0,0:0:0
12,173,12623,2,0,B|46:142|94:139,1,90,10|0,0:0|0:0,0:0:0
153,28,12969,2,0,B|178:65|175:113,1,90,10|0,0:0|0:0,0:0:0
293,158,13316,2,0,B|258:188|210:191,1,90,10|0,0:0|0:0,0:0:0
94,140,13663,5,10,0:0:0
78,182,13750,1,2,0:0:0
42,209,13836,2,0,B|87:189|130:201,1,90,2|10,0:0|0:0,0:0:0
293,157,14183,1,8,0:0:0
252,247,14357,2,8,B|221:284|176:292,2,90,2|8|10,0:0|0:0|0:0,0:0:0
217,164,14877,5,8,0:0:0
141,272,15050,1,10,0:0:0
243,183,15224,1,0,0:0:0
270,314,15397,1,10,0:0:0
170,230,15571,1,0,0:0:0
330,212,15744,1,10,0:0:0
252,354,15917,1,0,0:0:0
155,221,16091,2,0,B|99:221|83:281|99:341|155:341,1,180,8|8,0:0|0:0,0:0:0
152,340,16611,1,8,0:0:0
420,99,17131,5,8,0:0:0
295,173,17305,1,8,0:0:0
398,202,17478,1,8,0:0:0
372,239,17565,1,8,0:0:0
328,249,17651,1,8,0:0:0
285,263,17738,1,8,0:0:0
241,251,17825,1,14,0:0:0
256,144,17998,5,0,0:0:0
156,186,18172,2,0,B|130:229|75:240,1,90,10|0,0:0|0:0,0:0:0
272,340,18519,2,0,B|246:297|191:286,1,90,10|0,0:0|0:0,0:0:0
394,174,18865,2,0,B|368:217|313:228,1,90,10|0,0:0|0:0,0:0:0
213,133,19212,6,0,B|305:133,1,90,10|10,0:0|0:0,0:0:0
402,133,19559,1,10,0:0:0
402,133,19732,1,10,0:0:0
402,133,19906,1,2,0:0:0
451,295,20079,2,0,B|488:268|493:218,1,90,10|10,0:0|0:0,0:0:0
328,144,20426,6,0,B|291:171|286:220,1,90,10|10,0:0|0:0,0:0:0
393,217,20773,1,0,0:0:0
409,48,20946,1,10,0:0:0
255,101,21120,2,0,B|218:128|213:177,1,90,0|10,0:0|0:0,0:0:0
100,271,21467,2,0,B|142:294|212:271,1,90,0|8,0:0|0:0,0:0:0
304,279,21813,1,0,0:0:0
352,172,21987,5,10,0:0:0
188,278,22160,1,10,0:0:0
187,319,22247,1,2,0:0:0
221,345,22334,1,10,0:0:0
413,277,22507,2,2,B|413:228|370:199,1,90,10|0,0:0|0:0,0:0:0
223,31,22854,2,2,B|223:80|266:109,1,90,10|0,0:0|0:0,0:0:0
321,181,23201,6,8,B|303:224|303:224|272:149|177:148,1,180,10|10,0:0|0:0,0:0:0
152,137,23634,1,2,0:0:0
152,137,23721,2,8,B|190:218,1,90,10|2,0:0|0:0,0:0:0
214,261,23981,1,2,0:0:0
214,261,24068,2,8,B|100:217,1,90,8|10,0:0|0:0,0:0:0
82,213,24328,1,2,0:0:0
82,213,24414,2,8,B|116:315,1,90,10|2,0:0|0:0,0:0:0
244,316,24761,6,8,B|215:230,2,90,8|8|8,0:0|0:0|0:0,0:0:0
379,332,25282,2,8,B|357:276|357:276|410:233|385:159,1,180,10|10,0:0|0:0,0:0:0
387,168,25802,1,10,0:0:0
497,206,25975,6,0,B|518:160|490:111,1,90,8|8,0:0|0:0,0:0:0
278,125,26322,2,0,B|257:170|285:220,1,90,8|8,0:0|0:0,0:0:0
427,59,26669,2,0,B|381:37|331:64,1,90,8|8,0:0|0:0,0:0:0
347,274,27016,2,0,B|392:295|442:268,1,90,8|8,0:0|0:0,0:0:0
255,255,27362,1,8,0:0:0
222,348,27536,5,2,0:0:0
262,353,27623,1,2,0:0:0
301,344,27709,1,2,0:0:0
329,314,27796,1,2,0:0:0
343,276,27883,2,8,B|363:321|419:341,1,90,10|8,0:0|0:0,0:0:0
327,185,28230,2,8,B|309:141|330:97,1,90,10|8,0:0|0:0,0:0:0
453,64,28576,6,8,B|418:161,1,90,10|8,0:0|0:0,0:0:0
394,239,28923,2,0,B|429:230,3,33.7500012874604
330,170,29270,2,0,B|277:185,3,33.7500012874604
310,259,29617,6,0,B|244:273|244:273|204:215,1,135.000005149842
215,129,30137,1,0,0:0:0
134,162,30310,2,0,B|98:222|98:222|129:280,1,135.000005149842
173,363,30831,1,0,0:0:0
79,355,31004,2,0,B|54:311,3,33.7500012874604
66,278,31351,2,0,B|44:226,3,33.7500012874604
52,199,31698,5,0,0:0:0
84,207,31784,1,0,0:0:0
116,215,31871,1,0,0:0:0
148,225,31958,1,0,0:0:0
180,235,32045,1,0,0:0:0
212,226,32131,1,0,0:0:0
244,216,32218,1,0,0:0:0
276,208,32305,1,0,0:0:0
307,199,32391,2,0,B|250:243|264:329,1,135.000005149842
369,357,32912,6,0,B|369:290,1,67.5000025749208
465,266,33258,2,0,B|465:198,1,67.5000025749208
463,90,33605,6,0,B|379:95|364:193,1,135.000005149842,0|0,0:0|0:0,0:0:0
280,235,34125,1,0,0:0:0
280,235,34299,1,0,0:0:0
274,140,34472,5,4,0:0:0
233,146,34559,1,0,0:0:0
202,172,34646,1,0,0:0:0
189,210,34732,1,0,0:0:0
186,250,34819,2,0,B|146:250,3,33.7500012874604
111,251,35166,5,0,0:0:0
114,291,35253,1,0,0:0:0
137,323,35339,1,0,0:0:0
176,333,35426,1,0,0:0:0
216,334,35513,2,0,B|276:334,3,33.7500012874604
290,335,35860,5,0,0:0:0
325,315,35946,1,0,0:0:0
345,279,36033,1,0,0:0:0
346,238,36120,1,0,0:0:0
347,197,36206,2,0,B|382:197,3,33.7500012874604
420,198,36553,5,0,0:0:0
454,175,36640,1,0,0:0:0
470,137,36727,1,0,0:0:0
471,95,36813,1,0,0:0:0
470,54,36900,2,0,B|417:54,3,33.7500012874604
394,67,37247,6,8,B|394:101,1,33.7500012874604,12|8,0:0|0:0,0:0:0
342,95,37420,2,8,B|342:134,1,33.7500012874604
291,123,37594,2,8,B|291:161,1,33.7500012874604
240,148,37767,2,8,B|240:190,1,33.7500012874604
191,120,37941,2,8,B|191:154,1,33.7500012874604
140,95,38114,2,8,B|140:129,1,33.7500012874604
89,67,38287,2,8,B|89:101,1,33.7500012874604
38,93,38461,2,8,B|38:127,1,33.7500012874604
38,177,38634,6,8,B|38:255,1,67.5000025749208
38,244,39154,1,8,0:0:0
436,49,40021,6,0,B|359:68|347:153,1,135,4|0,0:0|0:0,0:0:0
350,163,40368,1,8,0:0:0
429,248,40542,1,0,0:0:0
314,270,40715,2,0,B|329:322|380:347,1,90
231,187,41062,1,8,0:0:0
116,298,41235,2,0,B|160:319|204:300,1,90
361,212,41582,2,0,B|317:191|273:210,1,90,0|8,0:0|0:0,0:0:0
159,196,41929,1,0,0:0:0
320,318,42102,5,0,0:0:0
320,318,42189,1,0,0:0:0
320,318,42276,1,0,0:0:0
463,307,42449,1,8,0:0:0
463,307,42536,1,0,0:0:0
463,307,42623,1,0,0:0:0
440,128,42796,6,0,B|395:154|383:199,1,90,0|0,0:0|0:0,0:0:0
273,219,43143,1,8,0:0:0
273,219,43316,1,0,0:0:0
281,350,43490,2,0,B|338:352|381:298,1,90,0|0,0:0|0:0,0:0:0
140,202,43836,2,0,B|128:257|178:298,1,90,8|0,0:0|0:0,0:0:0
100,110,44183,2,0,B|192:118|192:118|246:188,1,180,0|8,0:0|0:0,0:0:0
354,186,44704,1,0,0:0:0
374,24,44877,5,0,0:0:0
466,171,45050,1,0,0:0:0
294,96,45224,1,8,0:0:0
474,64,45397,1,0,0:0:0
355,187,45571,2,0,B|279:199|245:287,1,135,0|0,0:0|0:0,0:0:0
294,375,45917,2,0,B|259:307|167:306,1,135,8|0,0:0|0:0,0:0:0
116,344,46264,2,0,B|172:292|156:197,1,135
114,152,46611,2,0,B|166:193|246:178,1,135,8|0,0:0|0:0,0:0:0
317,133,46958,6,0,B|329:143,6,11.25
407,152,47305,2,0,B|421:161,6,11.25,0|0|0|0|0|0|0,0:0|0:0|0:0|0:0|0:0|0:0|0:0,0:0:0
498,178,47651,2,0,B|467:256|386:237,1,135
370,229,47998,1,8,0:0:0
285,278,48172,1,0,0:0:0
241,179,48345,1,4,0:0:0
140,240,48519,1,0,0:0:0
136,114,48692,2,0,B|83:111|31:168,2,90,8|0|0,0:0|0:0|0:0,0:0:0
228,57,49212,5,0,0:0:0
244,164,49386,1,8,0:0:0
339,56,49559,1,0,0:0:0
437,159,49732,5,0,0:0:0
437,159,49819,1,0,0:0:0
437,159,49906,1,0,0:0:0
437,159,49993,1,0,0:0:0
437,159,50079,2,0,B|392:167|357:207,1,90,8|0,0:0|0:0,0:0:0
319,209,50339,5,0,0:0:0
319,209,50426,1,0,0:0:0
319,209,50513,1,0,0:0:0
319,209,50599,2,0,B|276:225|249:271,1,90,8|0,0:0|0:0,0:0:0
213,278,50860,5,0,0:0:0
213,278,50946,1,0,0:0:0
213,278,51033,1,0,0:0:0
213,278,51120,2,0,B|171:298|149:346,1,90,12|0,0:0|0:0,0:0:0
115,164,51467,5,8,0:0:0
115,164,51553,1,0,0:0:0
115,164,51640,2,0,B|160:149|219:168,1,90
272,235,51987,1,0,0:0:0
180,66,52160,1,8,0:0:0
91,222,52334,1,0,0:0:0
256,287,52507,6,0,B|306:275|336:233,1,90
134,138,52854,2,0,B|127:188|156:232,1,90
179,344,53201,1,0,0:0:0
219,344,53287,1,0,0:0:0
244,312,53374,1,0,0:0:0
184,152,53547,1,0,0:0:0
144,152,53634,1,0,0:0:0
119,184,53721,1,0,0:0:0
8,313,53894,6,0,B|56:313|97:269,1,90,0|0,0:0|0:0,0:0:0
175,129,54241,2,0,B|217:147|233:194,1,90,0|0,0:0|0:0,0:0:0
230,365,54588,2,0,B|277:368|321:327,1,90
357,236,54935,1,8,0:0:0
426,318,55108,1,0,0:0:0
252,251,55282,5,0,0:0:0
252,251,55368,1,0,0:0:0
252,251,55455,1,0,0:0:0
252,251,55542,1,0,0:0:0
252,251,55628,1,8,0:0:0
252,251,55715,1,0,0:0:0
252,251,55802,1,0,0:0:0
252,251,55888,1,0,0:0:0
252,251,55975,5,0,0:0:0
194,165,56149,1,8,0:0:0
144,261,56322,1,0,0:0:0
301,159,56495,1,0,0:0:0
349,242,56669,2,0,B|428:220|450:136,1,135,0|0,0:0|0:0,0:0:0
468,67,57016,2,0,B|389:62|329:119,1,135,8|0,0:0|0:0,0:0:0
286,178,57362,2,0,B|211:169|164:99,1,135
144,26,57709,6,0,B|78:58|64:139,1,135,8|0,0:0|0:0,0:0:0
4,196,58056,2,0,B|62:234|145:203,1,135
212,162,58403,2,0,B|236:235|184:305,1,135,8|0,0:0|0:0,0:0:0
109,323,58750,2,0,B|150:387|228:381,1,135
248,374,59097,1,8,0:0:0
334,284,59270,1,0,0:0:0
461,294,59443,1,4,0:0:0
461,294,59530,1,0,0:0:0
461,294,59617,1,0,0:0:0
461,294,59704,1,0,0:0:0
461,294,59790,6,0,B|461:193,1,90,8|0,0:0|0:0,0:0:0
476,96,60137,1,0,0:0:0
371,150,60310,2,0,B|282:189|177:139,1,180,0|0,0:0|0:0,0:0:0
151,38,60831,6,0,B|119:70,5,45,0|0|0|0|0|0,0:0|0:0|0:0|0:0|0:0|0:0,0:0:0
114,151,61351,2,0,B|84:184,5,45
168,221,61871,5,0,0:0:0
187,231,61958,1,0,0:0:0
208,239,62045,1,0,0:0:0
229,245,62131,1,0,0:0:0
251,248,62218,1,0,0:0:0
273,246,62305,1,0,0:0:0
294,240,62391,1,0,0:0:0
315,232,62478,1,0,0:0:0
333,220,62565,2,0,B|381:220,3,45
412,218,62912,6,8,B|369:320,1,90,8|8,0:0|0:0,0:0:0
100,218,63258,2,8,B|143:320,1,90
257,195,63605,1,12,0:0:0
392,101,67767,6,0,B|351:135,1,45
330,165,67941,2,0,B|380:180,2,45
120,101,68287,2,0,B|161:135,1,45
182,165,68461,2,0,B|132:180,2,45
256,49,68808,2,0,B|256:111,1,45
256,139,68981,2,0,B|256:212,1,45
256,229,69154,6,0,B|256:320,1,90,14|0,0:0|0:0,0:0:0
159,294,69501,2,0,B|117:269|105:222,1,90,10|0,0:0|0:0,0:0:0
353,294,69848,2,0,B|395:269|407:222,1,90,10|0,0:0|0:0,0:0:0
257,229,70195,2,0,B|257:135,1,90,10|0,0:0|0:0,0:0:0
186,45,70542,5,10,0:0:0
326,45,70715,1,10,0:0:0
257,139,70888,1,10,0:0:0
388,155,71062,2,0,B|376:226|305:254|305:254|351:273,1,180,10|10,0:0|0:0,0:0:0
378,364,71582,1,8,0:0:0
218,357,71756,6,0,B|268:350|268:350|200:313|192:252,1,180,10|2,0:0|0:0,0:0:0
171,155,72276,1,10,0:0:0
96,219,72449,1,0,0:0:0
20,154,72623,1,10,0:0:0
82,311,72796,2,0,B|137:320|191:260,1,90,8|10,0:0|0:0,0:0:0
240,219,73143,5,8,0:0:0
240,220,73316,1,10,0:0:0
240,220,73490,1,8,0:0:0
265,124,73663,1,10,0:0:0
337,191,73836,1,8,0:0:0
318,288,74010,1,0,0:0:0
222,313,74183,1,10,0:0:0
296,378,74357,1,10,0:0:0
391,351,74530,6,0,B|434:308|434:308|439:236|379:206,1,180,10|8,0:0|0:0,0:0:0
243,327,75050,2,0,B|310:267,1,90,10|0,0:0|0:0,0:0:0
135,313,75397,2,0,B|202:253,1,90,10|0,0:0|0:0,0:0:0
27,297,75744,2,0,B|94:237,1,90,10|0,0:0|0:0,0:0:0
220,87,76091,5,10,0:0:0
273,173,76264,1,10,0:0:0
168,171,76438,1,10,0:0:0
334,84,76611,2,0,B|395:130|380:208|380:208|419:172,1,180,10|10,0:0|0:0,0:0:0
499,115,77131,1,10,0:0:0
498,225,77305,6,0,B|430:289,1,90,8|2,0:0|0:0,0:0:0
265,351,77651,2,0,B|330:289,1,90,0|10,0:0|0:0,0:0:0
419,131,77998,2,0,B|351:195,1,90,0|2,0:0|0:0,0:0:0
186,260,78345,2,0,B|251:198,1,90,0|10,0:0|0:0,0:0:0
298,110,78692,1,10,0:0:0
298,110,78865,1,2,0:0:0
298,110,79039,1,2,0:0:0
200,93,79212,2,0,B|119:159,1,90,8|10,0:0|0:0,0:0:0
144,311,79559,2,0,B|213:254,1,90,8|10,0:0|0:0,0:0:0
22,229,79906,6,8,B|130:229,1,90
202,227,80253,2,0,B|254:262,7,45
282,237,80946,6,0,B|334:272,3,45
363,253,81293,2,0,B|415:288,3,45
433,293,81640,5,0,0:0:0
460,269,81727,1,0,0:0:0
474,236,81813,1,0,0:0:0
478,200,81900,1,0,0:0:0
479,163,81987,1,0,0:0:0
479,127,82073,1,0,0:0:0
475,91,82160,1,0,0:0:0
461,58,82247,1,0,0:0:0
443,26,82334,6,0,B|399:26,3,45
364,56,82680,2,0,B|314:56,3,45
280,55,83027,5,0,0:0:0
273,65,83114,1,0,0:0:0
266,75,83201,1,0,0:0:0
260,85,83287,1,0,0:0:0
238,119,83374,5,0,0:0:0
245,129,83461,1,0,0:0:0
252,139,83547,1,0,0:0:0
258,149,83634,1,0,0:0:0
283,180,83721,5,0,0:0:0
276,190,83808,1,0,0:0:0
269,200,83894,1,0,0:0:0
263,210,83981,1,0,0:0:0
240,243,84068,5,0,0:0:0
247,253,84154,1,0,0:0:0
254,263,84241,1,0,0:0:0
260,273,84328,1,0,0:0:0
286,303,84414,6,8,B|253:362,1,45
184,320,84588,2,8,B|162:360,1,45
131,243,84761,2,8,B|109:282,1,45
38,244,84935,6,8,B|16:283,1,45
40,223,85108,1,0,0:0:0
40,203,85195,1,0,0:0:0
40,183,85282,1,0,0:0:0
40,167,85368,1,0,0:0:0
40,151,85455,1,0,0:0:0
40,131,85542,1,0,0:0:0
40,111,85628,1,0,0:0:0
40,95,85715,1,0,0:0:0
40,77,85802,6,0,B|80:46,7,45
132,114,86495,6,0,B|181:114,3,45
218,86,86842,2,0,B|266:86,3,45,0|0|0|0,0:0|0:0|0:0|0:0,0:0:0
302,115,87189,2,0,B|357:115,3,45,0|0|0|0,0:0|0:0|0:0|0:0,0:0:0
387,86,87536,2,0,B|436:86,3,45,0|0|0|0,0:0|0:0|0:0|0:0,0:0:0
453,120,87883,5,0,0:0:0
433,150,87969,1,0,0:0:0
400,166,88056,1,0,0:0:0
364,170,88143,1,0,0:0:0
328,165,88230,1,0,0:0:0
291,164,88316,1,0,0:0:0
255,170,88403,1,0,0:0:0
221,182,88490,1,0,0:0:0
194,206,88576,6,0,B|162:238,11,45
71,243,89617,2,0,B|92:322|167:322,1,135
188,322,89964,2,0,B|202:333,15,11.25
209,339,90831,5,0,0:0:0
222,214,91004,1,0,0:0:0
330,268,91177,1,0,0:0:0
446,227,91351,6,0,B|487:189|486:115,1,90,4|0,0:0|0:0,0:0:0
414,21,91698,2,0,B|373:59|374:133,1,90,8|0,0:0|0:0,0:0:0
339,212,92045,2,0,B|297:205|270:156,2,90,0|0|8,0:0|0:0|0:0,0:0:0
368,116,92565,1,0,0:0:0
432,191,92738,6,0,B|432:299,1,90
258,330,93085,2,0,B|258:240,1,90,8|0,0:0|0:0,0:0:0
338,78,93432,2,0,B|338:170,2,90,0|0|8,0:0|0:0|0:0,0:0:0
147,57,93952,5,0,0:0:0
147,57,94125,2,0,B|239:57,1,90
344,55,94472,1,8,0:0:0
451,51,94646,1,0,0:0:0
403,147,94819,2,0,B|448:166|493:147,1,90
311,194,95166,1,8,0:0:0
311,194,95339,1,0,0:0:0
357,282,95513,6,0,B|311:309|260:280,1,90
237,272,95773,1,0,0:0:0
204,256,95860,2,0,B|228:354,1,90,8|0,0:0|0:0,0:0:0
372,238,96206,2,0,B|350:150,1,90,0|0,0:0|0:0,0:0:0
222,60,96553,2,0,B|246:158,1,90,8|0,0:0|0:0,0:0:0
463,142,96900,6,0,B|450:64|363:27,1,135
294,29,97247,2,0,B|285:98|213:131,1,135,8|0,0:0|0:0,0:0:0
149,192,97594,2,0,B|212:220|223:298,1,135
270,374,97941,6,0,B|302:312|381:307,1,135,8|0,0:0|0:0,0:0:0
464,274,98287,2,0,B|404:237|403:158,1,135
410,71,98634,2,0,B|346:100|280:56,1,135,8|0,0:0|0:0,0:0:0
195,31,98981,2,0,B|196:100|129:143,1,135
103,158,99328,1,8,0:0:0
209,208,99501,1,0,0:0:0
109,270,99675,2,0,B|127:315|194:323,1,90,4|0,0:0|0:0,0:0:0
281,286,100021,5,8,0:0:0
192,222,100195,1,0,0:0:0
292,184,100368,1,0,0:0:0
378,249,100542,1,0,0:0:0
365,355,100715,1,8,0:0:0
365,355,100888,1,0,0:0:0
239,303,101062,5,0,0:0:0
239,303,101149,1,0,0:0:0
239,303,101235,1,0,0:0:0
239,303,101322,1,0,0:0:0
239,303,101409,1,8,0:0:0
154,197,101582,5,0,0:0:0
154,197,101669,1,0,0:0:0
154,197,101756,1,0,0:0:0
154,197,101842,1,0,0:0:0
154,197,101929,1,0,0:0:0
19,204,102102,5,8,0:0:0
19,204,102189,1,0,0:0:0
19,204,102276,1,0,0:0:0
19,204,102449,5,4,0:0:0
30,96,102623,1,0,0:0:0
136,111,102796,1,8,0:0:0
239,82,102969,1,0,0:0:0
332,115,103143,5,0,0:0:0
223,196,103316,1,0,0:0:0
223,196,103490,1,8,0:0:0
349,240,103663,1,0,0:0:0
349,240,103836,1,0,0:0:0
426,152,104010,1,0,0:0:0
306,213,104183,1,8,0:0:0
183,155,104357,1,0,0:0:0
195,288,104530,5,0,0:0:0
223,316,104617,1,0,0:0:0
263,317,104704,1,0,0:0:0
256,200,104877,1,8,0:0:0
230,167,104964,1,0,0:0:0
189,168,105050,1,0,0:0:0
28,176,105224,6,0,B|49:220|106:229,1,90,0|0,0:0|0:0,0:0:0
79,86,105571,2,0,B|58:42|1:33,1,90,8|0,0:0|0:0,0:0:0
205,71,105917,1,0,0:0:0
160,169,106091,1,0,0:0:0
213,262,106264,1,8,0:0:0
118,330,106438,1,0,0:0:0
268,176,106611,5,0,0:0:0
295,205,106698,1,0,0:0:0
305,244,106784,1,0,0:0:0
297,283,106871,1,0,0:0:0
278,319,106958,2,0,B|319:291|379:296,1,90,8|0,0:0|0:0,0:0:0
475,177,107305,2,0,B|430:172|389:200,1,90
228,151,107651,2,0,B|269:123|329:128,1,90,8|0,0:0|0:0,0:0:0
135,108,107998,6,0,B|115:159|151:210|151:210|106:194,1,135
42,182,108345,2,0,B|16:173|16:173|52:224|33:275,1,135,8|0,0:0|0:0,0:0:0
13,359,108692,2,0,B|62:383|116:353|116:353|105:377,1,135
191,379,109039,2,0,B|241:356|251:294|251:294|272:337,1,135,8|0,0:0|0:0,0:0:0
334,279,109386,6,0,B|345:294,5,11.25
407,225,109732,2,0,B|418:240,5,11.25
477,176,110079,2,0,B|496:157|496:157|434:165|398:124,1,135,0|0,0:0|0:0,0:0:0
387,89,110426,5,8,0:0:0
282,117,110599,1,0,0:0:0
243,15,110773,2,0,B|192:14|148:68,1,90,4|0,0:0|0:0,0:0:0
153,156,111120,1,8,0:0:0
153,156,111293,1,0,0:3:0
53,247,111467,1,0,0:0:0
53,247,111640,1,0,0:3:0
186,265,111813,1,8,0:0:0
186,265,111987,1,0,0:0:0
287,198,112160,6,0,B|341:163,5,45
402,232,112680,2,0,B|357:265,5,45
351,270,113201,5,0,0:0:0
335,279,113287,1,0,0:0:0
318,287,113374,1,0,0:0:0
301,294,113461,1,0,0:0:0
283,300,113547,1,0,0:0:0
265,305,113634,1,0,0:0:0
247,307,113721,1,0,0:0:0
228,306,113808,1,0,0:0:0
210,304,113894,1,0,0:0:0
192,299,113981,1,0,0:0:0
174,293,114068,1,0,0:0:0
157,286,114154,1,0,0:0:0
141,276,114241,6,8,B|106:193,1,90
405,193,114588,2,8,B|371:276,1,90
256,165,114935,1,12,0:0:0
80,79,124646,5,0,0:0:0
181,114,124819,1,0,0:0:0
181,114,124906,1,0,0:0:0
181,114,124993,1,8,0:0:0
181,114,125079,1,0,0:0:0
181,114,125166,1,0,0:0:0
298,180,125339,5,0,0:0:0
204,233,125513,1,0,0:0:0
204,233,125599,1,0,0:0:0
204,233,125686,1,8,0:0:0
204,233,125773,1,0,0:0:0
204,233,125860,1,0,0:0:0
97,245,126033,6,0,B|113:301|157:322,1,90
255,310,126380,2,0,B|315:313|355:281,1,90,8|0,0:0|0:0,0:0:0
183,202,126727,1,0,0:0:0
183,202,126900,1,0,0:0:0
291,204,127073,2,0,B|341:177|358:119,1,90,8|0,0:0|0:0,0:0:0
385,37,127420,5,0,0:0:0
385,37,127507,1,0,0:0:0
385,37,127594,1,0,0:0:0
440,150,127767,2,0,B|457:203|441:267,1,90,8|0,0:0|0:0,0:0:0
341,266,128114,2,0,B|314:301|269:318,1,90
221,220,128461,2,0,B|180:230|136:195,1,90,8|0,0:0|0:0,0:0:0
309,44,128808,6,0,B|349:139,1,90,0|0,0:0|0:0,0:0:0
170,177,129154,2,0,B|204:94,1,90,8|0,0:0|0:0,0:0:0
331,239,129501,2,0,B|371:334,1,90
148,371,129848,2,0,B|182:288,1,90,8|0,0:0|0:0,0:0:0
117,204,130195,5,0,0:0:0
117,204,130368,1,0,0:0:0
229,129,130542,1,8,0:0:0
229,129,130715,1,0,0:0:0
297,240,130888,2,0,B|332:212|345:163,1,90,0|4,0:0|0:0,0:0:0
344,165,131235,1,12,0:0:0
344,165,131409,1,0,0:0:0
170,47,131582,6,0,B|259:91,1,90
411,118,131929,2,0,B|332:162,1,90,8|0,0:0|0:0,0:0:0
156,177,132276,2,0,B|241:223,1,90
413,260,132623,2,0,B|331:297,1,90,8|0,0:0|0:0,0:0:0
140,318,132969,6,0,B|221:355,1,90,0|0,0:0|0:0,0:0:0
238,248,133316,1,8,0:0:0
238,248,133490,1,0,0:0:0
354,294,133663,1,0,0:0:0
354,294,133836,1,0,0:0:0
318,153,134010,1,8,0:0:0
318,153,134183,1,0,0:0:0
318,153,134270,1,0,0:0:0
318,153,134357,1,0,0:0:0
386,265,134530,6,8,B|386:220,1,45
344,282,134704,2,8,B|344:237,1,45
305,299,134877,2,8,B|305:252,1,45
259,318,135050,2,8,B|259:273,1,45
169,263,135224,6,8,B|169:218,1,45
123,244,135397,2,8,B|122:199,1,45
85,227,135571,2,8,B|85:182,1,45
43,210,135744,2,8,B|43:165,1,45
93,88,135917,6,8,B|93:43,1,45
134,105,136091,2,8,B|134:60,1,45
173,122,136264,2,8,B|172:77,1,45
211,138,136438,2,8,B|210:93,1,45
243,152,136611,6,0,B|282:172|342:161,1,90,2|0,0:0|0:0,0:0:0
445,172,136958,2,0,B|436:225|377:257,1,90,2|2,0:0|0:0,0:0:0
421,350,137305,2,0,B|375:355|333:330,1,90,0|2,0:0|0:0,0:0:0
238,381,137651,2,0,B|215:341|229:270,1,90,0|2,0:0|0:0,0:0:0
83,73,138519,6,0,B|127:62|191:96,1,90,2|0,0:0|0:0,0:0:0
276,66,138865,2,0,B|283:111|246:173,1,90,2|0,0:0|0:0,0:0:0
332,231,139212,2,0,B|294:258|222:251,2,90,2|0|2,0:0|0:0|0:0,0:0:0
429,180,139732,1,0,0:0:0
416,286,139906,2,0,B|410:331|356:380,1,90,2|0,0:0|0:0,0:0:0
293,289,140253,2,0,B|246:290|190:244,1,90,2|0,0:0|0:0,0:0:0
277,175,140599,2,0,B|249:138|254:65,1,90,2|0,0:0|0:0,0:0:0
359,112,140946,2,0,B|374:68|436:32,1,90,2|0,0:0|0:0,0:0:0
468,141,141293,2,0,B|404:228|308:209,1,180,2|2,0:0|0:0,0:0:0
38,79,141987,6,2,B|134:107,1,90
147,274,142334,2,2,B|60:248,1,90
202,185,142680,2,0,B|259:202|259:202|291:259|255:321,1,180,2|2,0:0|0:0,0:0:0
272,110,143201,1,0,0:0:0
383,144,143374,2,0,B|436:205|414:315,1,180,2|2,0:0|0:0,0:0:0
295,347,143894,1,2,0:0:0
291,229,144068,6,0,B|260:194|260:144,1,90,2|2,0:0|0:0,0:0:0
234,32,144414,2,0,B|322:47,1,90,2|2,0:0|0:0,0:0:0
438,68,144761,2,0,B|467:168|391:252,1,180,2|2,0:0|0:0,0:0:0
186,238,145455,1,2,0:0:0
256,32,146149,5,0,0:0:0
237,112,146322,1,0,0:0:0
243,117,146409,1,0,0:0:0
251,120,146495,1,0,0:0:0
259,119,146582,1,0,0:0:0
266,114,146669,1,0,0:0:0
295,183,146842,5,0,0:0:0
276,196,146929,1,0,0:0:0
253,199,147016,1,0,0:0:0
230,194,147102,1,0,0:0:0
211,181,147189,1,0,0:0:0
189,251,147362,5,0,0:0:0
219,270,147449,1,0,0:0:0
253,278,147536,1,0,0:0:0
288,269,147623,1,0,0:0:0
321,254,147709,1,0,0:0:0
346,326,147883,5,0,0:0:0
301,348,147969,1,0,0:0:0
253,361,148056,1,0,0:0:0
204,352,148143,1,0,0:0:0
160,327,148230,5,4,0:0:0
84,249,148403,1,0,0:0:0
155,168,148576,1,8,0:0:0
51,112,148750,1,0,0:0:0
163,82,148923,2,0,B|219:91|240:153,1,90
315,215,149270,2,0,B|346:191|347:134,1,90,8|0,0:0|0:0,0:0:0
290,41,149617,6,0,B|399:3|462:105,2,180,0|8|0,0:0|0:0|0:0,0:0:0
217,121,150484,1,0,0:0:0
115,85,150657,1,8,0:0:0
122,193,150831,1,0,0:0:0
226,220,151004,6,0,B|206:276|146:291,1,90,4|0,0:0|0:0,0:0:0
307,160,151351,2,0,B|337:211|309:266,1,90,8|0,0:0|0:0,0:0:0
289,68,151698,2,0,B|348:61|387:108,1,90
481,116,152045,2,0,B|461:170|422:178,1,90,8|0,0:0|0:0,0:0:0
313,182,152391,5,0,0:0:0
278,161,152478,1,0,0:0:0
237,151,152565,1,0,0:0:0
198,159,152651,1,0,0:0:0
163,181,152738,1,8,0:0:0
239,242,152912,1,0,0:0:0
191,78,153085,1,0,0:0:0
71,198,153258,2,0,B|66:244|102:279,1,90,0|8,0:0|0:0,0:0:0
190,342,153605,1,0,0:0:0
204,235,153779,6,0,B|275:249|275:249|300:306,1,135
358,374,154125,2,0,B|415:343|415:343|422:272,1,135,8|0,0:0|0:0,0:0:0
487,210,154472,2,0,B|434:173|434:173|367:194,1,135
309,264,154819,2,0,B|269:208|269:208|294:144,1,135,8|0,0:0|0:0,0:0:0
326,62,155166,6,0,B|310:49,5,11.25
231,85,155513,2,0,B|216:74,5,11.25
139,115,155860,2,0,B|194:202|307:152,1,180,0|8,0:0|0:0,0:0:0
402,126,156380,1,0,0:0:0
374,229,156553,2,0,B|280:264,1,90,4|0,0:0|0:0,0:0:0
109,270,156900,6,0,B|205:234,1,90,8|0,0:0|0:0,0:0:0
262,154,157247,1,0,0:0:0
399,35,157420,1,0,0:0:0
292,50,157594,1,8,0:0:0
368,138,157767,1,0,0:0:0
267,221,157941,2,0,B|225:253,5,45,0|0|0|0|0|0,0:0|0:0|0:0|0:0|0:0|0:0,0:0:0
185,235,158461,2,0,B|149:261,5,45,0|0|0|0|0|0,0:0|0:0|0:0|0:0|0:0|0:0,0:0:0
117,287,158981,5,0,0:0:0
121,304,159068,1,0,0:0:0
132,317,159154,1,0,0:0:0
147,325,159241,1,0,0:0:0
164,328,159328,1,0,0:0:0
181,328,159414,1,0,0:0:0
198,325,159501,1,0,0:0:0
213,317,159588,1,0,0:0:0
225,304,159675,1,0,0:0:0
230,286,159761,1,0,0:0:0
231,268,159848,1,0,0:0:0
230,249,159935,1,0,0:0:0
233,231,160021,5,0,0:0:0
240,214,160108,1,0,0:0:0
253,201,160195,1,0,0:0:0
270,197,160282,1,0,0:0:0
287,198,160368,1,0,0:0:0
302,205,160455,1,0,0:0:0
314,218,160542,1,0,0:0:0
319,235,160628,1,0,0:0:0
321,253,160715,6,0,B|417:207,1,90,8|0,0:0|0:0,0:0:0
297,140,161062,2,0,B|353:55,1,90,8|0,0:0|0:0,0:0:0
193,118,161409,2,0,B|195:15,1,90,8|0,0:0|0:0,0:0:0
94,137,161756,2,0,B|36:59,1,90,8|0,0:0|0:0,0:0:0
45,219,162102,6,0,B|101:289,1,90,8|0,0:0|0:0,0:0:0
199,178,162449,2,0,B|200:267,1,90,8|0,0:0|0:0,0:0:0
349,208,162796,2,0,B|302:284,1,90,8|0,0:0|0:0,0:0:0
433,335,163143,2,0,B|353:376,1,90,8|0,0:0|0:0,0:0:0
493,265,163490,6,0,B|430:226|366:271,1,135,8|0,0:0|0:0,0:0:0
294,324,163836,2,0,B|260:253|310:197,1,135,8|0,0:0|0:0,0:0:0
329,173,164183,5,0,0:0:0
361,79,164357,1,0,0:0:0
457,59,164530,1,8,0:0:0
419,150,164704,1,0,0:0:0
263,64,164877,6,0,B|185:75|164:155,1,135,4|0,0:0|0:0,0:0:0
124,238,165224,2,0,B|200:257|250:189,1,135,8|0,0:0|0:0,0:0:0
336,144,165571,2,0,B|368:210|315:269,1,135
264,350,165917,2,0,B|335:382|396:324,1,135,8|0,0:0|0:0,0:0:0
457,270,166264,6,0,B|472:270,6,11.25
458,187,166611,2,0,B|469:188,6,11.25
391,119,166958,2,0,B|345:104|302:119,1,90
122,122,167305,2,0,B|164:106|210:121,1,90,8|0,0:0|0:0,0:0:0
344,206,167651,6,0,B|258:252|166:205,1,180,4|8,0:0|0:0,0:0:0
173,295,168172,2,0,B|259:326|353:291,1,180,0|8,0:0|0:0,0:0:0
452,257,168692,1,8,0:0:0
452,257,168865,1,0,0:0:0
402,161,169039,1,8,0:0:0
385,154,169125,1,0,0:0:0
367,150,169212,1,0,0:0:0
348,149,169299,1,0,0:0:0
330,153,169386,1,0,0:0:0
313,160,169472,1,0,0:0:0
273,190,169559,5,0,0:0:0
256,197,169646,1,0,0:0:0
238,201,169732,1,0,0:0:0
219,200,169819,1,0,0:0:0
201,196,169906,1,0,0:0:0
184,189,169993,1,0,0:0:0
146,156,170079,5,0,0:0:0
128,151,170166,1,0,0:0:0
110,149,170253,1,0,0:0:0
92,152,170339,1,0,0:0:0
74,157,170426,2,0,B|27:156,4,45
113,248,170946,5,0,0:0:0
73,339,171120,2,0,B|124:359|169:333,1,90,8|0,0:0|0:0,0:0:0
193,169,171467,2,0,B|224:196|221:251,1,90,0|0,0:0|0:0,0:0:0
265,342,171813,6,0,B|355:342,1,90,4|0,0:0|0:0,0:0:0
190,246,172160,2,0,B|280:246,1,90,8|0,0:0|0:0,0:0:0
295,147,172507,2,0,B|385:147,1,90,8|0,0:0|0:0,0:0:0
169,62,172854,2,0,B|259:62,1,90,8|0,0:0|0:0,0:0:0
406,136,173201,6,0,B|316:136,1,90,8|0,0:0|0:0,0:0:0
242,210,173547,2,0,B|152:210,1,90,8|0,0:0|0:0,0:0:0
380,294,173894,2,0,B|290:294,1,90,8|0,0:0|0:0,0:0:0
203,345,174241,2,0,B|113:345,1,90,8|0,0:0|0:0,0:0:0
301,298,174588,6,0,B|391:298,1,90,8|0,0:0|0:0,0:0:0
204,232,174935,2,0,B|114:232,1,90,8|0,0:0|0:0,0:0:0
305,162,175282,2,0,B|395:162,1,90,8|0,0:0|0:0,0:0:0
199,94,175628,2,0,B|109:94,1,90,8|0,0:0|0:0,0:0:0
292,125,175975,5,8,0:0:0
281,154,176062,1,8,0:0:0
257,175,176149,1,8,0:0:0
227,183,176235,1,8,0:0:0
195,185,176322,2,8,B|145:185,3,45
118,186,176669,5,8,0:0:0
87,194,176756,1,8,0:0:0
64,215,176842,1,8,0:0:0
54,245,176929,1,8,0:0:0
54,276,177016,1,8,0:0:0
55,307,177102,1,8,0:0:0
55,338,177189,6,8,B|55:383,1,45
