osu file format v10

[General]
AudioFilename: Omega Rhythm.mp3
AudioLeadIn: 1500
PreviewTime: 39328
Countdown: 0
SampleSet: Normal
StackLeniency: 0.7
Mode: 0
LetterboxInBreaks: 1

[Editor]
DistanceSpacing: 2
BeatDivisor: 4
GridSize: 4

[Metadata]
Title:Omega Rhythm
TitleUnicode:Omega Rhythm
Artist:UPLIFT SPICE
ArtistUnicode:UPLIFT SPICE
Creator:Wax789
Version:Dance
Source:
Tags:Rock Emo Punk Giffen
BeatmapID:185271
BeatmapSetID:62430

[Difficulty]
HPDrainRate:6
CircleSize:4
OverallDifficulty:7
ApproachRate:9
SliderMultiplier:1.8
SliderTickRate:1

[Events]
//Background and Video events
0,0,"BG.jpg"
//Break Periods
2,63805,67149
2,115135,124046
//Storyboard Layer 0 (Background)
//Storyboard Layer 1 (Fail)
//Storyboard Layer 2 (Pass)
//Storyboard Layer 3 (Foreground)
//Storyboard Sound Samples
//Background Colour Transformations
3,100,255,255,255

[TimingPoints]
1178,346.820809248555,4,2,1,60,1,0
16091,-100,4,2,1,90,0,0
16438,-100,4,1,1,70,0,0
28923,-100,4,1,1,60,0,0
37247,-100,4,1,1,75,0,0
39501,-100,4,1,1,60,0,0
40021,-80,4,1,1,80,0,1
60831,-80,4,1,1,60,0,1
61351,-80,4,1,1,65,0,1
61871,-80,4,1,1,70,0,1
62391,-80,4,1,1,75,0,1
63605,-100,4,1,1,75,0,0
67767,-100,4,1,1,90,0,0
69154,-100,4,1,1,70,0,0
80253,-100,4,1,1,60,0,0
83027,-100,4,1,1,30,0,0
83374,-100,4,1,1,35,0,0
83721,-100,4,1,1,40,0,0
84068,-100,4,1,1,45,0,0
84414,-100,4,1,1,50,0,0
84761,-100,4,1,1,55,0,0
85108,-100,4,1,1,60,0,0
85455,-100,4,1,1,65,0,0
85802,-100,4,1,1,70,0,0
88576,-100,4,1,1,75,0,0
91351,-80,4,1,1,80,0,1
113547,-80,4,1,1,5,0,1
113634,-80,4,1,1,80,0,1
114935,-80,4,1,1,80,0,0
124646,-80,4,1,1,70,0,0
126033,-80,4,1,1,75,0,0
134357,-80,4,1,1,40,0,0
134704,-80,4,1,1,47,0,0
135050,-80,4,1,1,55,0,0
135397,-80,4,1,1,62,0,0
135744,-80,4,1,1,76,0,0
136091,-80,4,1,1,83,0,0
136438,-80,4,1,1,90,0,0
136784,-80,4,1,1,97,0,0
137131,-133.333333333333,4,2,1,30,0,0
146149,-100,4,1,1,65,0,0
147362,-80,4,1,1,65,0,0
147883,-66.6666666666667,4,1,1,65,0,0
148230,-79.9999999999999,4,1,1,85,0,1
169039,-80,4,1,1,65,0,1
169559,-80,4,1,1,70,0,1
170079,-80,4,1,1,75,0,1
170599,-80,4,1,1,80,0,1
171813,-100,4,2,1,60,0,0
175975,-100,4,1,1,65,0,0

[Colours]
Combo1 : 175,12,81
Combo2 : 0,0,160

[HitObjects]
184,104,1178,6,0,B|200:116|200:116|248:100|284:136,2,90,10|0|10,0:0|0:0|0:0,0:0:0
104,148,1698,2,0,B|88:160|88:160|40:140|4:180,1,90,0|10,0:0|0:0,0:0:0
44,252,2045,2,0,B|60:264|60:264|108:244|144:284,2,90,0|10|0,0:0|0:0|0:0,0:0:0
80,336,2565,6,0,B|96:348|96:348|144:328|180:368,1,90,10|0,0:0|0:0,0:0:0
244,316,2912,2,0,B|225:291|177:311|177:311|161:299,1,90,10|0,0:0|0:0,0:0:0
236,248,3258,2,0,B|252:260|252:260|300:240|336:280,1,90,10|0,0:0|0:0,0:0:0
372,192,3605,2,0,B|356:204|356:204|308:184|272:224,1,90,10|0,0:0|0:0,0:0:0
312,120,3952,6,0,B|348:88|408:84,1,90,10|0,0:0|0:0,0:0:0
312,120,4299,2,0,B|276:88|216:84,2,90,10|0|10,0:0|0:0|0:0,0:0:0
392,160,4819,2,0,B|428:192|488:196,2,90,0|10|0,0:0|0:0|0:0,0:0:0
308,196,5339,6,0,B|272:228|212:232,1,90,10|0,0:0|0:0,0:0:0
136,244,5686,2,0,B|172:276|232:280,1,90,10|0,0:0|0:0,0:0:0
308,288,6033,2,0,B|272:320|212:324,1,90,10|0,0:0|0:0,0:0:0
136,340,6380,2,0,B|172:372|232:376,1,90,10|0,0:0|0:0,0:0:0
304,352,6727,6,0,B|322:376|370:356|370:356|386:368,2,90,10|0|10,0:0|0:0|0:0,0:0:0
252,280,7247,2,0,B|268:292|268:292|316:272|352:312,1,90,0|10,0:0|0:0,0:0:0
404,240,7594,2,0,B|389:229|389:229|341:249|323:224,2,90,0|10|0,0:0|0:0|0:0,0:0:0
492,176,8114,5,10,0:0:0
408,148,8287,1,0,0:0:0
472,84,8461,2,0,B|453:59|405:79|405:79|389:67,1,90,10|0,0:0|0:0,0:0:0
304,52,8808,1,10,0:0:0
216,64,8981,1,0,0:0:0
272,132,9154,1,10,0:0:0
288,220,9328,5,0,0:0:0
288,220,9501,2,0,B|242:222|206:254,1,90,10|0,0:0|0:0,0:0:0
128,296,9848,2,0,B|92:264|32:260,2,90,10|0|10,0:0|0:0|0:0,0:0:0
208,340,10368,2,0,B|244:372|304:376,2,90,0|10|0,0:0|0:0|0:0,0:0:0
292,308,10888,6,0,B|328:276|388:272,1,90,10|0,0:0|0:0,0:0:0
464,260,11235,2,0,B|428:228|368:224,1,90,10|0,0:0|0:0,0:0:0
292,216,11582,2,0,B|328:184|388:180,1,90,10|0,0:0|0:0,0:0:0
464,164,11929,2,0,B|428:132|368:128,1,90,10|0,0:0|0:0,0:0:0
300,92,12276,6,0,B|269:57|266:10,1,90,10|0,0:0|0:0,0:0:0
300,92,12623,2,0,B|334:61|382:58,1,90,10|0,0:0|0:0,0:0:0
300,92,12969,2,0,B|330:126|333:174,1,90,10|0,0:0|0:0,0:0:0
300,92,13316,2,0,B|265:122|217:125,1,90,10|0,0:0|0:0,0:0:0
216,212,13663,6,0,B|167:209|133:178,1,90,10|0,0:0|0:0,0:0:0
101,261,14010,2,0,B|103:212|134:179,1,90,10|0,0:0|0:0,0:0:0
52,146,14357,2,0,B|100:148|134:179,1,90,10|0,0:0|0:0,0:0:0
168,97,14704,2,0,B|165:145|134:179,1,90,10|0,0:0|0:0,0:0:0
101,261,15050,5,10,0:0:0
200,168,15224,1,0,0:0:0
232,300,15397,1,10,0:0:0
112,224,15571,1,0,0:0:0
236,165,15744,1,10,0:0:0
233,300,15917,1,0,0:0:0
348,228,16091,1,6,0:0:0
140,56,16438,5,12,0:0:0
44,148,16611,1,8,0:0:0
432,268,17131,5,12,0:0:0
368,148,17305,1,8,0:0:0
268,236,17478,1,0,0:0:0
256,220,17565,1,0,0:0:0
244,208,17651,1,0,0:0:0
232,192,17738,1,0,0:0:0
220,176,17825,6,0,B|198:146|198:146|166:123|108:134,1,90,4|0,0:0|0:0,0:0:0
48,222,18172,2,0,B|70:252|70:252|102:275|160:264,1,90,8|0,0:0|0:0,0:0:0
232,348,18519,1,0,0:0:0
360,308,18692,1,0,0:0:0
420,188,18865,1,8,0:0:0
360,308,19039,1,0,0:0:0
492,312,19212,6,0,B|513:224,1,90,0|0,0:0|0:0,0:0:0
376,224,19559,2,0,B|397:136,1,90,8|0,0:0|0:0,0:0:0
260,136,19906,2,0,B|281:48,1,90,0|0,0:0|0:0,0:0:0
280,48,20253,1,8,0:0:0
148,32,20426,6,0,B|88:76|84:148|168:192|156:80,1,180,0|0,0:0|0:0,0:0:0
56,204,20946,1,8,0:0:0
52,340,21120,1,0,0:0:0
152,248,21293,1,0,0:0:0
52,340,21467,1,0,0:0:0
184,356,21640,2,0,B|228:364|228:364|296:356,1,90,8|0,0:0|0:0,0:0:0
400,300,21987,5,0,0:0:0
408,272,22073,1,0,0:0:0
412,240,22160,1,0,0:0:0
412,208,22247,1,0,0:0:0
404,176,22334,1,8,0:0:0
464,108,22507,2,0,B|496:76|478:49|478:49|453:26|408:17|369:60,1,180,0|0,0:0|0:0,0:0:0
375,53,22941,1,0,0:0:0
375,52,23027,1,8,0:0:0
240,76,23201,6,0,B|228:120|220:172|148:172|148:172|184:224,1,180,0|0,0:0|0:0,0:0:0
44,256,23721,2,0,B|8:216|0:164,1,90,8|0,0:0|0:0,0:0:0
28,156,23981,1,0,0:0:0
4,140,24068,2,0,B|9:101|45:61,1,90,8|0,0:0|0:0,0:0:0
168,200,24414,1,8,0:0:0
168,200,24588,1,0,0:0:0
152,328,24761,5,0,0:0:0
168,356,24848,1,0,0:0:0
188,380,24935,1,0,0:0:0
220,376,25021,1,0,0:0:0
252,368,25108,1,8,0:0:0
384,340,25282,2,0,B|396:316|396:316|388:292|388:292|416:288|416:288|404:256|404:256|432:252|432:252|428:228|428:228|452:188,1,180,0|0,0:0|0:0,0:0:0
320,144,25802,5,8,0:0:0
185,77,25975,2,0,B|241:61|241:61|297:77|309:101|320:144,1,180,0|0,0:0|0:0,0:0:0
204,216,26495,1,8,0:0:0
92,292,26669,1,0,0:0:0
60,160,26842,1,0,0:0:0
176,232,27016,1,0,0:0:0
64,308,27189,1,8,0:0:0
32,176,27362,1,0,0:0:0
468,40,27883,6,8,B|456:84|456:84|460:100|460:100|448:156,1,90,8|0,0:0|0:0,0:0:0
64,308,28576,5,8,0:0:0
64,308,28663,1,8,0:0:0
64,308,28750,1,8,0:0:0
184,152,28923,5,4,0:0:0
171,171,29010,1,0,0:0:0
153,183,29097,1,0,0:0:0
131,188,29183,1,0,0:0:0
108,183,29270,1,8,0:0:0
90,171,29357,1,0,0:0:0
77,152,29443,1,0,0:0:0
74,130,29530,5,0,0:0:0
77,108,29617,1,0,0:0:0
90,89,29704,1,0,0:0:0
108,77,29790,1,0,0:0:0
131,72,29877,1,0,0:0:0
153,77,29964,1,8,0:0:0
171,89,30050,1,0,0:0:0
184,108,30137,1,0,0:0:0
188,130,30224,1,0,0:0:0
184,152,30310,6,0,B|148:179,3,45,0|0|0|0,0:0|0:0|0:0|0:0,0:0:0
148,269,30657,2,0,B|112:296,3,45,8|0|0|0,0:0|0:0|0:0|0:0,0:0:0
148,378,31004,6,0,B|183:350,3,45,0|0|0|0,0:0|0:0|0:0|0:0,0:0:0
235,276,31351,2,0,B|270:248,3,45,8|0|0|0,0:0|0:0|0:0|0:0,0:0:0
269,225,31698,5,0,0:0:0
269,201,31784,1,0,0:0:0
269,181,31871,1,0,0:0:0
269,153,31958,1,0,0:0:0
253,137,32045,1,8,0:0:0
233,125,32131,1,0,0:0:0
209,121,32218,1,0,0:0:0
185,121,32305,1,0,0:0:0
161,121,32391,5,0,0:0:0
137,121,32478,1,0,0:0:0
113,121,32565,1,8,0:0:0
89,121,32651,1,0,0:0:0
65,121,32738,1,8,0:0:0
176,312,33085,5,0,0:0:0
312,312,33258,1,8,0:0:0
244,196,33432,1,8,0:0:0
244,332,33605,1,0,0:0:0
244,308,33692,1,8,0:0:0
244,284,33779,1,0,0:0:0
244,260,33865,1,8,0:0:0
244,236,33952,1,0,0:0:0
244,100,34125,1,8,0:0:0
244,100,34299,1,8,0:0:0
244,100,34472,5,4,0:0:0
268,100,34559,1,0,0:0:0
292,100,34646,1,0,0:0:0
316,100,34732,1,0,0:0:0
340,100,34819,1,8,0:0:0
364,100,34906,1,0,0:0:0
388,100,34993,1,0,0:0:0
410,100,35079,1,0,0:0:0
432,100,35166,6,0,B|472:140,3,45,0|0|0|0,0:0|0:0|0:0|0:0,0:0:0
400,223,35513,2,0,B|432:192,3,45,8|0|0|0,0:0|0:0|0:0|0:0,0:0:0
440,311,35860,5,0,0:0:0
416,311,35946,1,0,0:0:0
392,311,36033,1,0,0:0:0
368,311,36120,1,0,0:0:0
344,311,36206,1,8,0:0:0
320,311,36293,1,0,0:0:0
296,311,36380,1,0,0:0:0
272,311,36467,1,0,0:0:0
248,312,36553,6,0,B|188:313|188:313|172:300|172:300|172:324|172:324|156:313|156:313|88:312,1,180,0|8,0:0|0:0,0:0:0
256,120,37247,5,4,0:0:0
256,356,37594,1,8,0:0:0
200,256,37767,1,8,0:0:0
304,204,37941,1,8,0:0:0
364,304,38114,1,8,0:0:0
256,356,38287,5,8,0:0:0
312,256,38461,1,8,0:0:0
208,204,38634,1,12,0:0:0
148,304,38808,1,0,0:0:0
148,304,38894,1,0,0:0:0
148,304,38981,1,0,0:0:0
256,356,39154,1,12,0:0:0
256,32,39501,5,0,0:0:0
256,32,39848,1,0,0:0:0
416,88,40021,6,0,B|368:120|344:208,1,112.5,4|0,0:0|0:0,0:0:0
364,348,40368,2,0,B|349:288|301:256,1,112.5,8|0,0:0|0:0,0:0:0
132,268,40715,2,0,B|100:314|40:329,1,112.5,0|0,0:0|0:0,0:0:0
56,160,41062,2,0,B|104:128|118:68,1,112.5,8|0,0:0|0:0,0:0:0
224,200,41409,5,0,0:0:0
308,56,41582,1,0,0:0:0
156,128,41756,1,8,0:0:0
320,160,41929,1,0,0:0:0
204,36,42102,2,0,B|256:84|324:100|432:80,1,225,0|8,0:0|0:0,0:0:0
415,82,42623,5,0,0:0:0
333,231,42796,1,0,0:0:0
485,160,42969,1,0,0:0:0
320,127,43143,1,8,0:0:0
432,252,43316,2,0,B|411:305|411:305|363:333,1,112.5,0|0,0:0|0:0,0:0:0
194,333,43663,2,0,B|146:305|146:305|123:245,1,112.5,0|8,0:0|0:0,0:0:0
125,251,44010,1,0,0:0:0
48,172,44183,5,0,0:0:0
76,64,44357,1,0,0:0:0
204,248,44530,5,8,0:0:0
168,116,44704,1,0,0:0:0
228,332,44877,5,0,0:0:0
284,184,45050,1,0,0:0:0
144,360,45224,5,8,0:0:0
80,191,45397,1,0,0:0:0
152,76,45571,6,0,B|215:84|247:131,1,112.5,4|0,0:0|0:0,0:0:0
172,322,45917,2,0,B|180:260|226:228,1,112.5,8|0,0:0|0:0,0:0:0
436,316,46264,2,0,B|373:308|342:262,1,112.5,0|0,0:0|0:0,0:0:0
408,72,46611,2,0,B|400:135|354:167,1,112.5,8|0,0:0|0:0,0:0:0
176,288,46958,6,0,B|117:272|117:359|117:359|72:281|30:314,1,225,0|8,0:0|0:0,0:0:0
220,32,47651,1,0,0:0:0
252,48,47738,1,0,0:0:0
280,64,47825,1,0,0:0:0
308,80,47912,1,0,0:0:0
336,100,47998,2,0,B|276:152,1,56.25,0|0,0:0|0:0,0:0:0
248,144,48172,2,0,B|296:180,1,56.25,0|0,0:0|0:0,0:0:0
328,208,48345,1,0,0:0:0
256,348,48692,5,8,0:0:0
256,236,48865,1,0,0:0:0
204,136,49039,2,0,B|106:191,1,112.5,0|8,0:0|0:0,0:0:0
308,136,49386,2,0,B|405:191,1,112.5,8|0,0:0|0:0,0:0:0
395,262,49732,5,12,0:0:0
368,248,49819,1,8,0:0:0
344,236,49906,1,8,0:0:0
320,224,49993,1,8,0:0:0
296,212,50079,1,0,0:0:0
390,165,50253,5,12,0:0:0
365,153,50339,1,8,0:0:0
341,141,50426,1,8,0:0:0
317,129,50513,1,8,0:0:0
293,117,50599,1,0,0:0:0
382,69,50773,5,12,0:0:0
358,53,50860,1,8,0:0:0
334,41,50946,1,8,0:0:0
223,17,51120,6,0,B|184:70|126:61,1,112.5,4|0,0:0|0:0,0:0:0
68,184,51467,2,0,B|108:128|220:136,1,112.5,8|0,0:0|0:0,0:0:0
236,288,51813,1,0,0:0:0
344,188,51987,1,0,0:0:0
452,288,52160,1,8,0:0:0
344,188,52334,1,0,0:0:0
444,96,52507,6,0,B|404:88|392:76|376:48|376:48|344:48,1,112.5,0|0,0:0|0:0,0:0:0
220,92,52854,2,0,B|168:68|128:80|112:116|112:148|112:148|124:174|148:180|176:162,1,225,8|0,0:0|0:0,0:0:0
308,264,53374,1,0,0:0:0
140,276,53547,1,8,0:0:0
308,264,53721,1,0,0:0:0
144,228,53894,6,0,B|11:174,1,112.5,0|0,0:0|0:0,0:0:0
188,272,54241,2,0,B|241:404,1,112.5,8|0,0:0|0:0,0:0:0
204,208,54588,1,0,0:0:0
223,188,54675,1,0,0:0:0
243,168,54761,1,0,0:0:0
263,148,54848,1,0,0:0:0
283,129,54935,1,8,0:0:0
416,32,55108,6,0,B|404:68|436:116|436:116|384:172,2,112.5,0|0|0,0:0|0:0|0:0,0:0:0
240,100,55628,2,0,B|292:120|324:172,1,112.5,8|0,0:0|0:0,0:0:0
197,284,55975,1,0,0:0:0
197,284,56149,1,0,0:0:0
104,144,56322,1,8,0:0:0
104,144,56495,1,0,0:0:0
272,156,56669,6,0,B|335:164|367:211,1,112.5,4|0,0:0|0:0,0:0:0
232,108,57016,2,0,B|282:146|286:203,1,112.5,8|0,0:0|0:0,0:0:0
220,48,57362,2,0,B|244:106|219:157,1,112.5
220,266,57709,2,0,B|244:208|219:157,1,112.5,8|0,0:0|0:0,0:0:0
84,192,58056,6,0,B|112:191|129:214|137:256|112:299|61:299|61:299|21:286|29:238,2,225,0|8|0,0:0|0:0|0:0,0:0:0
168,84,58923,2,0,B|106:87|62:51,2,112.5,0|8|0,0:0|0:0|0:0,0:0:0
84,192,59443,2,0,B|146:195|190:159,1,112.5
344,92,59790,2,0,B|376:16|458:40|484:124|406:154,1,225,8|0,0:0|0:0,0:0:0
338,309,60310,2,0,B|298:335|234:302|202:240|228:200,1,196.875,8|0,0:0|0:0,0:0:0
396,187,60831,5,12,0:0:0
338,309,61004,1,8,0:0:0
338,309,61091,1,8,0:0:0
338,309,61177,1,8,0:0:0
204,288,61351,5,12,0:0:0
204,272,61438,1,8,0:0:0
204,256,61524,1,8,0:0:0
204,240,61611,1,8,0:0:0
204,224,61698,1,8,0:0:0
204,208,61784,1,8,0:0:0
184,192,61871,5,12,0:0:0
184,176,61958,1,8,0:0:0
184,160,62045,1,8,0:0:0
184,144,62131,1,8,0:0:0
184,128,62218,1,8,0:0:0
184,112,62305,1,8,0:0:0
164,96,62391,5,12,0:0:0
164,80,62478,1,8,0:0:0
164,64,62565,1,8,0:0:0
432,56,62912,5,4,0:0:0
80,328,63258,5,0,0:0:0
256,192,63605,5,4,0:0:0
256,160,67767,5,8,0:0:0
256,160,67854,1,8,0:0:0
256,160,67941,1,8,0:0:0
256,160,68027,1,8,0:0:0
256,160,68114,1,8,0:0:0
364,248,68287,5,8,0:0:0
364,248,68374,1,8,0:0:0
364,248,68461,1,8,0:0:0
364,248,68547,1,8,0:0:0
364,248,68634,1,8,0:0:0
148,248,68808,5,8,0:0:0
148,248,68894,1,8,0:0:0
148,248,68981,1,8,0:0:0
148,248,69068,1,8,0:0:0
148,248,69154,6,0,B|140:208|112:188|112:188|132:140,1,90,4|0,0:0|0:0,0:0:0
188,56,69501,2,0,B|196:96|224:116|224:116|204:164,1,90,8|0,0:0|0:0,0:0:0
336,200,69848,2,0,B|328:160|300:140|300:140|320:92,1,90,0|0,0:0|0:0,0:0:0
376,8,70195,2,0,B|384:48|412:68|412:68|392:116,1,90,8|0,0:0|0:0,0:0:0
452,212,70542,5,0,0:0:0
404,340,70715,1,0,0:0:0
272,356,70888,1,8,0:0:0
188,236,71062,2,0,B|199:200|199:200|252:272|328:264,1,180,0|0,0:0|0:0,0:0:0
332,128,71582,1,8,0:0:0
332,128,71756,6,0,B|304:92|304:92|220:116|184:40,1,180,0|0,0:0|0:0,0:0:0
60,96,72276,1,8,0:0:0
112,220,72449,1,0,0:0:0
228,148,72623,1,0,0:0:0
184,276,72796,1,0,0:0:0
132,152,72969,1,8,0:0:0
16,224,73143,1,0,0:0:0
64,352,73316,6,0,B|40:300|124:328|88:256,2,90,0|0|8,0:0|0:0|0:0,0:0:0
184,276,73836,2,0,B|232:268|232:268|220:324|272:360|272:360|332:364,1,180,0|0,0:0|0:0,0:0:0
295,361,74357,1,8,0:0:0
403,279,74530,6,0,B|454:238|416:203|416:203|456:163|404:131,1,180,0|0,0:0|0:0,0:0:0
288,56,75050,2,0,B|240:144,1,90,8|0,0:0|0:0,0:0:0
104,244,75397,2,0,B|152:156,1,90,0|0,0:0|0:0,0:0:0
268,300,75744,2,0,B|220:212,1,90,8|0,0:0|0:0,0:0:0
328,136,76091,5,0,0:0:0
276,44,76264,1,0,0:0:0
384,44,76438,1,8,0:0:0
424,136,76611,2,0,B|426:177|402:233|338:288,1,180,0|0,0:0|0:0,0:0:0
216,232,77131,1,8,0:0:0
338,288,77305,6,0,B|334:328|298:360|218:340|218:340|204:365,1,180,0|0,0:0|0:0,0:0:0
216,232,77825,2,0,B|276:216|304:268,1,90,8|0,0:0|0:0,0:0:0
136,172,78172,2,0,B|196:156|224:208,1,90,0|0,0:0|0:0,0:0:0
56,112,78519,2,0,B|116:96|144:148,1,90,8|0,0:0|0:0,0:0:0
480,340,79212,5,8,0:0:0
432,168,79386,1,0,0:0:0
48,164,79906,5,8,0:0:0
48,164,79993,1,8,0:0:0
48,164,80079,1,8,0:0:0
240,148,80253,5,4,0:0:0
248,128,80339,1,0,0:0:0
252,104,80426,1,0,0:0:0
248,84,80513,1,0,0:0:0
228,76,80599,1,8,0:0:0
204,72,80686,1,0,0:0:0
180,68,80773,1,0,0:0:0
156,64,80860,1,0,0:0:0
133,60,80946,6,0,B|81:32,3,45,0|0|0|0,0:0|0:0|0:0|0:0,0:0:0
53,60,81293,2,0,B|13:38,3,45,8|0|0|0,0:0|0:0|0:0|0:0,0:0:0
45,81,81640,5,0,0:0:0
33,101,81727,1,0,0:0:0
29,125,81813,1,0,0:0:0
37,145,81900,1,0,0:0:0
45,165,81987,1,8,0:0:0
49,185,82073,1,0,0:0:0
49,209,82160,1,0,0:0:0
45,229,82247,1,0,0:0:0
47,251,82334,6,0,B|68:288|128:300,1,90,0|8,0:0|0:0,0:0:0
216,320,82680,1,8,0:0:0
404,264,83027,5,0,0:0:0
400,260,83114,1,0,0:0:0
396,256,83201,1,0,0:0:0
392,252,83287,1,0,0:0:0
388,248,83374,1,0,0:0:0
384,244,83461,1,0,0:0:0
380,240,83547,1,0,0:0:0
376,236,83634,1,0,0:0:0
344,239,83721,5,0,0:0:0
340,235,83808,1,0,0:0:0
336,231,83894,1,0,0:0:0
332,227,83981,1,0,0:0:0
328,223,84068,1,0,0:0:0
324,219,84154,1,0,0:0:0
320,215,84241,1,0,0:0:0
316,211,84328,1,0,0:0:0
328,176,84414,6,0,B|292:136,7,45,0|0|0|0|0|0|0|0,0:0|0:0|0:0|0:0|0:0|0:0|0:0|0:0,0:0:0
256,160,85108,6,0,B|219:124,7,45,0|0|0|0|0|0|0|0,0:0|0:0|0:0|0:0|0:0|0:0|0:0|0:0,0:0:0
208,220,85802,6,0,B|160:172,3,45,4|0|0|0,0:0|0:0|0:0|0:0,0:0:0
80,203,86149,2,0,B|92:160,3,45,8|0|0|0,0:0|0:0|0:0|0:0,0:0:0
132,80,86495,6,0,B|64:48,3,45,0|0|0|0,0:0|0:0|0:0|0:0,0:0:0
16,112,86842,2,0,B|58:96,3,45,8|0|0|0,0:0|0:0|0:0|0:0,0:0:0
16,134,87189,5,0,0:0:0
28,154,87276,1,0,0:0:0
24,178,87362,1,0,0:0:0
32,198,87449,1,0,0:0:0
28,218,87536,1,8,0:0:0
36,238,87623,1,0,0:0:0
28,258,87709,1,0,0:0:0
36,278,87796,1,0,0:0:0
30,299,87883,5,0,0:0:0
162,323,88056,1,0,0:0:0
192,164,88230,1,8,0:0:0
290,255,88403,1,0,0:0:0
256,124,88576,5,0,0:0:0
388,88,88750,1,8,0:0:0
472,191,88923,2,0,B|490:139,2,45,0|8|0,0:0|0:0|0:0,0:0:0
344,237,89270,2,0,B|325:289,4,45,8|0|0|0|0,0:0|0:0|0:0|0:0|0:0,0:0:0
344,237,89790,1,8,0:0:0
464,216,89964,5,0,0:0:0
440,240,90050,1,8,0:0:0
412,255,90137,1,8,0:0:0
384,264,90224,1,8,0:0:0
354,272,90310,1,8,0:0:0
322,269,90397,1,8,0:0:0
292,258,90484,1,8,0:0:0
262,247,90571,1,8,0:0:0
235,231,90657,1,8,0:0:0
181,325,90831,5,8,0:0:0
149,325,90917,1,8,0:0:0
119,313,91004,1,8,0:0:0
89,301,91091,1,8,0:0:0
67,278,91177,1,8,0:0:0
49,252,91264,1,8,0:0:0
37,214,91351,6,0,B|9:158|37:106,1,112.5,4|0,0:0|0:0,0:0:0
212,80,91698,1,8,0:0:0
309,173,91871,1,0,0:0:0
435,125,92045,2,0,B|463:177|435:233,1,112.5,0|0,0:0|0:0,0:0:0
305,259,92391,2,0,B|323:201|380:181,1,112.5,8|0,0:0|0:0,0:0:0
328,56,92738,5,0,0:0:0
340,168,92912,1,0,0:0:0
244,108,93085,1,8,0:0:0
160,216,93258,1,0,0:0:0
292,180,93432,1,0,0:0:0
148,172,93605,2,0,B|124:135|100:164|75:191|48:172,2,112.5,0|8|0,0:0|0:0|0:0,0:0:0
232,316,94125,6,0,B|252:352|280:368|312:364|312:364|348:316,1,112.5,0|0,0:0|0:0,0:0:0
384,208,94472,2,0,B|391:197|391:197|423:193|451:209|471:245,1,112.5,8|0,0:0|0:0,0:0:0
472,132,94819,1,0,0:0:0
388,56,94993,1,0,0:0:0
236,132,95166,1,8,0:0:0
404,132,95339,1,0,0:0:0
316,280,95513,6,0,B|316:128,1,112.5,0|0,0:0|0:0,0:0:0
132,40,95860,2,0,B|132:152,1,112.5,8|0,0:0|0:0,0:0:0
130,287,96206,1,0,0:0:0
130,287,96380,1,0,0:0:0
261,317,96553,1,8,0:0:0
261,317,96727,1,0,0:0:0
328,200,96900,5,4,0:0:0
400,268,97073,1,0,0:0:0
412,132,97247,1,8,0:0:0
316,336,97420,1,0,0:0:0
328,200,97594,2,0,B|288:184|260:152|256:120,1,112.5,0|0,0:0|0:0,0:0:0
184,200,97941,2,0,B|224:184|252:152|256:120,1,112.5,8|0,0:0|0:0,0:0:0
80,56,98287,5,0,0:0:0
488,248,98634,1,8,0:0:0
40,268,98981,1,0,0:0:0
472,136,99328,1,0,0:0:0
248,100,99675,6,0,B|275:95|315:147|314:180,1,112.5,0|0,0:0|0:0,0:0:0
376,336,100021,1,8,0:0:0
376,336,100195,2,0,B|349:341|309:289|309:255,1,112.5,0|0,0:0|0:0,0:0:0
388,106,100542,1,8,0:0:0
248,100,100715,1,0,0:0:0
310,255,100888,1,8,0:0:0
208,312,101062,5,12,0:0:0
208,284,101149,1,8,0:0:0
208,256,101235,1,8,0:0:0
208,228,101322,1,8,0:0:0
208,200,101409,1,0,0:0:0
44,240,101582,5,12,0:0:0
44,212,101669,1,8,0:0:0
44,184,101756,1,8,0:0:0
44,156,101842,1,8,0:0:0
44,128,101929,1,0,0:0:0
124,276,102102,5,12,0:0:0
124,276,102189,1,8,0:0:0
124,276,102276,1,8,0:0:0
124,164,102449,5,4,0:0:0
240,40,102623,1,0,0:0:0
380,136,102796,1,8,0:0:0
212,164,102969,1,0,0:0:0
340,52,103143,1,0,0:0:0
312,220,103316,6,0,B|312:168|280:136|280:136|256:120,2,112.5,0|8|0,0:0|0:0|0:0,0:0:0
200,220,103836,1,0,0:0:0
120,140,104010,1,0,0:0:0
120,344,104183,1,8,0:0:0
44,260,104357,1,0,0:0:0
28,148,104530,2,0,B|46:90|103:70,1,112.5,0|0,0:0|0:0,0:0:0
124,180,104877,2,0,B|152:232|124:288,1,112.5,8|0,0:0|0:0,0:0:0
208,224,105224,6,0,B|216:180|216:180|224:164|224:164|240:96,1,112.5,0|0,0:0|0:0,0:0:0
340,68,105571,2,0,B|332:112|332:112|324:128|324:128|312:176,1,112.5,0|0,0:0|0:0,0:0:0
416,216,105917,1,0,0:0:0
396,236,106004,1,0,0:0:0
372,252,106091,1,0,0:0:0
344,260,106177,1,0,0:0:0
316,264,106264,1,8,0:0:0
208,232,106438,5,0,0:0:0
208,232,106611,2,0,B|232:200|268:212|268:212|304:248|292:296|256:320|228:324|192:292,2,225,0|8|0,0:0|0:0|0:0,0:0:0
73,214,107478,1,0,0:0:0
102,82,107651,1,8,0:0:0
208,165,107825,1,0,0:0:0
188,32,107998,5,4,0:0:0
508,144,108345,1,8,0:0:0
68,240,108692,1,0,0:0:0
388,348,109039,1,8,0:0:0
136,232,109386,6,0,B|179:166|236:208|296:252|340:173,1,225,0|8,0:0|0:0,0:0:0
99,48,110079,2,0,B|139:88|199:92,1,112.5
316,23,110426,2,0,B|276:63|272:123,1,112.5,8|0,0:0|0:0,0:0:0
370,218,110773,6,0,B|430:214|430:214|446:250|446:298|418:334|370:350,1,225,0|8,0:0|0:0,0:0:0
244,312,111293,1,0,0:0:0
316,156,111467,1,0,0:0:0
124,100,111640,1,0,0:0:0
268,12,111813,1,8,0:0:0
192,200,111987,1,0,0:0:0
332,296,112160,6,0,B|404:264|336:144|428:88,1,225,4|0,0:0|0:0,0:0:0
176,132,112680,2,0,B|168:64|144:24|144:24|100:40|16:88,1,225,4|0,0:0|0:0,0:0:0
80,300,113201,2,0,B|72:220|80:156|160:84|264:64|344:92|420:184,1,450,4|0,0:0|0:0,0:0:0
256,260,114068,5,8,0:0:0
356,208,114241,1,8,0:0:0
256,152,114414,1,8,0:0:0
156,208,114588,1,8,0:0:0
156,320,114761,1,8,0:0:0
256,372,114935,1,12,0:0:0
80,80,124646,5,4,0:0:0
162,115,124819,1,8,0:0:0
182,123,124906,1,8,0:0:0
202,131,124993,1,8,0:0:0
222,139,125079,1,8,0:0:0
242,147,125166,1,8,0:0:0
326,178,125339,5,4,0:0:0
244,212,125513,1,8,0:0:0
222,219,125599,1,8,0:0:0
201,226,125686,1,8,0:0:0
179,234,125773,1,8,0:0:0
158,241,125860,1,8,0:0:0
72,264,126033,6,0,B|88:320|110:333|144:348,1,112.5,0|0,0:0|0:0,0:0:0
304,296,126380,2,0,B|262:251|266:193,1,112.5,8|0,0:0|0:0,0:0:0
128,104,126727,1,0,0:0:0
20,132,126900,1,0,0:0:0
124,180,127073,1,8,0:0:0
208,108,127247,1,0,0:0:0
320,96,127420,5,0,0:0:0
320,96,127507,1,0,0:0:0
320,96,127594,1,0,0:0:0
424,132,127767,1,8,0:0:0
372,232,127941,1,0,0:0:0
292,152,128114,1,0,0:0:0
324,260,128287,1,0,0:0:0
216,228,128461,1,8,0:0:0
80,232,128634,5,0,0:0:0
72,216,128721,1,0,0:0:0
64,200,128808,2,0,B|16:84,1,112.5,0|0,0:0|0:0,0:0:0
188,124,129154,2,0,B|231:227,1,112.5,8|0,0:0|0:0,0:0:0
128,364,129501,2,0,B|138:252,1,112.5,0|0,0:0|0:0,0:0:0
243,116,129848,2,0,B|232:228,1,112.5,8|0,0:0|0:0,0:0:0
350,293,130195,5,0,0:0:0
449,342,130368,1,0,0:0:0
384,187,130542,1,8,0:0:0
482,236,130715,1,0,0:0:0
350,293,130888,1,0,0:0:0
210,285,131062,5,12,0:0:0
210,285,131235,1,12,0:0:0
48,52,131582,5,0,0:0:0
76,160,131756,1,0,0:0:0
164,92,131929,1,8,0:0:0
216,216,132102,1,0,0:0:0
288,112,132276,1,0,0:0:0
164,92,132449,1,0,0:0:0
96,198,132623,1,8,0:0:0
96,198,132796,1,0,0:0:0
164,92,132969,5,0,0:0:0
316,116,133143,1,0,0:0:0
224,180,133316,1,8,0:0:0
316,244,133490,1,0,0:0:0
232,140,133663,1,0,0:0:0
172,260,133836,1,0,0:0:0
308,268,134010,1,8,0:0:0
308,268,134183,1,0,0:0:0
408,176,134357,5,8,0:0:0
408,176,134530,1,8,0:0:0
308,268,134704,1,8,0:0:0
308,268,134877,1,8,0:0:0
184,320,135050,1,8,0:0:0
184,320,135224,1,8,0:0:0
52,352,135397,1,8,0:0:0
52,352,135571,1,8,0:0:0
44,216,135744,5,8,0:0:0
56,104,135917,1,8,0:0:0
132,228,136091,5,8,0:0:0
160,80,136264,1,8,0:0:0
228,248,136438,5,8,0:0:0
300,84,136611,1,8,0:0:0
332,280,136784,5,8,0:0:0
468,128,136958,1,8,0:0:0
433,286,137131,6,0,B|404:368|360:368|316:360,1,135.000005149842,0|2,0:0|0:0,0:0:0
216,304,137825,1,0,0:0:0
132,196,138172,1,2,0:0:0
260,148,138519,6,0,B|196:104|196:32,1,135.000005149842,0|2,0:0|0:0,0:0:0
332,48,139212,1,0,0:0:0
384,172,139559,1,2,0:0:0
236,148,139906,5,0,0:0:0
119,333,140253,1,2,0:0:0
327,245,140599,1,0,0:0:0
110,199,140946,1,2,0:0:0
248,364,141293,2,0,B|320:346|340:274,1,135.000005149842,0|2,0:0|0:0,0:0:0
68,256,141987,2,0,B|40:188|89:127,1,135.000005149842,0|2,0:0|0:0,0:0:0
200,204,142680,6,0,B|278:201|295:125,1,135.000005149842,0|2,0:0|0:0,0:0:0
86,67,143374,2,0,B|59:155|122:184,1,135.000005149842,0|2,0:0|0:0,0:0:0
324,257,144068,5,0,0:0:0
441,72,144414,1,2,0:0:0
233,160,144761,1,0,0:0:0
450,206,145108,1,2,0:0:0
312,41,145455,1,4,0:0:0
76,40,146149,5,0,0:0:0
126,164,146322,1,8,0:0:0
126,164,146409,1,8,0:0:0
126,164,146495,1,8,0:0:0
126,164,146582,1,8,0:0:0
126,164,146669,1,0,0:0:0
24,252,146842,6,0,B|80:320|80:320|180:360,1,180,4|0,0:0|0:0,0:0:0
332,320,147362,6,0,B|248:232|248:232|219:125,1,225,4|0,0:0|0:0,0:0:0
448,76,147883,6,0,B|448:252,1,135.000005149842,4|0,0:0|0:0,0:0:0
332,233,148230,5,4,0:0:0
210,175,148403,1,0,0:0:0
315,91,148576,1,8,0:0:0
180,74,148750,1,0,0:0:0
60,136,148923,2,0,B|64:196|112:235,1,112.5,0|0,0:0|0:0,0:0:0
52,72,149270,2,0,B|12:117|19:179,1,112.5,8|0,0:0|0:0,0:0:0
118,312,149617,5,0,0:0:0
248,280,149790,1,0,0:0:0
312,124,149964,1,8,0:0:0
192,188,150137,1,0,0:0:0
356,224,150310,2,0,B|352:284|304:323,1,112.5,0|0,0:0|0:0,0:0:0
364,160,150657,2,0,B|404:205|397:267,1,112.5,8|0,0:0|0:0,0:0:0
356,99,151004,5,0,0:0:0
316,228,151177,1,0,0:0:0
190,275,151351,1,8,0:0:0
91,182,151524,2,0,B|111:122|156:92,1,112.5,0|0,0:0|0:0,0:0:0
287,120,151871,1,0,0:0:0
195,220,152045,2,0,B|213:280|196:334,1,112.5,8|0,0:0|0:0,0:0:0
316,328,152391,5,0,0:0:0
344,220,152565,1,0,0:0:0
478,218,152738,2,0,B|433:248|413:308,1,112.5,8|0,0:0|0:0,0:0:0
352,88,153085,1,0,0:0:0
384,196,153258,1,0,0:0:0
292,136,153432,1,8,0:0:0
192,84,153605,1,0,0:0:0
80,60,153779,5,4,0:0:0
464,296,154125,1,8,0:0:0
108,20,154472,1,0,0:0:0
436,328,154819,1,8,0:0:0
256,96,155166,5,0,0:0:0
172,163,155339,1,0,0:0:0
147,48,155513,1,8,0:0:0
281,208,155686,1,0,0:0:0
256,96,155860,1,0,0:0:0
339,163,156033,1,0,0:0:0
364,47,156206,1,8,0:0:0
230,207,156380,1,0,0:0:0
424,260,156553,6,0,B|384:276|384:276|356:304|356:304|312:324,1,112.5,0|0,0:0|0:0,0:0:0
88,260,156900,2,0,B|128:276|128:276|156:304|156:304|200:324,1,112.5,8|0,0:0|0:0,0:0:0
256,96,157247,5,0,0:0:0
256,320,157420,1,8,0:0:0
256,292,157507,1,8,0:0:0
256,264,157594,1,8,0:0:0
256,236,157680,1,8,0:0:0
256,208,157767,1,0,0:0:0
366,185,157941,5,12,0:0:0
390,173,158027,1,8,0:0:0
414,157,158114,1,8,0:0:0
434,137,158201,1,8,0:0:0
438,109,158287,1,8,0:0:0
442,81,158374,1,8,0:0:0
442,53,158461,5,12,0:0:0
422,33,158547,1,8,0:0:0
394,25,158634,1,8,0:0:0
366,25,158721,1,8,0:0:0
338,25,158808,1,8,0:0:0
310,25,158894,1,8,0:0:0
282,25,158981,5,12,0:0:0
248,25,159068,1,8,0:0:0
220,25,159154,1,8,0:0:0
256,192,159328,12,8,161062,0:0:0
400,208,161409,6,0,B|373:258|373:258|322:293,1,112.5
184,289,161756,2,0,B|139:258|139:258|112:208,1,112.5,8|0,0:0|0:0,0:0:0
97,73,162102,6,0,B|129:125|217:137,1,112.5,0|0,0:0|0:0,0:0:0
280,340,162449,2,0,B|316:260|292:196,1,112.5,8|0,0:0|0:0,0:0:0
432,220,162796,2,0,B|400:168|408:80,1,112.5,0|0,0:0|0:0,0:0:0
180,104,163143,2,0,B|124:132|88:196,1,112.5,8|0,0:0|0:0,0:0:0
36,252,163490,5,0,0:0:0
52,292,163576,1,0,0:0:0
76,332,163663,1,0,0:0:0
120,316,163750,1,0,0:0:0
160,296,163836,1,8,0:0:0
120,216,164010,1,0,0:0:0
252,319,164183,5,0,0:0:0
252,319,164270,1,0,0:0:0
252,319,164357,1,0,0:0:0
252,319,164443,1,0,0:0:0
252,320,164530,2,0,B|203:291,3,56.25,8|0|0|0,0:0|0:0|0:0|0:0,0:0:0
288,336,164877,6,8,B|281:368|321:381|321:381|372:381|397:338|389:296|372:273|344:274,2,225,4|8|0,0:0|0:0|0:0,0:0:0
120,311,165744,1,0,0:0:0
308,188,165917,1,8,0:0:0
82,188,166091,1,0,0:0:0
92,76,166264,5,0,0:0:0
120,48,166351,1,0,0:0:0
156,28,166438,1,0,0:0:0
192,44,166524,1,0,0:0:0
228,60,166611,1,8,0:0:0
264,80,166698,1,0,0:0:0
296,56,166784,1,0,0:0:0
328,36,166871,1,0,0:0:0
360,60,166958,2,0,B|356:144,3,56.25,0|0|0|0,0:0|0:0|0:0|0:0,0:0:0
420,144,167305,2,0,B|376:224,3,56.25,8|0|0|0,0:0|0:0|0:0|0:0,0:0:0
356,248,167651,6,0,B|304:183|228:163|152:179,1,225,4|8,0:0|0:0,0:0:0
44,292,168172,2,0,B|101:240|177:219|289:261,1,225,4|0,0:0|0:0,0:0:0
256,136,168692,1,12,0:0:0
256,136,168865,1,0,0:0:0
371,156,169039,5,12,0:0:0
331,286,169212,1,8,0:0:0
300,304,169299,1,8,0:0:0
264,312,169386,1,8,0:0:0
228,309,169472,1,8,0:0:0
195,296,169559,5,12,0:0:0
167,273,169646,1,8,0:0:0
146,244,169732,1,8,0:0:0
136,209,169819,1,8,0:0:0
136,173,169906,1,8,0:0:0
146,139,169993,1,8,0:0:0
167,109,170079,5,12,0:0:0
195,87,170166,1,8,0:0:0
228,73,170253,1,8,0:0:0
264,71,170339,1,8,0:0:0
300,79,170426,1,8,0:0:0
331,96,170513,1,8,0:0:0
355,123,170599,5,12,0:0:0
371,156,170686,1,8,0:0:0
376,192,170773,1,8,0:0:0
256,188,171120,5,12,0:0:0
256,344,171467,5,0,0:0:0
44,300,171813,6,0,B|88:316|132:300,1,90,8|0,0:0|0:0,0:0:0
128,192,172160,2,0,B|151:232|195:248,1,90,8|0,0:0|0:0,0:0:0
264,164,172507,2,0,B|264:210|294:246,1,90,8|0,0:0|0:0,0:0:0
396,280,172854,2,0,B|419:239|411:193,1,90,8|0,0:0|0:0,0:0:0
452,92,173201,6,0,B|408:76|364:92,1,90,8|0,0:0|0:0,0:0:0
368,200,173548,2,0,B|344:159|300:143,1,90,8|0,0:0|0:0,0:0:0
232,228,173895,2,0,B|231:181|201:145,1,90,8|0,0:0|0:0,0:0:0
100,112,174242,2,0,B|76:152|84:198,1,90,8|0,0:0|0:0,0:0:0
40,296,174588,6,0,B|84:312|128:296,1,90,8|0,0:0|0:0,0:0:0
161,164,174935,2,0,B|161:210|191:246,1,90,8|0,0:0|0:0,0:0:0
302,324,175282,2,0,B|329:285|325:239,1,90,8|0,0:0|0:0,0:0:0
424,148,175628,2,0,B|385:121|373:75,1,90,8|0,0:0|0:0,2:0:0
256,8,175975,5,8,0:0:0
256,32,176062,1,8,0:0:0
256,56,176149,1,8,0:0:0
256,80,176235,1,8,0:0:0
256,104,176322,1,8,0:0:0
256,128,176409,1,8,0:0:0
256,152,176495,1,8,0:0:0
256,176,176582,1,8,0:0:0
256,200,176669,5,8,0:0:0
256,224,176756,1,8,0:0:0
256,248,176842,1,8,0:0:0
256,272,176929,1,8,0:0:0
256,296,177016,1,8,0:0:0
256,320,177102,1,8,0:0:0
256,348,177189,6,8,B|256:400,1,45,8|8,0:0|0:0,0:0:0
