osu file format v13

[General]
AudioFilename: UPLIFT SPICE-01 - .mp3
AudioLeadIn: 1000
PreviewTime: 39499
Countdown: 0
SampleSet: Soft
StackLeniency: 0.7
Mode: 0
LetterboxInBreaks: 1
WidescreenStoryboard: 0

[Editor]
Bookmarks: 24066
DistanceSpacing: 1
BeatDivisor: 4
GridSize: 4
TimelineZoom: 1

[Metadata]
Title:Omega Rhythm
TitleUnicode:オメガリズム
Artist:UPLIFT SPICE
ArtistUnicode:UPLIFT SPICE
Creator:Jemmmmy
Version:Normal
Source:
Tags:lightr Dynamord Label 2009 千織 YOOKEY tovita Kenji
BeatmapID:366143
BeatmapSetID:147962

[Difficulty]
HPDrainRate:4
CircleSize:3
OverallDifficulty:4
ApproachRate:5
SliderMultiplier:1
SliderTickRate:2

[Events]
//Background and Video events
0,0,"fireflies.jpg",0,0
//Break Periods
2,63841,67813
2,115629,119143
2,137366,144807
//Storyboard Layer 0 (Background)
//Storyboard Layer 1 (Fail)
//Storyboard Layer 2 (Pass)
//Storyboard Layer 3 (Foreground)
//Storyboard Sound Samples
//Background Colour Transformations
3,100,163,162,255

[TimingPoints]
1214,346.820809248555,4,2,5,60,1,0
40057,-100,4,1,5,60,0,1
63641,-100,4,1,5,60,0,0
66416,-100,4,2,5,60,0,0
91387,-100,4,1,5,60,0,1
114971,-100,4,1,5,60,0,0
119133,-100,4,2,5,60,0,0
148266,-100,4,1,5,60,0,1
171849,-100,4,2,5,60,0,0

[Colours]
Combo1 : 112,135,137
Combo2 : 10,205,216
Combo3 : 248,236,22
Combo4 : 22,4,244

[HitObjects]
80,64,1214,6,0,P|132:72|192:64,1,100,4|0,3:0|3:0,0:0:0:0:
272,28,1907,1,0,3:0:0:0:
372,20,2254,1,0,3:0:0:0:
460,68,2601,2,0,P|436:96|360:124,1,100,0|0,3:0|3:0,0:0:0:0:
280,132,3294,2,0,P|308:192|344:216,1,100,0|0,3:0|3:0,0:0:0:0:
436,216,3988,5,4,3:0:0:0:
448,316,4335,1,0,3:0:0:0:
448,316,4682,2,0,P|384:312|332:328,1,100,0|0,3:0|3:0,0:0:0:0:
256,352,5375,2,0,P|168:344|68:272,1,200,0|0,3:0|3:0,0:0:0:0:
52,184,6416,1,0,3:0:0:0:
120,112,6763,5,4,3:0:0:0:
216,136,7109,2,0,P|264:144|332:128,2,100,0|0|0,3:0|3:0|3:0,0:0:0:0:
268,52,8150,2,0,P|360:44|464:104,1,200,0|0,3:0|3:0,0:0:0:0:
492,184,9190,1,0,3:0:0:0:
448,273,9537,6,0,P|408:233|396:185,1,100,4|0,3:0|3:0,0:0:0:0:
309,142,10231,2,0,P|298:190|310:239,1,100,0|0,3:0|3:0,0:0:0:0:
368,319,10924,1,0,3:0:0:0:
368,319,11271,1,0,3:0:0:0:
278,364,11618,2,0,L|176:384,1,100,0|0,3:0|0:0,0:0:0:0:
97,331,12312,6,0,P|124:294|137:220,1,100,4|0,3:0|3:0,0:0:0:0:
242,244,13005,2,0,P|235:198|192:137,1,100,0|0,3:0|3:0,0:0:0:0:
284,84,13699,2,0,P|247:56|173:43,2,100,0|0|0,3:0|3:0|3:0,0:0:0:0:
336,168,14740,1,0,3:0:0:0:
380,256,15086,6,0,P|400:304|456:340,1,100,4|0,3:0|3:0,0:0:0:0:
480,240,15780,1,0,3:0:0:0:
480,240,16127,1,4,2:0:0:0:
456,144,16474,6,0,L|444:88,1,50,4|4,3:0|3:0,0:0:0:0:
312,32,17167,2,0,L|324:88,1,50,4|4,3:0|3:0,0:0:0:0:
352,228,17861,6,0,P|300:164|184:128,1,200,4|0,0:0|0:0,0:0:0:0:
88,132,18901,1,8,0:0:0:0:
132,220,19248,2,0,P|156:272|156:328,2,100,0|8|0,0:0|0:0|0:0,0:0:0:0:
56,284,20289,1,8,0:0:0:0:
56,284,20635,6,0,P|164:276|256:320,1,200,0|0,0:0|0:0,0:0:0:0:
244,212,21676,1,8,0:0:0:0:
180,136,22023,2,0,P|152:88|152:24,1,100,0|8,0:0|0:0,0:0:0:0:
244,64,22716,2,0,P|296:68|352:44,1,100,0|8,0:0|0:0,0:0:0:0:
436,16,23410,6,0,L|460:136,1,100,0|8,0:0|0:0,0:0:0:0:
476,212,24104,2,0,L|500:332,1,100,0|8,0:0|0:0,0:0:0:0:
416,368,24797,1,0,0:0:0:0:
348,296,25144,1,8,0:0:0:0:
256,340,25491,1,0,0:0:0:0:
248,240,25838,1,8,0:0:0:0:
184,164,26185,6,0,P|136:136|88:128,1,100,0|8,0:0|0:0,0:0:0:0:
24,200,26878,2,0,P|52:248|89:279,1,100,0|8,0:0|0:0,0:0:0:0:
180,304,27572,1,0,0:0:0:0:
280,292,27919,2,0,P|332:288|396:312,1,100
473,273,28612,1,8,0:0:0:0:
392,212,28959,6,0,P|396:112|444:16,1,200,6|0,0:0|0:0,0:0:0:0:
310,176,30346,2,0,P|242:102|210:6,1,200,2|0,0:0|0:0,0:0:0:0:
222,209,31734,6,0,P|122:205|26:157,1,200,2|0,0:0|0:0,0:0:0:0:
10,117,32601,1,8,0:0:0:0:
28,70,32774,1,8,0:0:0:0:
120,108,33121,2,0,P|92:176|116:308,1,200,2|0,0:0|0:0,0:0:0:0:
140,340,33988,1,8,0:0:0:0:
184,368,34161,1,8,0:0:0:0:
210,271,34508,6,0,P|309:275|400:316,1,200,6|0,0:0|0:0,0:0:0:0:
297,150,35896,2,0,P|364:223|400:316,1,200,2|0,0:0|0:0,0:0:0:0:
444,126,37283,6,0,P|440:225|400:316,1,200,6|0,0:0|0:0,0:0:0:0:
304,344,38323,1,8,0:0:0:0:
204,332,38670,1,0,0:0:0:0:
204,332,38844,2,0,L|144:320,2,50,0|8|0,0:0|0:0|0:0,0:0:0:0:
64,132,40057,6,0,P|124:124|180:136,1,100,6|8,2:0|0:0,0:0:0:0:
256,164,40751,1,0,0:0:0:0:
300,76,41098,1,8,0:0:0:0:
356,160,41445,2,0,P|416:172|472:144,1,100,0|8,0:0|0:0,0:0:0:0:
480,64,42138,1,0,0:0:0:0:
388,24,42485,1,8,0:0:0:0:
300,76,42832,6,0,P|252:172|284:272,1,200,6|0,2:0|0:0,0:0:0:0:
340,336,43872,1,8,0:0:0:0:
240,340,44219,2,0,P|184:344|128:364,1,100,0|8,0:0|0:0,0:0:0:0:
60,300,44913,2,0,P|48:228|60:184,1,100,0|8,0:0|0:0,0:0:0:0:
148,252,45607,5,4,2:0:0:0:
248,244,45953,1,8,0:0:0:0:
340,284,46300,1,0,0:0:0:0:
388,372,46647,1,8,0:0:0:0:
448,292,46994,1,4,2:0:0:0:
456,192,47341,1,0,0:0:0:0:
448,92,47687,2,0,P|432:36|412:0,1,100,4|0,2:0|0:0,0:0:0:0:
316,16,48381,6,0,P|268:88|156:136,1,200,6|0,2:0|0:0,0:0:0:0:
72,108,49422,1,8,0:0:0:0:
32,200,49768,2,0,P|24:268|56:360,2,150,0|0|8,0:0|0:0|0:0,0:0:0:0:
72,108,51156,5,6,2:0:0:0:
172,116,51503,1,8,0:0:0:0:
272,104,51849,2,0,P|336:80|380:80,1,100,0|8,0:0|0:0,0:0:0:0:
468,92,52543,1,0,0:0:0:0:
440,188,52890,1,8,0:0:0:0:
364,252,53237,6,0,P|316:268|248:268,1,100,0|8,0:0|0:0,0:0:0:0:
168,252,53930,2,0,P|68:296|16:380,2,200,6|0|0,2:0|0:0|0:0,0:0:0:0:
252,308,55664,1,0,0:0:0:0:
356,316,56011,1,0,0:0:0:0:
344,216,56358,1,8,0:0:0:0:
288,132,56705,6,0,P|248:88|200:60,1,100,4|8,2:0|0:0,0:0:0:0:
192,164,57398,2,0,P|173:220|173:276,1,100,0|8,0:0|0:0,0:0:0:0:
268,232,58092,2,0,P|326:219|424:120,1,200,4|4,2:0|2:0,0:0:0:0:
340,304,59479,6,0,P|248:344|140:328,1,200,6|0,2:0|0:0,0:0:0:0:
72,272,60520,1,8,0:0:0:0:
164,232,60867,2,0,P|244:188|260:112,2,150,0|0|8,0:0|0:0|0:0,0:0:0:0:
160,132,62254,6,0,P|180:72|216:40,1,100,4|0,0:0|0:0,0:0:0:0:
300,16,62948,1,0,0:0:0:0:
352,100,63294,1,12,0:3:0:0:
404,16,63641,1,4,2:0:0:0:
115,345,69190,6,0,P|167:351|226:332,1,100,6|8,0:0|0:0,0:0:0:0:
308,312,69884,2,0,P|357:312|408:332,1,100,0|8,0:0|0:0,0:0:0:0:
492,372,70578,2,0,P|496:308|428:180,1,200
360,128,71618,1,8,0:0:0:0:
456,104,71965,6,0,P|440:184|332:228,1,200,2|0,0:0|0:0,0:0:0:0:
256,172,73005,1,8,0:0:0:0:
172,229,73352,2,0,P|82:196|56:104,1,200
156,124,74393,1,8,0:0:0:0:
256,116,74740,6,0,P|292:156|300:204,1,100,2|8,0:0|0:0,0:0:0:0:
348,192,75260,1,0,0:0:0:0:
400,200,75433,2,0,P|397:253|372:296,1,100,0|8,0:0|0:0,0:0:0:0:
292,352,76127,1,0,0:0:0:0:
224,280,76474,1,8,0:0:0:0:
152,352,76820,1,0,0:0:0:0:
80,280,77167,1,8,0:0:0:0:
51,184,77514,6,0,L|35:85,1,100,2|8,0:0|0:0,0:0:0:0:
57,40,78034,1,0,0:0:0:0:
105,27,78208,1,0,0:0:0:0:
163,112,78555,1,0,0:0:0:0:
241,50,78901,1,0,0:0:0:0:
330,95,79248,1,0,0:0:0:0:
396,24,79595,1,0,0:0:0:0:
496,24,79942,1,8,0:0:0:0:
464,116,80289,6,0,P|436:212|444:324,1,200,6|0,0:0|0:0,0:0:0:0:
368,124,81676,2,0,P|295:193|246:294,1,200,2|0,0:0|0:0,0:0:0:0:
284,84,83063,2,0,P|186:107|93:170,1,200,2|0,0:0|0:0,0:0:0:0:
44,244,84104,1,8,0:0:0:0:
144,256,84450,2,0,P|196:272|264:348,2,150,2|0|8,0:0|0:0|0:0,0:0:0:0:
116,352,85838,6,0,P|140:284|124:148,1,200,6|0,0:0|0:0,0:0:0:0:
284,284,87225,2,0,P|270:213|188:103,1,200,2|0,0:0|0:0,0:0:0:0:
396,136,88612,2,0,P|349:81|223:27,1,200,2|0,0:0|0:0,0:0:0:0:
134,26,89653,1,8,0:0:0:0:
54,80,90000,5,2,0:0:0:0:
148,116,90346,1,8,0:0:0:0:
204,196,90693,1,2,0:0:0:0:
224,292,91040,1,8,0:0:0:0:
224,292,91387,6,0,P|284:296|336:320,1,100,6|8,0:0|0:0,0:0:0:0:
412,348,92081,2,0,P|412:284|392:240,1,100,0|8,0:0|0:0,0:0:0:0:
344,168,92774,1,0,0:0:0:0:
260,116,93121,2,0,P|216:72|204:24,2,100,8|0|8,0:0|0:0|0:0,0:0:0:0:
304,28,94161,6,0,P|352:32|464:136,1,200,2|0,0:0|0:0,0:0:0:0:
384,192,95202,1,8,0:0:0:0:
461,255,95549,2,0,P|399:331|304:356,1,200
208,328,96589,1,8,0:0:0:0:
284,264,96936,6,0,P|320:232|344:168,1,100,4|8,2:0|0:0,0:0:0:0:
240,168,97630,2,0,P|244:120|220:56,1,100,0|8,0:0|0:0,0:0:0:0:
144,132,98323,1,4,2:0:0:0:
44,152,98670,1,8,0:0:0:0:
80,56,99017,1,0,0:0:0:0:
132,248,99711,6,0,P|140:304|132:360,2,100,6|8|0,2:0|0:0|0:0,0:0:0:0:
80,164,100751,1,8,0:0:0:0:
180,152,101098,2,0,P|252:172|312:224,2,150,0|0|8,0:0|0:0|0:0,0:0:0:0:
253,83,102485,6,0,P|353:63|428:4,1,200,6|0,2:0|0:0,0:0:0:0:
480,89,103526,1,8,0:0:0:0:
485,188,103872,1,0,0:0:0:0:
393,147,104219,1,8,0:0:0:0:
408,245,104566,2,0,P|408:294|372:353,1,100,0|8,0:0|0:0,0:0:0:0:
313,268,105260,6,0,P|271:282|233:324,1,100,6|8,2:0|0:0,0:0:0:0:
159,262,105953,2,0,P|136:301|136:360,1,100,0|8,0:0|0:0,3:0:0:0:
35,371,106647,2,0,P|43:263|99:187,1,200
186,154,107687,1,8,0:0:0:0:
279,117,108034,6,0,P|330:76|347:41,1,100,4|8,2:0|0:0,0:0:0:0:
434,1,108728,2,0,P|447:52|443:118,1,100,0|8,0:0|0:0,0:0:0:0:
382,176,109422,1,4,2:0:0:0:
396,274,109768,1,8,0:0:0:0:
464,347,110115,1,4,2:0:0:0:
268,360,110809,5,4,2:0:0:0:
168,348,111156,2,0,P|112:316|88:268,1,100,8|0,0:0|0:0,0:0:0:0:
104,188,111849,1,8,0:0:0:0:
204,188,112196,2,0,P|296:172|356:124,2,150,0|0|8,0:0|0:0|0:0,0:0:0:0:
204,188,113583,6,0,P|180:132|152:104,1,100,2|8,0:0|0:0,0:0:0:0:
56,76,114277,1,4,2:0:0:0:
68,176,114624,1,8,0:0:0:0:
28,268,114971,1,4,0:0:0:0:
368,368,120520,6,0,P|420:340|448:300,1,100,4|8,3:0|0:0,0:0:0:0:
356,264,121214,2,0,P|388:212|391:165,1,100,0|8,3:0|0:0,0:0:0:0:
292,184,121907,2,0,P|292:124|273:80,1,100,0|8,3:0|0:0,0:0:0:0:
195,142,122601,2,0,P|168:84|127:61,1,100,0|8,3:0|0:0,0:0:0:0:
92,156,123294,6,0,P|64:196|56:256,1,100,4|8,3:0|0:0,0:0:0:0:
156,228,123988,2,0,P|151:276|174:332,1,100,0|8,3:0|0:0,0:0:0:0:
248,264,124682,1,2,3:0:0:0:
344,292,125029,1,8,0:0:0:0:
320,196,125375,1,2,3:0:0:0:
416,220,125722,1,8,0:0:0:0:
388,124,126069,6,0,P|396:68|416:24,2,100,4|8|0,3:0|0:0|3:0,0:0:0:0:
320,196,127109,1,8,0:0:0:0:
232,148,127456,2,0,P|216:100|181:57,2,100,0|8|0,3:0|0:0|3:0,0:0:0:0:
200,244,128497,1,8,0:0:0:0:
168,340,128844,6,0,P|124:364|72:360,1,100,4|8,3:0|0:0,0:0:0:0:
108,264,129537,2,0,P|59:249|25:210,1,100,0|8,3:0|0:0,0:0:0:0:
116,164,130231,2,0,P|92:120|96:68,1,100,0|8,3:0|0:0,0:0:0:0:
192,100,130924,1,8,3:0:0:0:
212,200,131271,1,8,0:0:0:0:
296,144,131618,6,0,P|350:133|390:96,2,100,0|8|0,3:0|0:0|3:0,0:0:0:0:
304,43,132659,1,8,0:0:0:0:
400,19,133005,2,0,P|443:40|473:92,1,100,0|8,3:0|0:0,0:0:0:0:
460,182,133699,2,0,P|428:219|367:232,1,100,0|8,3:0|0:0,0:0:0:0:
280,228,134393,6,0,P|240:244|196:296,1,100,4|8,3:0|0:0,0:0:0:0:
132,356,135086,2,0,P|108:304|108:252,1,100,8|8,3:0|0:0,0:0:0:0:
132,164,135780,1,8,0:0:0:0:
204,96,136127,1,8,0:0:0:0:
308,96,136474,1,8,0:0:0:0:
380,164,136820,2,0,L|416:220,2,50,8|0|0,0:0|0:0|0:0,0:0:0:0:
88,324,146185,6,0,P|108:260|140:232,1,100,8|0,0:0|0:0,0:0:0:0:
188,320,146878,2,0,P|256:348|336:312,2,150,2|2|2,0:0|0:0|0:0,0:0:0:0:
256,248,148266,6,0,P|312:224|368:232,1,100,4|8,2:0|0:0,0:0:0:0:
440,272,148959,1,0,0:0:0:0:
504,192,149306,1,8,0:0:0:0:
496,92,149653,2,0,P|420:24|320:12,1,200
256,84,150693,1,8,0:0:0:0:
186,11,151040,6,0,P|88:25|16:92,1,200,6|0,2:0|0:0,0:0:0:0:
4,192,152081,1,8,0:0:0:0:
96,148,152427,2,0,P|152:136|200:152,1,100,0|8,0:0|0:0,0:0:0:0:
208,248,153121,2,0,P|264:224|288:180,1,100,0|8,0:0|0:0,0:0:0:0:
304,92,153815,5,4,2:0:0:0:
356,8,154161,1,8,0:0:0:0:
456,16,154508,1,0,0:0:0:0:
468,116,154855,1,8,0:0:0:0:
380,164,155202,6,0,P|328:252|348:344,1,200,4|4,2:0|2:0,0:0:0:0:
444,372,156242,1,8,0:0:0:0:
420,276,156589,2,0,P|332:256|225:307,1,200,6|0,2:0|0:0,0:0:0:0:
166,372,157630,1,8,0:0:0:0:
122,282,157977,6,0,P|66:214|2:190,2,150,0|0|8,0:0|0:0|0:0,0:0:0:0:
176,200,159364,6,0,P|148:144|152:92,1,100,4|8,2:0|0:0,0:0:0:0:
248,128,160057,2,0,P|251:65|281:22,1,100,0|8,0:0|0:0,0:0:0:0:
348,96,160751,2,0,P|400:88|456:104,1,100,0|8,0:0|0:0,0:0:0:0:
492,188,161445,2,0,P|440:196|384:180,1,100,0|8,0:0|0:0,0:0:0:0:
296,172,162138,6,0,P|308:220|344:260,1,100,6|8,2:0|0:0,0:0:0:0:
384,348,162832,2,0,P|328:352|272:324,1,100,0|8,0:0|0:0,0:0:0:0:
216,268,163526,2,0,P|184:220|128:188,1,100,0|8,0:0|0:0,0:0:0:0:
60,240,164219,2,0,P|92:288|148:320,1,100,0|8,0:0|0:0,0:0:0:0:
220,352,164913,5,6,2:0:0:0:
296,288,165260,1,8,0:0:0:0:
396,280,165607,1,2,0:0:0:0:
492,312,165953,1,8,0:0:0:0:
464,216,166300,6,0,P|420:116|348:56,1,200,4|0,2:0|0:0,0:0:0:0:
256,24,167341,1,8,0:0:0:0:
159,58,167687,2,0,P|85:124|48:216,1,200,4|0,2:0|0:0,0:0:0:0:
116,292,168728,1,8,0:0:0:0:
192,228,169075,6,0,P|268:244|332:296,2,150,2|0|8,0:0|0:0|0:0,0:0:0:0:
92,228,170462,2,0,P|32:208|4:172,1,100,0|8,0:0|0:0,0:0:0:0:
92,124,171156,1,2,0:0:0:0:
192,120,171503,1,8,0:0:0:0:
256,44,171849,6,0,L|360:44,1,100,4|0,3:0|3:0,0:0:0:0:
304,132,172543,2,0,L|404:132,1,100,0|0,3:0|3:0,3:0:0:0:
452,220,173237,2,0,L|352:220,1,100,0|0,3:0|3:0,0:0:0:0:
396,308,173930,2,0,L|296:308,1,100,0|0,3:0|3:0,0:0:0:0:
208,356,174624,6,0,L|168:252,1,100,4|0,3:0|3:0,0:0:0:0:
84,312,175318,2,0,L|44:208,1,100,0|0,3:0|3:0,0:0:0:0:
256,192,176011,12,8,177312,0:0:0:0:
