osu file format v13

[General]
AudioFilename: UPLIFT SPICE-01 - .mp3
AudioLeadIn: 1000
PreviewTime: 39499
Countdown: 0
SampleSet: Soft
StackLeniency: 0.7
Mode: 0
LetterboxInBreaks: 1
WidescreenStoryboard: 0

[Editor]
Bookmarks: 24066
DistanceSpacing: 1.4
BeatDivisor: 1
GridSize: 4
TimelineZoom: 1.6

[Metadata]
Title:Omega Rhythm
TitleUnicode:オメガリズム
Artist:UPLIFT SPICE
ArtistUnicode:UPLIFT SPICE
Creator:Jemmmmy
Version:Hard
Source:
Tags:lightr Dynamord Label 2009 千織 YOOKEY tovita Kenji
BeatmapID:534080
BeatmapSetID:147962

[Difficulty]
HPDrainRate:5
CircleSize:4
OverallDifficulty:6
ApproachRate:6.5
SliderMultiplier:1.3
SliderTickRate:2

[Events]
//Background and Video events
0,0,"fireflies.jpg",0,0
//Break Periods
2,63841,67813
2,115171,123304
2,137193,144807
//Storyboard Layer 0 (Background)
//Storyboard Layer 1 (Fail)
//Storyboard Layer 2 (Pass)
//Storyboard Layer 3 (Foreground)
//Storyboard Sound Samples
//Background Colour Transformations
3,100,163,162,255

[TimingPoints]
1214,346.820809248555,4,2,5,60,1,0
1214,-125,4,2,5,50,0,0
17861,-100,4,2,5,60,0,0
28959,-125,4,2,5,60,0,0
40057,-100,4,1,5,65,0,1
63641,-100,4,1,5,60,0,0
69190,-100,4,2,5,60,0,0
80289,-125,4,2,5,60,0,0
91387,-100,4,1,5,65,0,1
114971,-100,4,1,5,60,0,0
124682,-100,4,2,5,60,0,0
148266,-100,4,1,5,65,0,1
171849,-100,4,2,5,60,0,0

[Colours]
Combo1 : 112,135,137
Combo2 : 10,205,216
Combo3 : 248,236,22
Combo4 : 22,4,244

[HitObjects]
112,128,1214,6,0,L|104:60,1,52,2|0,0:3|0:0,0:0:0:0:
192,136,1560,2,0,L|219:73,1,52,2|0,0:3|0:0,0:0:0:0:
256,180,1907,2,0,L|310:139,1,52,2|0,0:3|0:0,0:0:0:0:
288,252,2254,2,0,L|356:244,1,52,2|0,0:3|0:0,0:0:0:0:
284,326,2601,5,2,0:3:0:0:
376,380,2948,1,2,0:3:0:0:
456,316,3294,1,2,0:3:0:0:
420,220,3641,1,2,0:3:0:0:
316,228,3988,6,0,L|304:160,1,52,2|0,0:3|0:0,0:0:0:0:
236,196,4335,2,0,L|224:128,1,52,2|0,0:3|0:0,0:0:0:0:
156,168,4682,2,0,L|144:100,1,52,2|0,0:3|0:0,0:0:0:0:
76,136,5029,2,0,L|64:68,1,52,2|0,0:3|0:0,0:0:0:0:
4,172,5375,5,2,0:3:0:0:
24,276,5722,1,2,0:3:0:0:
124,248,6069,1,2,0:3:0:0:
144,352,6416,1,2,0:3:0:0:
244,320,6763,6,0,P|308:312|368:332,1,104,2|2,0:3|0:3,0:0:0:0:
408,360,7283,1,0,0:0:0:0:
460,308,7456,2,0,P|480:268|484:248,1,52,2|0,0:3|0:0,0:0:0:0:
384,232,7803,2,0,P|384:200|392:164,1,52,2|0,0:3|0:0,0:0:0:0:
448,112,8150,5,2,0:3:0:0:
364,52,8497,1,2,0:3:0:0:
260,36,8844,1,2,0:3:0:0:
160,56,9190,1,2,0:3:0:0:
232,132,9537,6,0,P|252:184|252:244,1,104,2|2,0:3|0:3,0:0:0:0:
232,300,10057,1,0,0:0:0:0:
172,340,10231,2,0,L|104:356,1,52,2|0,0:3|0:0,0:0:0:0:
116,264,10578,2,0,L|48:280,1,52,2|0,0:3|0:0,0:0:0:0:
32,204,10924,6,0,P|12:172|8:144,2,52,2|0|2,0:3|0:0|0:3,0:0:0:0:
88,148,11445,1,0,0:0:0:0:
88,148,11618,2,0,L|144:136,1,52,2|0,0:3|0:0,0:0:0:0:
192,80,11965,2,0,L|248:68,1,52,2|0,0:3|0:0,0:0:0:0:
296,12,12312,6,0,L|420:12,1,104,2|2,0:3|0:3,0:0:0:0:
468,40,12832,1,0,0:0:0:0:
496,108,13005,2,0,P|508:152|508:180,1,52,2|0,0:3|0:0,0:0:0:0:
453,206,13352,2,0,P|453:242|461:278,1,52,2|0,0:3|0:0,0:0:0:0:
496,320,13699,5,2,0:3:0:0:
400,356,14046,1,2,0:3:0:0:
296,356,14393,1,2,0:3:0:0:
208,300,14740,1,2,0:3:0:0:
300,252,15086,6,0,P|312:200|304:132,1,104,2|2,0:3|0:3,0:0:0:0:
288,79,15607,1,0,0:0:0:0:
232,32,15780,2,0,L|161:21,1,52,2|0,0:3|0:0,0:0:0:0:
117,61,16127,1,6,2:0:0:0:
11,187,16474,6,0,L|24:136,1,52,4|4,3:0|3:0,0:0:0:0:
56,308,17167,2,0,L|40:368,1,52,4|4,3:0|3:0,0:0:0:0:
136,276,17514,2,0,L|180:328,1,52,8|8,0:0|0:0,0:0:0:0:
204,220,17861,6,0,L|340:208,1,130,4|8,2:0|0:0,0:0:0:0:
409,188,18381,1,0,0:0:0:0:
467,135,18555,2,0,L|486:66,1,65
408,54,18901,1,8,0:0:0:0:
332,36,19075,1,0,0:0:0:0:
256,16,19248,6,0,L|200:64,1,65,0|2,0:0|0:0,0:0:0:0:
128,68,19595,2,0,L|103:137,1,65,8|2,0:0|0:0,0:0:0:0:
40,172,19942,2,0,L|53:244,1,65,0|2,0:0|0:0,0:0:0:0:
12,304,20289,2,0,L|60:360,1,65,8|2,0:0|0:0,0:0:0:0:
128,320,20635,6,0,P|176:308|272:328,1,130,0|8,0:0|0:0,0:0:0:0:
324,356,21156,1,0,0:0:0:0:
400,368,21329,2,0,P|448:372|476:364,1,65
432,280,21676,2,0,P|468:248|482:223,1,65,8|0,0:0|0:0,0:0:0:0:
384,196,22023,5,0,0:0:0:0:
312,172,22196,1,2,0:0:0:0:
236,188,22370,1,8,0:0:0:0:
192,252,22543,2,0,L|192:328,1,65,2|0,0:0|0:0,0:0:0:0:
104,292,22890,2,0,L|104:368,1,65,2|8,0:0|0:0,0:0:0:0:
16,268,23237,6,0,P|4:212|8:136,1,130
36,68,23757,2,0,L|76:4,1,65,8|0,0:0|0:0,0:0:0:0:
136,72,24104,2,0,L|176:8,1,65,0|0,0:0|0:0,0:0:0:0:
228,72,24450,1,8,0:0:0:0:
308,68,24624,1,0,0:0:0:0:
384,68,24797,6,0,L|464:64,2,65,0|2|8,0:0|0:0|0:0,0:0:0:0:
344,136,25318,2,0,P|336:192|360:284,1,130,2|2,0:0|0:0,0:0:0:0:
424,308,25838,2,0,P|440:344|440:380,1,65,8|2,0:0|0:0,0:0:0:0:
324,368,26185,6,0,P|264:380|196:376,1,130,0|8,0:0|0:0,0:0:0:0:
124,344,26705,1,0,0:0:0:0:
72,288,26878,2,0,L|64:224,1,65
120,164,27225,2,0,L|112:100,1,65,8|0,0:0|0:0,0:0:0:0:
164,40,27572,1,0,0:0:0:0:
296,24,27919,6,0,L|380:12,1,65,8|0,0:0|0:0,0:0:0:0:
436,32,28266,1,8,0:3:0:0:
504,144,28612,2,0,L|508:232,1,65,8|8,0:0|0:0,0:0:0:0:
428,200,28959,6,0,L|404:312,1,104,12|8,0:0|0:0,0:0:0:0:
332,224,29653,2,0,L|308:336,1,104,0|8,0:0|0:0,0:0:0:0:
232,256,30346,2,0,L|208:368,1,104,0|8,0:0|0:0,0:0:0:0:
136,280,31040,2,0,L|112:392,1,104,0|8,0:0|0:0,0:0:0:0:
32,288,31734,6,0,P|20:240|28:172,1,104,0|8,0:0|0:0,0:0:0:0:
80,100,32427,2,0,P|108:120|128:148,1,52,8|8,0:0|0:0,0:0:0:0:
144,201,32774,1,8,0:0:0:0:
220,108,33121,2,0,P|248:81|271:63,1,52,8|8,0:0|0:0,0:0:0:0:
325,43,33468,2,0,L|421:43,1,78,8|8,0:0|0:0,0:0:0:0:
431,65,33815,6,0,L|455:133,1,52,8|8,0:0|0:0,0:0:0:0:
474,181,34161,2,0,L|498:249,1,52,8|8,0:0|0:0,0:0:0:0:
432,272,34508,6,0,L|320:292,1,104,0|0,0:0|0:0,0:0:0:0:
332,208,35202,2,0,L|220:228,1,104,0|8,0:0|0:0,0:0:0:0:
240,144,35896,2,0,L|128:164,1,104,0|8,0:0|0:0,0:0:0:0:
144,80,36589,2,0,L|32:100,1,104,0|8,0:0|0:0,0:0:0:0:
8,184,37283,5,4,2:0:0:0:
12,288,37630,2,0,L|16:352,5,52,0|0|0|0|0|0,0:0|0:0|0:0|0:0|0:0|0:0,0:0:0:0:
96,360,38670,5,8,0:0:0:0:
172,336,38844,2,0,L|204:360,2,26,8|8|8,0:0|0:0|0:0,0:0:0:0:
200,264,39190,1,8,0:0:0:0:
96,172,39537,6,0,P|68:128|72:68,1,104,2|0,0:0|0:0,0:0:0:0:
148,104,40057,6,0,P|200:88|228:88,1,65,4|0,2:0|0:0,0:0:0:0:
288,88,40404,2,0,P|332:84|368:72,1,65,8|0,0:0|0:0,0:0:0:0:
420,40,40751,2,0,L|476:164,1,130,0|8,0:0|0:0,0:0:0:0:
484,236,41271,1,0,0:0:0:0:
456,308,41445,6,0,L|420:392,1,65,2|0,0:0|0:0,0:0:0:0:
368,324,41792,2,0,L|332:408,1,65,8|0,0:0|0:0,0:0:0:0:
280,336,42138,2,0,P|240:360|148:368,1,130,0|8,0:0|0:0,0:0:0:0:
92,328,42659,1,0,0:0:0:0:
48,264,42832,6,0,L|36:196,1,65,2|0,0:0|0:0,0:0:0:0:
48,124,43179,1,8,0:0:0:0:
88,60,43352,2,0,P|144:32|240:32,1,130
284,52,43872,1,8,0:0:0:0:
344,104,44046,1,0,0:0:0:0:
400,160,44219,5,2,0:0:0:0:
408,304,44566,1,8,0:0:0:0:
294,342,44913,2,0,L|230:358,1,65
176,304,45260,2,0,L|194:240,1,65,8|0,0:0|0:0,0:0:0:0:
176,157,45607,6,0,P|238:167|275:220,1,130,6|8,2:0|0:0,0:0:0:0:
52,224,46300,2,0,P|30:164|57:106,1,130,0|8,0:0|0:0,0:0:0:0:
176,304,46994,2,0,P|135:352|72:358,1,130,6|8,2:0|0:0,0:0:0:0:
263,272,47687,6,0,P|270:303|268:336,1,65,0|0,0:0|0:0,0:0:0:0:
304,200,48034,2,0,P|325:223|340:253,1,65,8|0,0:0|0:0,0:0:0:0:
304,120,48381,1,6,2:0:0:0:
180,80,48728,2,0,L|88:60,1,65,8|0,0:0|0:0,0:0:0:0:
40,44,49075,2,0,P|24:96|36:188,1,130,0|8,0:0|0:0,0:0:0:0:
60,244,49595,1,0,0:0:0:0:
104,308,49768,6,0,L|48:348,2,65,2|0|8,0:0|0:0|0:0,0:0:0:0:
208,328,50289,2,0,L|152:368,2,65,0|0|0,0:0|0:0|0:0,0:0:0:0:
308,340,50809,2,0,L|368:300,1,65,8|0,0:0|0:0,0:0:0:0:
428,260,51156,6,0,P|440:192|428:120,1,130,6|8,2:0|0:0,0:0:0:0:
388,68,51676,1,0,0:0:0:0:
316,40,51849,2,0,L|252:80,1,65
184,56,52196,1,8,0:0:0:0:
116,92,52370,1,0,0:0:0:0:
48,128,52543,6,0,L|16:264,2,130,2|8|0,0:0|0:0|0:0,0:0:0:0:
176,204,53583,2,0,L|188:276,1,65,8|0,0:0|0:0,0:0:0:0:
120,312,53930,6,0,P|138:338|168:351,1,65,6|0,2:0|0:0,0:0:0:0:
244,340,54277,1,8,0:0:0:0:
300,288,54450,2,0,L|280:144,1,130
284,80,54971,1,8,0:0:0:0:
336,24,55144,1,0,0:0:0:0:
416,20,55318,6,0,P|436:92|424:160,1,130,2|8,0:0|0:0,0:0:0:0:
356,284,56011,2,0,L|344:360,1,65
268,348,56358,2,0,L|257:283,1,65,8|0,0:0|0:0,0:0:0:0:
308,224,56705,6,0,L|308:132,1,65,6|0,2:0|0:0,0:0:0:0:
292,76,57052,2,0,P|255:95|232:124,1,65,8|0,0:0|0:0,0:0:0:0:
180,228,57398,6,0,L|180:136,1,65,4|0,2:0|0:0,0:0:0:0:
164,80,57745,2,0,P|127:99|104:128,1,65,8|0,0:0|0:0,0:0:0:0:
60,176,58092,6,0,P|32:232|28:308,2,130,6|8|0,2:0|0:0|0:0,0:0:0:0:
116,344,59133,2,0,P|160:360|188:356,1,65,8|0,0:0|0:0,0:0:0:0:
164,272,59479,6,0,P|192:196|184:120,1,130,6|8,2:0|0:0,0:0:0:0:
164,72,60000,1,0,0:0:0:0:
228,28,60173,1,0,0:0:0:0:
304,44,60346,2,0,L|380:64,1,65,0|8,0:0|0:0,0:0:0:0:
444,76,60693,1,0,0:0:0:0:
464,152,60867,6,0,L|480:236,2,65,2|0|8,0:0|0:0|0:0,0:0:0:0:
396,192,61387,2,0,L|412:276,2,65,0|0|0,0:0|0:0|0:0,0:0:0:0:
328,232,61907,1,8,0:0:0:0:
260,272,62081,1,0,0:0:0:0:
192,312,62254,2,0,L|152:336,3,32.5,0|0|0|0,0:0|0:0|0:0|0:0,0:0:0:0:
132,308,62601,2,0,L|92:332,3,32.5,0|0|0|0,0:0|0:0|0:0|0:0,0:0:0:0:
76,296,62948,6,0,L|48:232,1,65,2|0,0:0|0:0,0:0:0:0:
116,192,63294,2,0,L|132:124,1,65,4|0,0:2|0:0,0:0:0:0:
76,72,63641,1,4,2:0:0:0:
116,200,69190,6,0,P|112:252|116:292,2,65,6|0|0,2:0|0:0|0:0,0:0:0:0:
140,124,69711,1,0,0:0:0:0:
196,72,69884,2,0,P|236:44|264:40,1,65,2|0,0:0|0:0,0:0:0:0:
312,108,70231,2,0,P|291:152|269:169,1,65
208,196,70578,5,2,0:0:0:0:
180,268,70751,1,0,0:0:0:0:
200,344,70924,1,0,0:0:0:0:
272,376,71098,2,0,L|352:368,2,65,0|2|0,0:0|0:0|0:0,0:0:0:0:
328,288,71618,2,0,P|384:300|404:324,1,65
456,364,71965,6,0,P|476:316|480:224,1,130,2|0,0:0|0:0,0:0:0:0:
464,164,72485,1,0,0:0:0:0:
416,100,72659,1,0,0:0:0:0:
356,152,72832,1,0,0:0:0:0:
320,84,73005,1,0,0:0:0:0:
260,136,73179,1,0,0:0:0:0:
220,68,73352,6,0,P|172:60|140:60,1,65,2|2,0:0|3:0,0:0:0:0:
136,136,73699,2,0,P|90:152|62:167,1,65,0|2,0:0|3:0,0:0:0:0:
92,236,74046,2,0,L|72:376,1,130,2|0,0:0|0:0,0:0:0:0:
152,352,74566,1,2,3:0:0:0:
224,328,74740,6,0,L|236:240,1,65,2|0,0:0|0:0,0:0:0:0:
244,188,75086,1,0,0:0:0:0:
256,112,75260,1,0,0:0:0:0:
184,84,75433,1,2,0:0:0:0:
216,12,75607,1,0,0:0:0:0:
292,36,75780,2,0,L|372:12,1,65
424,48,76127,6,0,L|452:128,1,65,2|2,0:0|3:0,0:0:0:0:
416,184,76474,2,0,L|444:264,1,65,0|2,0:0|3:0,0:0:0:0:
400,312,76820,2,0,P|320:336|264:328,1,130,2|0,0:0|0:0,0:0:0:0:
208,292,77341,1,2,3:0:0:0:
252,228,77514,6,0,P|260:172|256:148,1,65,2|0,0:0|0:0,0:0:0:0:
188,136,77861,2,0,P|181:79|171:57,1,65,0|0,0:0|0:0,0:0:0:0:
100,60,78208,1,2,0:0:0:0:
40,112,78381,1,0,0:0:0:0:
84,176,78555,1,0,0:0:0:0:
24,228,78728,1,0,0:0:0:0:
64,292,78901,1,10,0:3:0:0:
216,320,79248,6,0,L|288:336,2,65,0|0|2,0:0|0:0|0:0,0:0:0:0:
364,268,79942,2,0,L|427:282,1,65,8|8,0:0|0:0,0:0:0:0:
476,212,80289,6,0,L|492:96,1,104,6|8,0:0|0:0,0:0:0:0:
384,172,80982,2,0,L|400:56,1,104,0|8,0:0|0:0,0:0:0:0:
280,176,81676,2,0,L|296:60,1,104,0|8,0:0|0:0,0:0:0:0:
188,136,82370,2,0,L|204:20,1,104,0|8,0:0|0:0,0:0:0:0:
88,144,83063,6,0,L|24:152,1,52,2|0,3:0|0:0,0:0:0:0:
116,236,83410,2,0,L|64:274,1,52,2|0,3:0|0:0,0:0:0:0:
196,288,83757,2,0,L|170:347,1,52,2|0,3:0|0:0,0:0:0:0:
289,309,84104,2,0,L|297:373,1,52,2|0,3:0|0:0,0:0:0:0:
380,292,84450,6,0,P|436:268|464:216,1,104,2|2,3:0|3:0,0:0:0:0:
476,162,84971,1,0,0:0:0:0:
464,90,85144,2,0,L|448:34,1,52,2|0,3:0|0:0,0:0:0:0:
373,76,85491,2,0,L|357:20,1,52,2|0,3:0|0:0,0:0:0:0:
280,64,85838,6,0,L|156:72,1,104,6|8,2:0|0:0,0:0:0:0:
232,152,86531,2,0,L|108:160,1,104,0|8,0:0|0:0,0:0:0:0:
272,248,87225,2,0,L|148:256,1,104,0|8,0:0|0:0,0:0:0:0:
224,336,87919,2,0,L|100:344,1,104,0|8,0:0|0:0,0:0:0:0:
24,264,88612,6,0,P|16:204|28:140,1,104,8|8,0:0|0:0,0:0:0:0:
56,96,89133,1,8,0:0:0:0:
112,48,89306,2,0,P|160:32|224:28,1,104,8|8,0:0|0:0,0:0:0:0:
284,44,89826,1,8,0:0:0:0:
336,96,90000,6,0,P|348:128|352:156,1,52,8|0,0:0|0:0,0:0:0:0:
428,144,90346,2,0,P|422:177|411:203,1,52,8|0,0:0|0:0,0:0:0:0:
488,232,90693,2,0,P|466:258|444:275,1,52,8|0,0:0|0:0,0:0:0:0:
492,335,91040,2,0,P|460:347|431:351,1,52,8|0,0:0|0:0,0:0:0:0:
356,324,91387,6,0,P|316:316|208:328,1,130,4|8,2:0|0:0,0:0:0:0:
164,368,91907,1,0,0:0:0:0:
96,332,92081,2,0,P|84:284|84:252,1,65
92,192,92427,1,8,0:0:0:0:
104,116,92601,1,0,0:0:0:0:
124,40,92774,6,0,L|212:20,1,65,2|0,0:0|0:0,0:0:0:0:
320,68,93121,2,0,L|256:82,1,65,8|0,0:0|0:0,0:0:0:0:
212,160,93468,2,0,L|208:292,1,130,0|8,0:0|0:0,0:0:0:0:
256,352,93988,1,0,0:0:0:0:
332,364,94161,6,0,L|412:376,1,65,6|0,2:0|0:0,0:0:0:0:
436,308,94508,1,8,0:0:0:0:
472,240,94682,1,0,0:0:0:0:
480,164,94855,2,0,P|460:68|444:36,1,130,0|8,0:0|0:0,0:0:0:0:
376,4,95375,1,0,0:0:0:0:
308,44,95549,6,0,P|283:103|274:168,1,130,2|8,0:0|0:0,0:0:0:0:
328,316,96242,1,0,0:0:0:0:
252,332,96416,1,0,0:0:0:0:
176,316,96589,1,8,0:0:0:0:
100,332,96763,1,0,0:0:0:0:
28,304,96936,6,0,P|16:264|16:220,1,65,6|0,2:0|0:0,0:0:0:0:
46,167,97283,2,0,P|71:188|88:216,1,65,8|0,0:0|0:0,0:0:0:0:
180,232,97630,6,0,P|168:192|168:148,1,65
198,95,97977,2,0,P|223:116|240:144,1,65,8|0,0:0|0:0,0:0:0:0:
332,164,98323,6,0,P|320:124|320:80,1,65,6|0,2:0|0:0,0:0:0:0:
350,27,98670,2,0,P|375:48|392:76,1,65,8|0,0:0|0:0,0:0:0:0:
436,168,99017,6,0,L|452:312,1,130,4|8,2:0|0:0,0:0:0:0:
256,336,99711,2,0,L|168:352,1,65,6|0,2:0|0:0,0:0:0:0:
116,352,100057,1,8,0:0:0:0:
52,304,100231,2,0,P|40:248|56:168,1,130
108,124,100751,1,8,0:0:0:0:
136,196,100924,1,0,0:0:0:0:
192,140,101098,6,0,L|208:64,2,65,10|8|8,0:0|0:0|0:0,0:0:0:0:
280,128,101618,2,0,L|296:52,2,65,8|8|8,0:0|0:0|0:0,0:0:0:0:
364,116,102138,1,8,0:0:0:0:
440,104,102312,1,0,0:0:0:0:
428,180,102485,6,0,P|428:248|444:308,1,130,6|8,2:0|0:0,0:0:0:0:
392,368,103005,1,0,0:0:0:0:
328,324,103179,1,0,0:0:0:0:
252,332,103352,1,0,0:0:0:0:
244,256,103526,1,8,0:0:0:0:
168,264,103699,1,0,0:0:0:0:
92,272,103872,6,0,L|48:216,1,65,2|0,0:0|0:0,0:0:0:0:
100,120,104219,2,0,L|140:171,1,65,8|0,0:0|0:0,0:0:0:0:
12,116,104566,2,0,P|36:64|120:36,1,130
176,44,105086,1,0,0:0:0:0:
252,68,105260,6,0,L|328:52,2,65,6|0|8,2:0|0:0|0:0,0:0:0:0:
224,140,105780,2,0,P|220:204|244:272,1,130
292,324,106300,1,8,0:0:0:0:
368,336,106474,1,0,0:0:0:0:
444,324,106647,6,0,L|460:176,1,130,2|8,0:0|0:0,0:0:0:0:
456,40,107341,1,0,0:0:0:0:
380,44,107514,1,0,0:0:0:0:
308,68,107687,1,8,0:0:0:0:
232,72,107861,1,0,0:0:0:0:
156,92,108034,6,0,L|88:120,1,65,6|0,2:0|0:0,0:0:0:0:
16,128,108381,2,0,P|36:172|56:188,1,65,8|0,0:0|0:0,0:0:0:0:
144,196,108728,6,0,L|153:268,1,65
141,340,109075,2,0,P|188:332|209:316,1,65,8|0,0:0|0:0,0:0:0:0:
256,240,109422,6,0,L|328:249,1,65,6|0,2:0|0:0,0:0:0:0:
394,280,109768,2,0,P|398:231|389:208,1,65,8|0,0:0|0:0,0:0:0:0:
348,132,110115,6,0,P|328:80|328:0,1,130,4|8,2:0|0:0,0:0:0:0:
492,152,110809,2,0,L|420:144,1,65,6|0,2:0|0:0,0:0:0:0:
348,132,111156,1,8,0:0:0:0:
272,152,111329,2,0,P|240:232|244:288,1,130
272,348,111849,2,0,P|232:352|184:332,1,65,8|0,0:0|0:0,0:0:0:0:
136,316,112196,6,0,L|96:248,2,65,2|0|8,0:0|0:0|0:0,0:0:0:0:
172,216,112716,2,0,L|171:137,2,65,0|0|0,0:0|0:0|0:0,0:0:0:0:
264,172,113237,2,0,P|324:168|352:172,1,65,8|0,0:0|0:0,0:0:0:0:
404,184,113583,6,0,P|420:128|412:48,1,130,2|8,0:0|0:0,0:0:0:0:
344,24,114104,1,8,0:0:0:0:
268,20,114277,1,10,3:0:0:0:
216,76,114450,1,8,0:0:0:0:
140,72,114624,1,8,0:0:0:0:
96,136,114797,1,8,0:0:0:0:
20,132,114971,1,0,0:0:0:0:
356,192,124682,6,0,L|328:324,1,130,2|8,3:0|0:0,0:0:0:0:
256,292,125202,1,0,0:0:0:0:
182,319,125375,2,0,L|156:192,1,130,2|8,3:0|0:0,0:0:0:0:
160,112,125896,1,0,0:0:0:0:
216,60,126069,6,0,L|296:36,1,65,4|0,2:0|0:0,0:0:0:0:
348,80,126416,2,0,L|428:56,1,65,8|0,0:0|0:0,0:0:0:0:
356,192,126763,2,0,L|276:216,1,65,0|0,0:0|0:0,0:0:0:0:
224,172,127109,2,0,L|144:196,1,65,8|0,0:0|0:0,0:0:0:0:
216,60,127456,6,0,L|296:36,1,65,0|0,0:0|0:0,0:0:0:0:
348,80,127803,2,0,L|428:56,1,65,8|0,0:0|0:0,0:0:0:0:
356,192,128150,2,0,L|276:216,1,65,0|0,0:0|0:0,0:0:0:0:
224,172,128497,2,0,L|144:196,1,65,8|0,0:0|0:0,0:0:0:0:
80,140,128844,6,0,L|72:75,1,65,0|0,0:0|0:0,0:0:0:0:
24,212,129190,2,0,L|16:284,1,65,8|0,0:0|0:0,0:0:0:0:
162,190,129537,2,0,L|154:125,1,65,0|0,0:0|0:0,0:0:0:0:
106,262,129884,2,0,L|98:334,1,65,8|0,0:0|0:0,0:0:0:0:
80,140,130231,6,0,L|72:75,1,65,0|0,0:0|0:0,0:0:0:0:
24,212,130578,2,0,L|16:284,1,65,8|0,0:0|0:0,0:0:0:0:
162,190,130924,2,0,L|154:125,1,65,0|2,0:0|3:0,0:0:0:0:
106,262,131271,2,0,L|98:334,1,65,0|2,0:0|3:0,0:0:0:0:
197,326,131618,6,0,L|257:364,1,65,0|0,0:0|0:0,0:0:0:0:
287,282,131965,2,0,L|356:297,1,65,8|0,0:0|0:0,0:0:0:0:
358,212,132312,2,0,L|428:202,1,65,0|0,0:0|0:0,0:0:0:0:
398,120,132659,2,0,L|460:87,1,65,8|0,0:0|0:0,0:0:0:0:
324,33,133005,6,0,L|235:31,1,65,0|0,0:0|0:0,0:0:0:0:
140,87,133352,2,0,L|204:88,1,65,8|0,0:0|0:0,0:0:0:0:
277,166,133699,2,0,L|188:164,1,65,0|0,0:0|0:0,0:0:0:0:
93,220,134046,2,0,L|157:221,1,65,8|0,0:0|0:0,0:0:0:0:
262,263,134393,6,0,P|299:324|355:362,1,130,0|8,0:0|0:0,0:0:0:0:
423,351,134913,1,8,0:0:0:0:
482,300,135086,2,0,P|480:228|450:167,1,130,8|8,0:0|0:0,0:0:0:0:
392,130,135607,1,8,0:0:0:0:
319,100,135780,6,0,L|248:97,1,65,8|8,0:0|0:0,0:0:0:0:
251,176,136127,2,0,L|180:173,1,65,8|8,0:0|0:0,0:0:0:0:
181,255,136474,1,8,0:0:0:0:
90,250,136647,2,0,L|19:247,2,65,8|8|8,0:0|0:0|0:0,0:0:0:0:
164,240,146185,6,0,L|128:312,1,65,8|8,0:0|0:0,0:0:0:0:
224,316,146531,2,0,L|214:395,1,65,8|8,0:0|0:0,0:0:0:0:
308,333,146878,6,0,L|363:380,2,65,0|0|2,0:0|0:0|3:0,0:0:0:0:
382,286,147398,2,0,L|437:333,2,65,0|0|2,0:0|0:0|3:0,0:0:0:0:
453,233,147919,2,0,P|465:193|465:158,1,65
456,64,148266,6,0,P|400:44|328:56,1,130,4|8,2:0|0:0,0:0:0:0:
260,80,148786,1,0,0:0:0:0:
184,100,148959,2,0,L|96:104,1,65
44,116,149306,1,8,0:0:0:0:
28,192,149479,1,0,0:0:0:0:
12,268,149653,6,0,L|32:360,1,65,2|0,0:0|0:0,0:0:0:0:
104,332,150000,2,0,L|117:268,1,65,8|0,0:0|0:0,0:0:0:0:
180,220,150346,2,0,P|200:264|208:368,1,130,0|8,0:0|0:0,0:0:0:0:
288,360,150867,1,0,0:0:0:0:
364,356,151040,6,0,P|404:340|432:316,1,65,6|0,2:0|0:0,0:0:0:0:
356,276,151387,2,0,P|372:236|375:199,1,65,8|0,0:0|0:0,0:0:0:0:
368,136,151734,2,0,P|356:72|364:4,1,130,0|8,0:0|0:0,0:0:0:0:
440,28,152254,1,0,0:0:0:0:
440,104,152427,6,0,P|372:136|292:132,1,130,2|8,0:0|0:0,0:0:0:0:
240,120,152948,1,0,0:0:0:0:
200,188,153121,2,0,P|192:248|192:264,1,65
264,288,153468,2,0,P|256:336|244:368,1,65,8|0,0:0|0:0,0:0:0:0:
172,348,153815,6,0,L|80:348,1,65,6|0,2:0|0:0,0:0:0:0:
28,356,154161,2,0,P|32:320|56:280,1,65,8|0,0:0|0:0,0:0:0:0:
140,232,154508,6,0,L|232:232,1,65
284,240,154855,2,0,P|280:204|256:164,1,65,8|0,0:0|0:0,0:0:0:0:
164,112,155202,6,0,L|72:112,1,65,6|0,2:0|0:0,0:0:0:0:
20,120,155549,2,0,P|24:84|48:44,1,65,8|0,0:0|0:0,0:0:0:0:
168,16,155896,6,0,P|220:36|260:96,1,130,4|8,2:0|0:0,0:0:0:0:
260,316,156589,2,0,L|252:380,1,65,6|0,2:0|0:0,0:0:0:0:
344,296,156936,2,0,L|336:360,1,65,8|0,0:0|0:0,0:0:0:0:
420,280,157283,2,0,P|428:228|420:136,1,130,0|8,0:0|0:0,0:0:0:0:
396,76,157803,1,0,0:0:0:0:
332,32,157977,6,0,P|284:16|260:16,2,65,2|0|8,0:0|0:0|0:0,0:0:0:0:
268,100,158497,2,0,P|218:110|197:122,2,65,0|0|0,0:0|0:0|0:0,0:0:0:0:
248,188,159017,2,0,L|240:284,1,65,8|0,0:0|0:0,0:0:0:0:
196,316,159364,6,0,L|112:328,1,65,6|0,2:0|0:0,0:0:0:0:
80,256,159711,2,0,L|144:246,1,65,8|0,0:0|0:0,0:0:0:0:
156,164,160057,2,0,L|72:176,1,65
40,104,160404,2,0,L|104:94,1,65,8|0,0:0|0:0,0:0:0:0:
176,64,160751,6,0,L|312:44,1,130,2|8,0:0|0:0,0:0:0:0:
380,68,161271,1,0,0:0:0:0:
428,128,161445,2,0,L|436:204,1,65
348,220,161792,2,0,L|341:284,1,65,8|0,0:0|0:0,0:0:0:0:
364,360,162138,6,0,P|332:364|292:348,1,65,6|0,2:0|0:0,0:0:0:0:
256,292,162485,2,0,L|262:227,1,65,8|0,0:0|0:0,0:0:0:0:
268,148,162832,2,0,P|256:104|224:76,1,65,0|0,0:0|0:0,0:0:0:0:
180,48,163179,2,0,L|100:48,1,65,8|0,0:0|0:0,0:0:0:0:
44,84,163526,6,0,P|28:168|40:224,1,130,2|8,0:0|0:0,0:0:0:0:
76,276,164046,1,0,0:0:0:0:
144,236,164219,1,0,0:0:0:0:
172,308,164393,1,0,0:0:0:0:
236,268,164566,1,8,0:0:0:0:
264,340,164740,1,0,0:0:0:0:
332,300,164913,6,0,P|388:296|416:304,1,65,6|0,2:0|0:0,0:0:0:0:
472,320,165260,2,0,L|484:248,1,65,8|0,0:0|0:0,0:0:0:0:
424,192,165607,6,0,P|368:188|340:196,1,65
284,212,165953,2,0,L|272:140,1,65,8|0,0:0|0:0,0:0:0:0:
324,84,166300,6,0,P|380:80|408:88,1,65,6|0,2:0|0:0,0:0:0:0:
464,104,166647,2,0,L|476:32,1,65,8|0,0:0|0:0,0:0:0:0:
308,0,166994,6,0,P|268:20|244:60,1,65,4|0,2:0|0:0,0:0:0:0:
168,56,167341,2,0,P|153:98|165:143,1,65,8|0,0:0|0:0,0:0:0:0:
200,200,167687,6,0,L|196:288,1,65,6|0,2:0|0:0,0:0:0:0:
196,344,168034,1,8,0:0:0:0:
196,344,168208,2,0,L|132:368,2,65,0|0|0,0:0|0:0|0:0,0:0:0:0:
272,332,168728,1,8,0:0:0:0:
348,340,168901,1,0,0:0:0:0:
416,376,169075,6,0,P|436:288|436:236,1,130,2|8,0:0|0:0,0:0:0:0:
408,176,169595,2,0,P|404:104|420:24,1,130
348,8,170115,2,0,L|272:8,1,65,8|8,0:0|0:0,0:0:0:0:
208,28,170462,6,0,L|196:104,1,65,10|8,0:0|0:0,0:0:0:0:
120,100,170809,2,0,L|108:176,1,65,8|8,0:0|0:0,0:0:0:0:
180,196,171156,2,0,L|168:272,1,65,2|0,3:0|0:0,0:0:0:0:
92,268,171503,2,0,L|80:344,1,65,12|0,0:3|0:0,0:0:0:0:
208,364,171849,6,0,L|280:372,1,65,0|2,0:0|3:0,0:0:0:0:
340,312,172196,2,0,L|412:320,1,65,2|2,0:0|3:0,0:0:0:0:
252,280,172543,2,0,L|180:272,1,65,2|2,0:0|3:0,0:0:0:0:
120,331,172890,2,0,L|48:323,1,65,2|2,0:0|3:0,0:0:0:0:
56,232,173237,6,0,L|44:160,1,65,2|2,0:0|3:0,0:0:0:0:
100,60,173583,2,0,L|110:124,1,65,2|2,0:0|3:0,0:0:0:0:
200,208,173930,2,0,L|188:136,1,65,2|2,0:0|3:0,0:0:0:0:
244,36,174277,2,0,L|254:100,1,65,2|2,0:0|3:0,0:0:0:0:
360,176,174624,6,0,L|440:208,1,65,2|2,0:0|3:0,0:0:0:0:
304,244,174971,2,0,L|384:276,1,65,2|2,0:0|3:0,0:0:0:0:
192,288,175318,2,0,L|272:320,1,65,2|2,0:0|3:0,0:0:0:0:
136,356,175664,2,0,L|216:388,1,65,2|2,0:0|3:0,0:0:0:0:
44,288,176011,6,0,P|28:208|32:136,1,130,8|8,0:0|0:0,0:0:0:0:
56,88,176531,1,8,0:0:0:0:
124,52,176705,2,0,L|164:48,3,32.5,8|8|8|8,0:0|0:0|0:0|0:0,0:0:0:0:
196,44,177052,2,0,L|236:40,3,32.5,8|8|8|8,0:0|0:0|0:0|0:0,0:0:0:0:
