osu file format v13

[General]
AudioFilename: UPLIFT SPICE-01 - .mp3
AudioLeadIn: 1000
PreviewTime: 39499
Countdown: 0
SampleSet: Soft
StackLeniency: 0.7
Mode: 0
LetterboxInBreaks: 1
WidescreenStoryboard: 0

[Editor]
DistanceSpacing: 0.7
BeatDivisor: 1
GridSize: 4
TimelineZoom: 0.6

[Metadata]
Title:Omega Rhythm
TitleUnicode:オメガリズム
Artist:UPLIFT SPICE
ArtistUnicode:UPLIFT SPICE
Creator:Jemmmmy
Version:Easy
Source:
Tags:lightr Dynamord Label 2009 千織 YOOKEY tovita Kenji
BeatmapID:366139
BeatmapSetID:147962

[Difficulty]
HPDrainRate:2
CircleSize:3
OverallDifficulty:2
ApproachRate:3
SliderMultiplier:0.7
SliderTickRate:2

[Events]
//Background and Video events
0,0,"fireflies.jpg",0,0
//Break Periods
2,63840,67750
2,115170,119080
2,137367,145438
//Storyboard Layer 0 (Background)
//Storyboard Layer 1 (Fail)
//Storyboard Layer 2 (Pass)
//Storyboard Layer 3 (Foreground)
//Storyboard Sound Samples
//Background Colour Transformations
3,100,163,162,255

[TimingPoints]
1214,346.820809248555,4,2,5,60,1,0
40057,-100,4,1,5,60,0,1
63641,-100,4,1,5,60,0,0
66416,-100,4,2,5,60,0,0
91387,-100,4,1,5,60,0,1
114971,-100,4,1,5,60,0,0
119133,-100,4,2,5,60,0,0
148266,-100,4,1,5,60,0,1
171849,-100,4,2,5,60,0,0

[Colours]
Combo1 : 112,135,137
Combo2 : 10,205,216
Combo3 : 248,236,22
Combo4 : 22,4,244

[HitObjects]
68,364,1214,6,0,P|136:344|184:280,1,140,4|0,3:0|3:0,0:0:0:0:
88,260,2601,2,0,P|133:208|200:189,1,140,4|0,3:0|3:0,0:0:0:0:
296,168,3988,2,0,P|380:136|412:80,1,140,4|0,3:0|3:0,0:0:0:0:
488,40,5375,2,0,P|504:104|468:188,1,140,4|0,3:0|3:0,0:0:0:0:
396,220,6763,6,0,P|328:264|300:328,1,140,4|0,3:0|3:0,0:0:0:0:
392,356,8150,1,4,3:0:0:0:
484,324,8844,1,0,3:0:0:0:
504,228,9537,6,0,P|472:152|412:120,1,140,4|0,3:0|3:0,0:0:0:0:
328,124,10924,2,0,P|252:116|196:64,1,140,4|0,3:0|3:0,0:0:0:0:
136,8,12312,1,4,3:0:0:0:
48,52,13005,1,0,3:0:0:0:
92,140,13699,6,0,P|136:208|128:344,1,210,4|0,3:0|3:0,0:0:0:0:
116,380,15086,2,0,P|188:348|332:360,1,210,4|4,3:0|2:0,0:0:0:0:
364,372,16474,1,4,3:0:0:0:
412,288,17167,1,4,3:0:0:0:
316,264,17861,6,0,P|248:244|204:176,1,140,4|0,2:0|3:0,0:0:0:0:
300,160,19248,2,0,P|264:80|284:16,1,140,4|0,3:0|3:0,0:0:0:0:
360,80,20635,1,4,3:0:0:0:
452,44,21329,1,0,3:0:0:0:
432,140,22023,2,0,P|400:220|276:284,1,210,4|0,3:0|3:0,0:0:0:0:
249,290,23410,6,0,P|177:286|101:318,1,140,4|0,3:0|3:0,3:0:0:0:
28,356,24797,1,4,3:0:0:0:
16,260,25491,1,0,3:0:0:0:
108,228,26185,6,0,P|172:180|196:112,1,140,4|0,3:0|3:0,0:0:0:0:
184,28,27572,1,4,3:0:0:0:
268,76,28266,1,0,3:0:0:0:
356,32,28959,6,0,P|416:88|464:288,1,280,4|4,2:0|3:0,0:0:0:0:
288,192,31734,2,0,P|249:264|60:348,1,280,4|4,3:0|3:0,0:0:0:0:
76,152,34508,6,0,P|192:76|340:68,1,280,4|4,2:0|3:0,0:0:0:0:
424,92,36589,1,0,0:0:0:0:
480,176,37283,2,0,P|428:228|352:244,1,140,4|0,0:0|0:0,0:0:0:0:
268,232,38670,2,0,P|212:200|188:156,1,105,0|4,0:0|0:0,0:0:0:0:
68,160,40057,6,0,P|36:232|48:308,1,140,4|8,0:0|0:0,0:0:0:0:
128,248,41445,2,0,P|156:321|218:366,1,140,0|8,0:0|0:0,0:0:0:0:
224,264,42832,2,0,P|296:296|372:284,1,140,0|8,0:0|0:0,0:0:0:0:
312,204,44219,2,0,P|385:175|430:113,1,140,0|8,0:0|0:0,0:0:0:0:
328,104,45607,5,4,0:0:0:0:
256,36,46300,1,8,0:0:0:0:
184,104,46994,1,0,0:0:0:0:
116,36,47687,1,8,0:0:0:0:
48,108,48381,6,0,P|16:180|36:248,1,140,0|8,0:0|0:0,0:0:0:0:
112,180,49768,2,0,P|188:108|304:88,1,210
336,88,51156,6,0,P|408:112|448:168,1,140,4|8,0:0|0:0,0:0:0:0:
348,180,52543,2,0,P|381:247|370:315,1,140,0|8,0:0|0:0,0:0:0:0:
292,256,53930,2,0,P|268:328|212:368,1,140,0|8,0:0|0:0,0:0:0:0:
196,272,55318,2,0,P|128:305|60:294,1,140,0|8,0:0|0:0,0:0:0:0:
120,216,56705,5,4,0:0:0:0:
184,140,57398,1,8,0:0:0:0:
280,124,58092,2,0,P|352:144|400:200,1,140,0|8,0:0|0:0,0:0:0:0:
416,288,59479,6,0,P|344:268|296:212,1,140,0|8,0:0|0:0,0:0:0:0:
244,144,60867,2,0,P|172:56|76:24,2,210,0|0|8,0:0|0:0|0:0,0:0:0:0:
256,192,63294,2,0,L|256:288,1,70,4|4,3:0|2:0,0:0:0:0:
512,180,69190,6,0,L|412:296,1,140,4|0,2:0|3:0,0:0:0:0:
372,200,70578,2,0,L|272:316,1,140,4|0,3:0|3:0,0:0:0:0:
204,368,71965,6,0,P|112:360|60:312,1,140,4|0,3:0|3:0,0:0:0:0:
44,240,73352,2,0,P|136:248|188:296,1,140,4|0,3:0|3:0,0:0:0:0:
264,308,74740,6,0,P|216:140|128:84,1,280,4|4,3:0|3:0,0:0:0:0:
40,108,76820,1,0,3:0:0:0:
116,168,77514,2,0,P|172:224|184:284,1,140,4|0,3:0|3:0,0:0:0:0:
220,372,78901,2,0,P|268:320|276:244,1,140,4|0,3:0|3:0,0:0:0:0:
272,156,80289,6,0,P|360:52|524:12,1,280,4|4,2:0|3:0,0:0:0:0:
492,208,83063,2,0,P|404:312|240:352,1,280,4|4,3:0|3:0,0:0:0:0:
76,340,85838,6,0,P|220:292|316:164,1,280,4|4,2:0|3:0,0:0:0:0:
248,8,88612,2,0,P|104:56|8:184,1,280,4|4,3:0|3:0,0:0:0:0:
12,248,90693,1,8,3:0:0:0:
100,204,91387,6,0,P|176:184|244:200,1,140,4|8,0:0|0:0,0:0:0:0:
324,236,92774,2,0,P|392:264|464:256,1,140,0|8,0:0|0:0,0:0:0:0:
504,172,94161,1,0,0:0:0:0:
408,152,94855,1,8,0:0:0:0:
468,72,95549,2,0,P|388:57|336:83,1,140,0|8,0:0|0:0,0:0:0:0:
268,152,96936,5,4,0:0:0:0:
228,240,97630,1,8,0:0:0:0:
260,332,98323,2,0,P|352:328|404:292,1,140,0|8,0:0|0:0,0:0:0:0:
440,220,99711,2,0,P|348:224|296:260,1,140,0|8,0:0|0:0,0:0:0:0:
232,312,101098,2,0,P|144:348|32:328,1,210
24,280,102485,6,0,P|64:224|140:192,1,140,4|8,0:0|0:0,0:0:0:0:
217,231,103872,2,0,P|213:159|154:94,1,140,0|8,0:0|0:0,0:0:0:0:
236,28,105260,2,0,P|332:64|452:40,1,210
484,32,106647,2,0,P|480:112|452:172,1,140,0|8,0:0|0:0,0:0:0:0:
388,236,108034,5,4,0:0:0:0:
356,328,108728,1,8,0:0:0:0:
284,260,109422,2,0,P|244:216|168:188,1,140,0|8,0:0|0:0,0:0:0:0:
84,240,110809,2,0,P|76:164|108:108,1,140,0|8,0:0|0:0,0:0:0:0:
200,76,112196,6,0,P|396:72|476:24,1,280,0|4,0:0|0:0,0:0:0:0:
484,128,114277,2,0,L|468:204,2,70,2|0|4,3:0|0:0|0:0,0:0:0:0:
148,248,120520,6,0,P|76:200|44:132,1,140,4|0,3:0|3:0,0:0:0:0:
60,56,121907,2,0,P|132:104|164:172,1,140,4|0,3:0|3:0,0:0:0:0:
244,200,123294,2,0,P|344:228|396:216,1,140,4|0,3:0|3:0,0:0:0:0:
452,160,124682,2,0,P|352:132|300:144,1,140,4|0,3:0|3:0,0:0:0:0:
244,200,126069,6,0,L|204:340,1,140,4|0,3:0|3:0,0:0:0:0:
300,364,127456,2,0,L|338:229,1,140,4|0,3:0|3:0,0:0:0:0:
368,136,128844,2,0,P|416:64|476:32,1,140,4|0,3:0|3:0,0:0:0:0:
508,124,130231,2,0,P|460:196|400:228,1,140,4|0,3:0|3:0,0:0:0:0:
320,236,131618,6,0,P|252:240|188:280,1,140,4|0,3:0|3:0,0:0:0:0:
148,188,133005,2,0,P|102:238|85:312,2,140,4|0|4,3:0|3:0|3:0,0:0:0:0:
236,148,135086,1,0,3:0:0:0:
328,116,135780,2,0,P|436:144|476:324,1,280,4|0,3:0|3:0,0:0:0:0:
368,328,146878,6,0,P|320:320|244:336,2,105,8|8|8,0:0|0:0|0:0,0:0:0:0:
416,336,148266,6,0,P|452:256|448:200,1,140,4|8,0:0|0:0,0:0:0:0:
360,248,149653,2,0,P|351:160|319:114,1,140,0|8,0:0|0:0,0:0:0:0:
268,200,151040,2,0,P|216:128|166:104,1,140,0|8,0:0|0:0,0:0:0:0:
160,204,152427,2,0,P|79:168|23:172,1,140,0|8,0:0|0:0,0:0:0:0:
72,260,153815,5,4,0:0:0:0:
96,356,154508,1,8,0:0:0:0:
184,316,155202,2,0,P|260:332|352:308,2,140,0|8|0,0:0|0:0|0:0,0:0:0:0:
104,260,157283,1,8,0:0:0:0:
44,180,157977,2,0,P|16:104|44:32,1,140,0|8,0:0|0:0,0:0:0:0:
116,100,159364,6,0,L|260:80,1,140,4|8,0:0|0:0,0:0:0:0:
224,176,160751,2,0,L|368:156,1,140,0|8,0:0|0:0,0:0:0:0:
352,256,162138,1,0,0:0:0:0:
396,344,162832,1,8,0:0:0:0:
300,340,163526,2,0,P|252:280|256:208,1,140,0|8,0:0|0:0,0:0:0:0:
308,140,164913,6,0,P|268:60|224:32,1,140,4|8,0:0|0:0,0:0:0:0:
204,128,166300,2,0,P|119:99|68:111,1,140,0|8,0:0|0:0,0:0:0:0:
128,192,167687,2,0,P|48:232|20:276,1,140,0|8,0:0|0:0,0:0:0:0:
116,304,169075,2,0,P|208:260|240:212,1,140,0|8,0:0|0:0,0:0:0:0:
272,144,170462,1,0,0:0:0:0:
332,64,171156,1,8,0:0:0:0:
428,52,171849,6,0,P|480:100|496:176,1,140,4|0,3:0|3:0,0:0:0:0:
468,260,173237,2,0,P|416:212|400:136,1,140,4|0,3:0|3:0,0:0:0:0:
325,82,174624,2,0,P|265:122|237:214,1,140,4|0,3:0|3:0,0:0:0:0:
256,192,175491,12,8,177312,0:0:0:0:
