osu file format v14

[General]
AudioFilename: kanojyo.mp3
AudioLeadIn: 0
PreviewTime: -1
Countdown: 1
SampleSet: Soft
StackLeniency: 0.7
Mode: 0
LetterboxInBreaks: 1
WidescreenStoryboard: 0

[Editor]
DistanceSpacing: 1
BeatDivisor: 4
GridSize: 8
TimelineZoom: 1

[Metadata]
Title:KANOJO
TitleUnicode:KANOJO
Artist:UPLIFT SPICE
ArtistUnicode:UPLIFT SPICE
Creator:Misty 02
Version:Hard
Source:
Tags:
BeatmapID:910661
BeatmapSetID:420974

[Difficulty]
HPDrainRate:5
CircleSize:5
OverallDifficulty:5
ApproachRate:5
SliderMultiplier:1.4
SliderTickRate:1

[Events]
//Background and Video events
0,0,"uplift_spice__9_by_sowilo22-d6trczh.jpg",0,0
//Break Periods
2,137819,144104
//Storyboard Layer 0 (Background)
//Storyboard Layer 1 (Fail)
//Storyboard Layer 2 (Pass)
//Storyboard Layer 3 (Foreground)
//Storyboard Sound Samples

[TimingPoints]
5668,310.880829015544,4,2,0,100,1,0

[HitObjects]
144,104,2025,5,0,0:0:0:0:
368,104,3656,1,0,0:0:0:0:
336,104,3908,1,0,0:0:0:0:
128,112,5378,1,0,0:0:0:0:
160,112,5609,1,0,0:0:0:0:
264,104,6393,5,0,0:0:0:0:
216,104,6755,1,0,0:0:0:0:
216,104,7102,1,0,0:0:0:0:
216,104,7364,1,0,0:0:0:0:
216,104,8814,1,0,0:0:0:0:
208,128,9033,1,0,0:0:0:0:
208,128,10597,1,0,0:0:0:0:
208,128,10795,1,0,0:0:0:0:
208,128,12443,1,0,0:0:0:0:
208,128,12859,1,0,0:0:0:0:
208,128,13349,1,0,0:0:0:0:
304,72,14185,1,0,0:0:0:0:
288,128,14591,1,0,0:0:0:0:
232,144,15009,5,0,0:0:0:0:
192,96,15445,1,0,0:0:0:0:
256,80,15909,1,0,0:0:0:0:
288,136,16360,1,0,0:0:0:0:
248,168,16758,1,0,0:0:0:0:
200,192,17174,1,0,0:0:0:0:
224,248,17643,1,0,0:0:0:0:
272,224,18045,1,0,0:0:0:0:
304,168,18480,1,0,0:0:0:0:
296,112,18872,1,0,0:0:0:0:
232,112,19356,1,0,0:0:0:0:
200,152,19724,1,0,0:0:0:0:
192,216,20183,1,0,0:0:0:0:
248,232,20639,1,0,0:0:0:0:
288,200,21029,1,0,0:0:0:0:
304,144,21442,5,0,0:0:0:0:
256,120,21864,1,0,0:0:0:0:
200,120,22281,1,0,0:0:0:0:
200,120,22710,1,0,0:0:0:0:
200,120,23135,1,0,0:0:0:0:
200,120,23379,1,0,0:0:0:0:
200,120,23823,1,0,0:0:0:0:
200,120,24044,1,0,0:0:0:0:
200,120,24245,1,0,0:0:0:0:
200,120,24454,1,0,0:0:0:0:
200,120,24889,1,0,0:0:0:0:
200,120,25319,1,0,0:0:0:0:
200,120,25662,1,0,0:0:0:0:
200,120,25910,1,0,0:0:0:0:
232,24,26643,1,0,0:0:0:0:
248,80,27076,1,0,0:0:0:0:
280,128,27512,1,0,0:0:0:0:
216,136,27985,1,0,0:0:0:0:
216,136,29580,1,0,0:0:0:0:
128,360,31328,1,0,0:0:0:0:
176,256,32176,1,0,0:0:0:0:
200,208,32611,1,0,0:0:0:0:
224,160,33013,1,0,0:0:0:0:
256,112,33463,1,0,0:0:0:0:
296,72,33858,1,0,0:0:0:0:
288,128,34294,1,0,0:0:0:0:
320,80,34738,1,0,0:0:0:0:
216,136,35591,1,0,0:0:0:0:
168,176,36056,1,0,0:0:0:0:
224,160,36495,1,0,0:0:0:0:
296,72,37345,1,0,0:0:0:0:
256,120,37794,1,0,0:0:0:0:
256,120,38273,1,0,0:0:0:0:
256,120,38610,1,0,0:0:0:0:
256,120,38854,1,0,0:0:0:0:
256,120,39276,1,0,0:0:0:0:
256,120,39492,1,0,0:0:0:0:
256,120,39812,1,0,0:0:0:0:
216,128,40122,1,0,0:0:0:0:
264,112,40516,1,0,0:0:0:0:
240,120,40741,1,0,0:0:0:0:
240,120,41142,1,0,0:0:0:0:
200,136,41491,1,0,0:0:0:0:
200,184,41872,1,0,0:0:0:0:
208,216,42111,1,0,0:0:0:0:
256,216,42451,1,0,0:0:0:0:
280,192,42714,1,0,0:0:0:0:
232,136,43238,1,0,0:0:0:0:
192,160,43617,1,0,0:0:0:0:
208,200,43922,1,0,0:0:0:0:
256,216,44272,1,0,0:0:0:0:
280,200,44513,1,0,0:0:0:0:
264,152,44876,1,0,0:0:0:0:
208,152,45267,1,0,0:0:0:0:
176,184,45612,1,0,0:0:0:0:
152,208,45875,1,0,0:0:0:0:
112,232,46228,1,0,0:0:0:0:
80,256,46529,1,0,0:0:0:0:
256,192,47666,12,0,50470,0:0:0:0:
232,128,52263,5,0,0:0:0:0:
232,128,52944,1,0,0:0:0:0:
208,144,53140,1,0,0:0:0:0:
272,136,53621,1,0,0:0:0:0:
272,136,54122,1,0,0:0:0:0:
272,136,54501,1,0,0:0:0:0:
272,136,54714,1,0,0:0:0:0:
224,120,55113,1,0,0:0:0:0:
224,120,55329,1,0,0:0:0:0:
224,120,55509,1,0,0:0:0:0:
224,120,55726,1,0,0:0:0:0:
224,120,57476,1,0,0:0:0:0:
448,168,59142,1,0,0:0:0:0:
208,104,60912,1,0,0:0:0:0:
312,128,61693,1,0,0:0:0:0:
200,80,62598,1,0,0:0:0:0:
312,128,63491,1,0,0:0:0:0:
200,88,64391,1,0,0:0:0:0:
312,128,65231,1,0,0:0:0:0:
208,96,66029,1,0,0:0:0:0:
248,104,66365,1,0,0:0:0:0:
248,104,66653,1,0,0:0:0:0:
248,104,67366,1,0,0:0:0:0:
248,104,67584,1,0,0:0:0:0:
248,104,69419,1,0,0:0:0:0:
248,104,69892,1,0,0:0:0:0:
248,104,70293,1,0,0:0:0:0:
256,160,70725,1,0,0:0:0:0:
248,96,71182,1,0,0:0:0:0:
256,152,71608,1,0,0:0:0:0:
248,88,72068,1,0,0:0:0:0:
256,144,72492,1,0,0:0:0:0:
248,88,72914,1,0,0:0:0:0:
248,88,73348,1,0,0:0:0:0:
248,88,73727,1,0,0:0:0:0:
184,104,74227,1,0,0:0:0:0:
160,144,74591,1,0,0:0:0:0:
200,192,75047,1,0,0:0:0:0:
256,168,75471,1,0,0:0:0:0:
256,104,75928,1,0,0:0:0:0:
208,72,76351,1,0,0:0:0:0:
184,120,76736,1,0,0:0:0:0:
208,184,77220,1,0,0:0:0:0:
264,168,77643,1,0,0:0:0:0:
296,120,78076,1,0,0:0:0:0:
240,104,78489,1,0,0:0:0:0:
216,104,78702,1,0,0:0:0:0:
192,152,79113,1,0,0:0:0:0:
184,176,79314,1,0,0:0:0:0:
208,192,79537,1,0,0:0:0:0:
240,184,79825,1,0,0:0:0:0:
296,136,80384,1,0,0:0:0:0:
304,112,80562,1,0,0:0:0:0:
184,128,81420,1,0,0:0:0:0:
224,144,81759,1,0,0:0:0:0:
224,144,82066,1,0,0:0:0:0:
224,144,82294,1,0,0:0:0:0:
232,192,82650,1,0,0:0:0:0:
272,192,82938,1,0,0:0:0:0:
296,168,83183,1,0,0:0:0:0:
296,120,83528,1,0,0:0:0:0:
240,104,83951,1,0,0:0:0:0:
224,104,84115,1,0,0:0:0:0:
176,128,84540,1,0,0:0:0:0:
176,152,84744,1,0,0:0:0:0:
208,200,85160,1,0,0:0:0:0:
264,184,85573,1,0,0:0:0:0:
280,160,85785,1,0,0:0:0:0:
272,112,86119,1,0,0:0:0:0:
232,96,86453,1,0,0:0:0:0:
192,120,86809,1,0,0:0:0:0:
176,176,87241,1,0,0:0:0:0:
192,200,87464,1,0,0:0:0:0:
248,200,87857,1,0,0:0:0:0:
272,168,88143,1,0,0:0:0:0:
280,120,88492,1,0,0:0:0:0:
232,72,88998,1,0,0:0:0:0:
216,88,89193,1,0,0:0:0:0:
192,120,89526,1,0,0:0:0:0:
176,168,89879,1,0,0:0:0:0:
200,216,90295,1,0,0:0:0:0:
248,200,90726,1,0,0:0:0:0:
264,184,90915,1,0,0:0:0:0:
256,120,91375,1,0,0:0:0:0:
208,104,91769,1,0,0:0:0:0:
168,136,92135,1,0,0:0:0:0:
160,160,92325,1,0,0:0:0:0:
160,216,92746,1,0,0:0:0:0:
176,232,92950,1,0,0:0:0:0:
208,240,93184,1,0,0:0:0:0:
240,240,93450,1,0,0:0:0:0:
280,200,93854,1,0,0:0:0:0:
304,144,94292,1,0,0:0:0:0:
304,144,94609,1,0,0:0:0:0:
304,144,94960,1,0,0:0:0:0:
304,144,95416,1,0,0:0:0:0:
304,144,95623,1,0,0:0:0:0:
304,144,95846,1,0,0:0:0:0:
304,144,96055,1,0,0:0:0:0:
128,0,97666,1,0,0:0:0:0:
160,40,98066,1,0,0:0:0:0:
168,104,98518,1,0,0:0:0:0:
168,128,98712,1,0,0:0:0:0:
168,160,98924,1,0,0:0:0:0:
168,184,99138,1,0,0:0:0:0:
160,208,99331,1,0,0:0:0:0:
200,256,99807,1,0,0:0:0:0:
256,248,100245,1,0,0:0:0:0:
296,224,100605,1,0,0:0:0:0:
304,208,100781,1,0,0:0:0:0:
312,184,100988,1,0,0:0:0:0:
320,152,101231,1,0,0:0:0:0:
312,96,101638,1,0,0:0:0:0:
264,96,102023,1,0,0:0:0:0:
208,120,102445,1,0,0:0:0:0:
176,160,102832,1,0,0:0:0:0:
152,216,103249,1,0,0:0:0:0:
184,272,103712,1,0,0:0:0:0:
128,176,104540,1,0,0:0:0:0:
160,232,105012,1,0,0:0:0:0:
224,224,105473,1,0,0:0:0:0:
120,224,106262,1,0,0:0:0:0:
184,224,106715,1,0,0:0:0:0:
184,224,107245,1,0,0:0:0:0:
232,96,112235,1,0,0:0:0:0:
216,144,112603,1,0,0:0:0:0:
256,136,112917,1,0,0:0:0:0:
296,96,113325,1,0,0:0:0:0:
296,64,113576,1,0,0:0:0:0:
264,96,113941,1,0,0:0:0:0:
240,136,114305,1,0,0:0:0:0:
256,184,114691,1,0,0:0:0:0:
288,192,114944,1,0,0:0:0:0:
312,152,115301,1,0,0:0:0:0:
304,112,115605,1,0,0:0:0:0:
248,112,116014,1,0,0:0:0:0:
224,128,116217,1,0,0:0:0:0:
200,168,116547,1,0,0:0:0:0:
192,208,116853,1,0,0:0:0:0:
176,168,117198,1,0,0:0:0:0:
168,144,117410,1,0,0:0:0:0:
168,168,117621,1,0,0:0:0:0:
224,104,119608,1,0,0:0:0:0:
104,312,121352,1,0,0:0:0:0:
256,152,122949,1,0,0:0:0:0:
336,248,123876,1,0,0:0:0:0:
312,192,124314,1,0,0:0:0:0:
256,184,124725,1,0,0:0:0:0:
264,112,126504,1,0,0:0:0:0:
496,72,128189,1,0,0:0:0:0:
272,136,129853,1,0,0:0:0:0:
288,184,130263,1,0,0:0:0:0:
256,136,130699,1,0,0:0:0:0:
248,192,131104,1,0,0:0:0:0:
248,128,131584,1,0,0:0:0:0:
248,152,131799,1,0,0:0:0:0:
264,176,131998,1,0,0:0:0:0:
256,152,132199,1,0,0:0:0:0:
232,152,132397,1,0,0:0:0:0:
240,176,132605,1,0,0:0:0:0:
240,176,132830,1,0,0:0:0:0:
240,176,133061,1,0,0:0:0:0:
264,176,133273,1,0,0:0:0:0:
264,176,133509,1,0,0:0:0:0:
264,176,133717,1,0,0:0:0:0:
264,176,133933,1,0,0:0:0:0:
264,176,134156,1,0,0:0:0:0:
264,176,134368,1,0,0:0:0:0:
264,176,134582,1,0,0:0:0:0:
240,112,135074,1,0,0:0:0:0:
216,144,135374,1,0,0:0:0:0:
208,176,135659,1,0,0:0:0:0:
320,168,136485,1,0,0:0:0:0:
304,152,136693,1,0,0:0:0:0:
416,88,137619,1,0,0:0:0:0:
128,136,145304,5,0,0:0:0:0:
128,136,145727,1,0,0:0:0:0:
128,136,146190,1,0,0:0:0:0:
128,136,146609,1,0,0:0:0:0:
128,136,147001,1,0,0:0:0:0:
128,136,147446,1,0,0:0:0:0:
128,136,149523,1,0,0:0:0:0:
128,136,149951,1,0,0:0:0:0:
128,136,150355,1,0,0:0:0:0:
128,136,150812,1,0,0:0:0:0:
128,136,151211,1,0,0:0:0:0:
112,280,152250,1,0,0:0:0:0:
136,256,152509,1,0,0:0:0:0:
144,232,152707,1,0,0:0:0:0:
144,208,152882,1,0,0:0:0:0:
144,208,153098,1,0,0:0:0:0:
160,192,153294,1,0,0:0:0:0:
200,152,153690,1,0,0:0:0:0:
200,152,153871,1,0,0:0:0:0:
200,152,154062,1,0,0:0:0:0:
216,136,154256,1,0,0:0:0:0:
224,120,154420,1,0,0:0:0:0:
224,120,154637,1,0,0:0:0:0:
224,120,154823,1,0,0:0:0:0:
200,104,155049,1,0,0:0:0:0:
200,104,155254,1,0,0:0:0:0:
200,104,155493,1,0,0:0:0:0:
200,104,155703,1,0,0:0:0:0:
200,104,156059,1,0,0:0:0:0:
200,104,156519,1,0,0:0:0:0:
200,104,156876,1,0,0:0:0:0:
200,104,157117,1,0,0:0:0:0:
200,104,157538,1,0,0:0:0:0:
200,104,157994,1,0,0:0:0:0:
200,104,158191,1,0,0:0:0:0:
200,104,158595,1,0,0:0:0:0:
168,136,158934,1,0,0:0:0:0:
208,104,159334,1,0,0:0:0:0:
168,128,159686,1,0,0:0:0:0:
168,128,159895,1,0,0:0:0:0:
512,32,162462,5,0,0:0:0:0:
432,56,163065,1,0,0:0:0:0:
400,64,163307,1,0,0:0:0:0:
288,88,164172,1,0,0:0:0:0:
248,96,164479,1,0,0:0:0:0:
248,96,164794,1,0,0:0:0:0:
224,104,165010,1,0,0:0:0:0:
224,104,165337,1,0,0:0:0:0:
224,104,165649,1,0,0:0:0:0:
224,104,165868,1,0,0:0:0:0:
224,104,166585,1,0,0:0:0:0:
224,104,166763,1,0,0:0:0:0:
224,104,167177,1,0,0:0:0:0:
208,128,167389,1,0,0:0:0:0:
208,128,167821,1,0,0:0:0:0:
208,128,168277,1,0,0:0:0:0:
208,128,168491,1,0,0:0:0:0:
208,128,168876,1,0,0:0:0:0:
216,96,169147,1,0,0:0:0:0:
216,96,169550,1,0,0:0:0:0:
208,144,169948,1,0,0:0:0:0:
208,144,170139,1,0,0:0:0:0:
208,144,170561,1,0,0:0:0:0:
208,144,170770,1,0,0:0:0:0:
208,80,171226,1,0,0:0:0:0:
248,128,171700,1,0,0:0:0:0:
224,112,171901,1,0,0:0:0:0:
224,112,172269,1,0,0:0:0:0:
224,112,172606,1,0,0:0:0:0:
224,112,172981,1,0,0:0:0:0:
224,112,173396,1,0,0:0:0:0:
224,112,173571,1,0,0:0:0:0:
176,144,174016,1,0,0:0:0:0:
224,112,174432,1,0,0:0:0:0:
184,144,174856,1,0,0:0:0:0:
184,144,175078,1,0,0:0:0:0:
184,144,175487,1,0,0:0:0:0:
200,120,175714,1,0,0:0:0:0:
200,120,175913,1,0,0:0:0:0:
208,96,176117,1,0,0:0:0:0:
232,136,176485,1,0,0:0:0:0:
240,120,176644,1,0,0:0:0:0:
264,72,177054,1,0,0:0:0:0:
240,104,177386,1,0,0:0:0:0:
240,104,177659,1,0,0:0:0:0:
216,104,180282,1,0,0:0:0:0:
272,136,181218,1,0,0:0:0:0:
256,168,182593,1,0,0:0:0:0:
288,120,183070,1,0,0:0:0:0:
288,120,183938,1,0,0:0:0:0:
288,120,184786,1,0,0:0:0:0:
64,360,185515,1,0,0:0:0:0:
288,88,186428,1,0,0:0:0:0:
72,384,187236,1,0,0:0:0:0:
336,72,188146,1,0,0:0:0:0:
