osu file format v14

[General]
AudioFilename: b4fa393446.mp3
AudioLeadIn: 1500
PreviewTime: 41818
Countdown: 0
SampleSet: None
StackLeniency: 0.7
Mode: 0
LetterboxInBreaks: 0
WidescreenStoryboard: 0

[Editor]
DistanceSpacing: 1.1
BeatDivisor: 4
GridSize: 4
TimelineZoom: 1.5

[Metadata]
Title:Sugar Song to Bitter Step
TitleUnicode:シュガーソングとビターステップ
Artist:UNISON SQUARE GARDEN
ArtistUnicode:UNISON SQUARE GARDEN
Creator:tutuhaha
Version:Normal
Source:血界戦線
Tags:Blood Blockade Battlefront Kekkai Sensen Ending
BeatmapID:681247
BeatmapSetID:302787

[Difficulty]
HPDrainRate:4
CircleSize:3
OverallDifficulty:4
ApproachRate:5
SliderMultiplier:1.5
SliderTickRate:1

[Events]
//Background and Video events
Video,0,"optc.flv"
0,0,"aaaaa.png",0,0
//Break Periods
//Storyboard Layer 0 (Background)
//Storyboard Layer 1 (Fail)
//Storyboard Layer 2 (Pass)
//Storyboard Layer 3 (Foreground)
//Storyboard Sound Samples

[TimingPoints]
114,454.545454545455,4,3,1,80,1,0
13182,-100,4,3,1,80,0,0
14659,-100,4,3,1,80,0,0
27614,-100,4,3,1,80,0,0
27954,-100,4,3,1,80,0,0
29204,-100,4,3,1,80,0,0
42841,-100,4,3,1,80,0,0
43750,-100,4,3,1,80,0,1
58295,-100,4,3,1,80,0,0
63295,-100,4,3,1,80,0,0
64204,-100,4,3,1,80,0,0
64659,-100,4,3,1,80,0,0
65114,-100,4,3,1,80,0,0
65568,-100,4,3,1,80,0,1
85454,-100,4,3,1,80,0,0
85568,-100,4,3,1,5,0,0
86932,-100,4,3,1,40,0,0

[Colours]
Combo1 : 240,170,38
Combo2 : 23,104,86
Combo3 : 150,5,81
Combo4 : 18,124,255

[HitObjects]
28,44,114,6,0,P|88:48|164:112,1,150,4|0,2:0|1:0,0:0:0:0:
212,164,795,1,0,0:0:0:0:
260,232,1023,2,0,P|324:248|404:228,1,150,0|0,0:0|1:0,0:0:0:0:
412,64,1932,6,0,L|240:40,1,150,0|0,0:0|1:0,0:0:0:0:
188,80,2614,1,0,0:0:0:0:
116,120,2841,2,0,P|96:176|140:276,1,150,0|0,0:0|1:0,0:0:0:0:
280,308,3750,5,0,0:0:0:0:
328,240,3977,1,0,0:0:0:0:
368,168,4204,2,0,P|388:112|380:48,2,112.5,0|0|0,1:0|0:0|0:0,0:0:0:0:
284,172,5114,1,0,1:0:0:0:
120,192,5568,6,0,P|136:240|140:276,1,75
204,316,6023,2,0,P|236:348|312:372,2,112.5,0|0|0,1:0|0:0|0:0,0:0:0:0:
228,236,6932,1,0,1:0:0:0:
400,232,7386,5,0,0:0:0:0:
324,84,7841,2,0,P|268:60|172:68,1,150,0|0,1:0|0:0,0:0:0:0:
92,208,8750,2,0,L|180:208,1,75,0|0,1:0|0:0,0:0:0:0:
196,284,9204,6,0,P|236:252|220:148,1,150,0|0,0:0|1:0,0:0:0:0:
184,92,9886,1,0,0:0:0:0:
112,48,10114,2,0,P|83:71|71:106,2,75,0|0|0,0:0|0:0|1:0,0:0:0:0:
280,60,11023,6,0,L|368:56,1,75
372,136,11477,2,0,P|377:201|428:238,2,112.5,0|0|0,1:0|0:0|0:0,0:0:0:0:
452,160,12386,1,0,1:0:0:0:
296,220,12841,6,0,P|212:200|224:320,1,225,4|2,0:0|0:2,0:0:0:0:
288,308,13750,1,4,0:0:0:0:
128,352,14204,2,0,L|40:336,1,75,0|0,1:0|0:0,0:0:0:0:
24,260,14659,6,0,P|56:228|76:112,1,150,4|0,2:0|1:0,0:0:0:0:
108,52,15341,1,0,0:0:0:0:
188,36,15568,2,0,L|344:36,1,150,0|0,0:0|1:0,0:0:0:0:
292,196,16477,6,0,P|336:232|348:264,2,75,0|0|0,0:0|0:0|1:0,0:0:0:0:
204,336,17386,2,0,P|152:320|92:232,1,150,0|0,0:0|1:0,0:0:0:0:
112,164,18068,1,0,0:0:0:0:
160,96,18295,5,0,0:0:0:0:
304,176,18750,2,0,B|304:92|304:92|284:40,2,112.5,0|0|0,1:0|0:0|0:0,0:0:0:0:
356,240,19659,1,0,1:0:0:0:
232,344,20114,6,0,B|164:344|164:344|132:360,1,75
116,276,20568,2,0,P|132:216|104:156,2,112.5,0|0|0,1:0|0:0|0:0,0:0:0:0:
76,348,21477,1,0,1:0:0:0:
32,188,21932,5,0,0:0:0:0:
148,72,22386,1,0,1:0:0:0:
252,200,22841,2,0,P|320:228|408:208,1,150,0|0,0:0|1:0,0:0:0:0:
421,137,23523,1,0,0:0:0:0:
360,80,23750,6,0,L|268:80,1,75
216,36,24204,2,0,L|124:36,1,75,0|0,1:0|0:0,0:0:0:0:
60,36,24659,1,0,0:0:0:0:
96,112,24886,2,0,P|56:120|16:108,1,75,0|0,0:0|1:0,0:0:0:0:
40,276,25568,6,0,P|80:280|116:304,1,75
160,364,26023,2,0,L|320:364,1,150,0|0,1:0|0:0,0:0:0:0:
468,320,26932,1,0,1:0:0:0:
428,160,27386,6,0,P|404:120|392:68,1,75,4|2,0:0|0:2,0:0:0:0:
328,44,27841,2,0,B|216:44|216:44|168:12,1,150,0|2,0:0|0:2,0:0:0:0:
116,68,28523,2,0,P|148:116|124:216,1,150
72,256,29204,5,4,0:2:0:0:
212,344,29659,1,0,1:0:0:0:
212,180,30114,1,8,0:0:0:0:
212,180,31023,5,4,0:2:0:0:
52,148,31477,1,0,1:0:0:0:
164,24,31932,1,8,0:0:0:0:
212,180,32386,1,4,0:2:0:0:
263,245,32614,1,0,0:0:0:0:
323,301,32841,6,0,L|403:301,1,75,8|8,0:0|0:0,0:0:0:0:
416,220,33295,2,0,L|500:220,1,75,8|8,0:0|0:0,0:0:0:0:
488,136,33750,2,0,B|392:136|392:136|348:120,2,112.5,8|0|0,0:0|0:0|0:0,0:0:0:0:
488,52,34659,6,0,L|404:52,1,75,8|8,0:0|0:0,0:0:0:0:
332,36,35114,2,0,L|240:36,1,75,8|8,0:0|0:0,0:0:0:0:
188,80,35568,2,0,B|188:176|188:176|172:220,2,112.5,8|0|0,0:0|0:0|0:0,0:0:0:0:
120,36,36477,5,4,0:1:0:0:
44,180,36932,1,2,0:2:0:0:
132,320,37386,1,0,0:0:0:0:
296,320,37841,1,2,0:2:0:0:
384,180,38295,6,0,P|300:172|248:128,1,150,0|2,0:0|0:2,0:0:0:0:
304,68,38977,1,0,0:0:0:0:
376,24,39204,2,0,P|460:32|512:76,1,150,0|8,0:0|0:0,0:0:0:0:
468,144,39886,1,0,0:0:0:0:
456,224,40114,6,0,P|456:292|472:344,2,112.5,4|2|2,0:1|0:0|0:0,0:0:0:0:
384,180,41023,2,0,P|364:132|264:108,1,150,4|0,0:0|1:0,0:0:0:0:
204,144,41704,1,0,0:0:0:0:
204,144,42841,6,0,B|116:144|116:144|56:168,1,150,4|4,0:2|0:2,0:0:0:0:
44,332,43750,6,0,P|96:316|124:292,1,75,2|0,0:0|0:0,0:0:0:0:
136,224,44204,2,0,L|216:224,1,75,0|0,1:0|0:0,0:0:0:0:
288,252,44659,2,0,P|304:200|368:156,2,112.5
280,336,45568,6,0,B|388:336|388:336|432:368,1,150,0|0,0:0|1:0,0:0:0:0:
468,292,46250,1,0,0:0:0:0:
468,208,46477,2,0,L|468:88,2,112.5
384,200,47386,6,0,B|384:108|384:108|340:48,1,150,0|0,0:0|1:0,0:0:0:0:
272,36,48068,1,0,0:0:0:0:
192,60,48295,2,0,B|157:106|157:106|157:198,1,150,0|0,0:0|1:0,0:0:0:0:
160,280,48977,1,0,0:0:0:0:
168,364,49204,6,0,P|104:344|84:244,2,150,4|4|4,0:2|0:2|0:2,0:0:0:0:
256,224,50568,1,4,0:2:0:0:
344,364,51023,6,0,P|408:344|428:244,1,150,2|0,0:0|1:0,0:0:0:0:
352,280,51704,1,0,0:0:0:0:
384,204,51932,2,0,P|440:188|504:228,2,112.5
300,208,52841,6,0,P|268:192|220:192,1,75
152,220,53295,2,0,L|64:220,1,75,0|0,1:0|0:0,0:0:0:0:
64,140,53750,2,0,P|120:116|152:52,2,112.5
64,56,54659,5,0,0:0:0:0:
36,220,55114,1,0,1:0:0:0:
136,348,55568,1,0,0:0:0:0:
180,188,56023,1,0,1:0:0:0:
228,32,56477,6,0,P|284:32|348:104,1,150,0|0,0:0|1:0,0:0:0:0:
436,236,57386,2,0,L|348:252,1,75
336,328,57841,2,0,L|248:344,1,75,0|0,1:0|0:0,0:0:0:0:
196,292,58295,6,0,P|128:224|48:240,1,150,8|8,0:0|0:0,0:0:0:0:
84,60,59204,2,0,L|208:64,1,112.5,8|8,0:0|0:0,0:0:0:0:
280,68,59773,1,8,0:0:0:0:
364,72,60000,1,8,0:0:0:0:
364,72,61477,5,4,2:0:0:0:
432,224,61932,5,4,0:2:0:0:
348,368,62386,2,0,P|300:336|280:272,2,112.5,2|0|2,0:2|0:0|0:2,0:0:0:0:
400,304,63295,2,0,L|476:304,2,75,2|2|4,0:2|0:2|0:2,0:0:0:0:
316,160,64204,5,4,0:2:0:0:
188,264,64659,1,4,0:2:0:0:
112,120,65114,1,4,0:2:0:0:
188,264,65568,6,0,P|140:288|88:296,1,75,2|0,0:0|0:0,0:0:0:0:
36,300,66023,2,0,L|24:200,1,75,0|0,1:0|0:0,0:0:0:0:
16,144,66477,2,0,P|44:100|120:56,2,112.5
92,180,67386,6,0,P|168:176|228:108,1,150,0|0,0:0|1:0,0:0:0:0:
264,60,68068,1,0,0:0:0:0:
344,52,68295,2,0,L|460:44,2,112.5
316,128,69204,5,0,0:0:0:0:
416,260,69659,1,0,1:0:0:0:
280,352,70114,1,0,0:0:0:0:
176,224,70568,1,0,1:0:0:0:
28,148,71023,6,0,P|4:236|40:304,2,150,4|4|4,0:2|0:2|0:2,0:0:0:0:
168,60,72386,1,4,0:2:0:0:
332,32,72841,6,0,P|411:77|433:150,1,150,2|0,0:0|1:0,0:0:0:0:
436,212,73523,1,0,0:0:0:0:
432,296,73750,2,0,B|368:344|368:344|320:344,2,112.5
436,212,74659,6,0,P|352:212|296:152,1,150,0|0,0:0|1:0,0:0:0:0:
272,96,75341,1,0,0:0:0:0:
216,36,75568,2,0,B|132:36|132:36|88:56,2,112.5
272,96,76477,5,0,0:0:0:0:
368,232,76932,1,0,1:0:0:0:
468,100,77386,1,0,0:0:0:0:
368,232,77841,1,0,1:0:0:0:
244,340,78295,6,0,L|215:192,1,150,0|0,0:0|1:0,0:0:0:0:
68,116,79204,2,0,P|88:80|116:56,1,75
192,36,79659,2,0,L|276:36,1,75,0|0,1:0|0:0,0:0:0:0:
348,48,80114,6,0,P|400:88|500:52,1,150,8|8,0:0|0:0,0:0:0:0:
476,240,81023,2,0,L|376:304,1,112.5,8|8,0:0|0:0,0:0:0:0:
312,344,81591,1,8,0:0:0:0:
228,348,81818,6,0,P|192:308|112:296,1,112.5,8|0,0:0|0:0,0:0:0:0:
88,224,82386,2,0,P|76:156|116:104,2,112.5,0|0|0,1:0|0:0|0:0,0:0:0:0:
160,180,83295,2,0,L|240:180,1,75,0|0,1:0|0:0,0:0:0:0:
316,176,83750,6,0,P|364:136|380:36,1,150,8|8,0:0|0:0,0:0:0:0:
220,44,84659,2,0,P|148:40|84:60,1,112.5,8|8,0:0|0:0,0:0:0:0:
60,116,85227,1,8,0:0:0:0:
140,132,85454,6,0,P|224:136|96:176,1,487.5,8|0,0:0|0:0,0:0:0:0:
