osu file format v14

[General]
AudioFilename: b4fa393446.mp3
AudioLeadIn: 1500
PreviewTime: 41818
Countdown: 0
SampleSet: None
StackLeniency: 0.7
Mode: 0
LetterboxInBreaks: 0
WidescreenStoryboard: 0

[Editor]
DistanceSpacing: 1.7
BeatDivisor: 4
GridSize: 4
TimelineZoom: 1.5

[Metadata]
Title:Sugar Song to Bitter Step
TitleUnicode:シュガーソングとビターステップ
Artist:UNISON SQUARE GARDEN
ArtistUnicode:UNISON SQUARE GARDEN
Creator:tutuhaha
Version:Insane
Source:血界戦線
Tags:Blood Blockade Battlefront Kekkai Sensen Ending
BeatmapID:680751
BeatmapSetID:302787

[Difficulty]
HPDrainRate:7
CircleSize:4
OverallDifficulty:8
ApproachRate:8.5
SliderMultiplier:1.9
SliderTickRate:1

[Events]
//Background and Video events
Video,0,"optc.flv"
0,0,"aaaaa.png",0,0
//Break Periods
//Storyboard Layer 0 (Background)
//Storyboard Layer 1 (Fail)
//Storyboard Layer 2 (Pass)
//Storyboard Layer 3 (Foreground)
//Storyboard Sound Samples

[TimingPoints]
114,454.545454545455,4,3,1,80,1,0
13182,-76.9230769230769,4,3,1,80,0,0
14659,-100,4,3,1,80,0,0
27614,-90.9090909090909,4,3,1,80,0,0
27954,-76.9230769230769,4,3,1,80,0,0
29204,-100,4,3,1,80,0,0
42841,-83.3333333333333,4,3,1,80,0,0
43750,-100,4,3,1,80,0,1
58295,-100,4,3,1,80,0,0
64204,-76.9230769230769,4,3,1,80,0,0
64659,-71.4285714285714,4,3,1,80,0,0
65114,-66.6666666666667,4,3,1,80,0,0
65568,-100,4,3,1,80,0,1
85454,-100,4,3,1,80,0,0
85568,-100,4,3,1,5,0,0
86932,-100,4,3,1,40,0,0

[Colours]
Combo1 : 240,170,38
Combo2 : 23,104,86
Combo3 : 150,5,81
Combo4 : 18,124,255

[HitObjects]
80,212,114,5,4,2:0:0:0:
164,120,341,1,0,0:0:0:0:
168,244,568,2,0,P|124:292|72:304,1,95,0|0,1:0|0:0,0:0:0:0:
60,308,909,1,0,0:0:0:0:
24,320,1023,2,0,L|124:368,1,95
191,343,1364,2,0,P|247:327|311:335,1,95
444,344,1818,6,0,P|392:312|372:220,1,142.5
424,124,2386,1,0,1:0:0:0:
332,44,2614,1,0,0:0:0:0:
332,44,2727,1,0,0:0:0:0:
332,44,2841,2,0,P|276:48|212:36,1,95
159,16,3182,1,0,0:0:0:0:
56,232,3523,1,0,0:0:0:0:
152,156,3750,6,0,P|220:156|276:176,1,95
340,244,4204,1,0,1:0:0:0:
340,244,4318,1,0,0:0:0:0:
456,196,4545,2,0,P|468:260|432:336,1,142.5
352,160,5114,2,0,L|360:100,1,47.5,0|0,1:0|0:0,0:0:0:0:
292,328,5454,6,0,P|249:272|254:202,1,142.5
296,84,6023,1,0,1:0:0:0:
184,36,6250,1,0,0:0:0:0:
184,36,6364,2,0,P|132:56|72:44,1,95
48,120,6704,2,0,P|112:136|168:128,1,95,0|0,0:0|1:0,0:0:0:0:
312,52,7159,1,0,0:0:0:0:
296,84,7273,6,0,P|276:152|288:188,1,95
320,244,7614,1,0,0:0:0:0:
440,324,7841,1,0,1:0:0:0:
320,244,8068,1,0,0:0:0:0:
344,212,8182,2,0,P|372:176|440:160,1,95
500,152,8523,1,0,0:0:0:0:
408,348,8750,2,0,L|296:348,1,95,0|0,1:0|0:0,0:0:0:0:
212,204,9204,5,0,0:0:0:0:
164,320,9432,1,0,0:0:0:0:
132,148,9659,1,0,1:0:0:0:
304,252,9886,1,0,0:0:0:0:
312,40,10114,2,0,P|272:84|260:132,1,95
304,252,10568,1,0,1:0:0:0:
196,308,10795,1,0,0:0:0:0:
388,324,11023,6,0,P|448:340|476:384,1,95
384,216,11477,2,0,P|348:172|288:160,1,95,0|0,1:0|0:0,0:0:0:0:
240,188,11818,2,0,P|192:216|124:212,1,95
80,120,12159,2,0,B|160:128|160:128|188:152,1,95,0|0,0:0|1:0,0:0:0:0:
304,240,12614,1,0,0:0:0:0:
272,20,12841,6,0,P|248:72|248:120,1,95,4|0,0:0|0:0,0:0:0:0:
304,240,13182,2,0,B|336:180|328:132|328:132|312:144|308:160,1,123.499994346619,2|0,0:2|0:0,0:0:0:0:
240,188,13523,1,2,0:2:0:0:
240,188,13750,6,0,B|176:168|116:176|116:176|176:224|208:232,1,185.249991519928,4|0,0:0|0:0,0:0:0:0:
224,268,14204,1,0,1:0:0:0:
232,280,14318,1,0,0:0:0:0:
240,292,14432,1,0,0:0:0:0:
424,356,14659,6,0,P|356:352|304:336,1,95,4|0,2:0|0:0,0:0:0:0:
328,220,15114,1,0,1:0:0:0:
428,56,15341,1,0,0:0:0:0:
312,92,15568,1,0,0:0:0:0:
412,168,15795,1,0,0:0:0:0:
232,240,16023,1,0,1:0:0:0:
232,240,16136,1,0,0:0:0:0:
116,368,16364,6,0,P|144:304|132:216,1,142.5
64,136,16932,1,0,1:0:0:0:
136,36,17159,1,0,0:0:0:0:
279,152,17386,2,0,P|219:152|151:120,1,95
116,96,17727,2,0,P|146:147|152:222,1,95
144,264,18068,1,0,0:0:0:0:
144,264,18295,6,0,B|184:304|184:304|204:356,1,95
320,360,18750,1,0,1:0:0:0:
320,360,18864,1,0,0:0:0:0:
416,280,19091,2,0,P|368:244|300:240,1,95
252,224,19432,2,0,P|304:192|320:160,1,95,0|0,0:0|1:0,0:0:0:0:
344,84,19773,1,0,0:0:0:0:
344,84,20000,6,0,B|440:64|440:64|496:80,1,142.5
344,188,20568,2,0,L|284:200,1,47.5,0|0,1:0|0:0,0:0:0:0:
144,292,20909,2,0,P|216:280|284:300,1,142.5
388,364,21477,1,0,1:0:0:0:
344,188,21704,1,0,0:0:0:0:
316,160,21818,6,0,P|264:148|220:116,1,95
183,56,22159,1,0,0:0:0:0:
324,24,22386,1,0,1:0:0:0:
183,56,22614,1,0,0:0:0:0:
148,64,22727,2,0,P|105:96|79:144,1,95
71,214,23068,1,0,0:0:0:0:
144,312,23295,1,0,1:0:0:0:
32,368,23523,1,0,0:0:0:0:
224,356,23750,6,0,P|280:352|344:372,1,95
488,176,24204,2,0,L|376:216,1,95,0|0,1:0|0:0,0:0:0:0:
364,224,24545,1,0,0:0:0:0:
328,232,24659,2,0,P|264:220|220:236,1,95
156,320,25114,1,0,1:0:0:0:
44,364,25341,1,0,0:0:0:0:
72,244,25568,6,0,P|120:212|176:208,1,95
268,136,26023,2,0,L|289:93,2,47.5,0|0|0,1:0|0:0|0:0,0:0:0:0:
256,172,26364,2,0,P|312:196|344:236,1,95
440,324,26818,1,0,0:0:0:0:
440,324,26932,2,0,P|372:312|320:336,1,95,0|0,1:0|0:0,0:0:0:0:
152,348,27386,5,4,0:0:0:0:
152,348,27500,1,0,0:0:0:0:
152,348,27614,2,0,P|208:328|236:284,1,104.500003189087,2|0,0:2|0:0,0:0:0:0:
140,184,27954,2,0,B|156:268|156:268|140:280|120:240,1,123.499994346619,2|0,0:2|0:0,0:0:0:0:
104,108,28295,2,0,P|180:116|216:172,1,123.499994346619,2|0,0:2|0:0,0:0:0:0:
300,272,28750,1,0,1:0:0:0:
288,296,28864,1,0,0:0:0:0:
280,320,28977,1,0,0:0:0:0:
304,192,29204,6,0,P|356:216|380:272,1,95,4|0,0:2|0:0,0:0:0:0:
216,224,29659,2,0,L|168:192,1,47.5,0|0,0:0|1:0,0:0:0:0:
176,197,30114,1,8,0:0:0:0:
140,108,31023,6,0,P|192:84|216:28,1,95,4|0,0:2|0:0,0:0:0:0:
52,76,31477,2,0,L|4:108,1,47.5,0|0,0:0|1:0,0:0:0:0:
12,102,31932,1,8,0:0:0:0:
12,102,32386,2,0,P|60:136|72:184,1,95,4|0,0:2|0:0,0:0:0:0:
44,288,32841,5,8,0:0:0:0:
44,288,33068,1,8,0:0:0:0:
184,144,33295,1,8,0:0:0:0:
184,144,33523,1,8,0:0:0:0:
172,268,33750,1,8,0:0:0:0:
116,84,33977,1,8,0:0:0:0:
148,64,34091,1,0,0:0:0:0:
184,56,34204,1,0,0:0:0:0:
220,64,34318,1,0,0:0:0:0:
252,84,34432,1,0,0:0:0:0:
268,120,34545,1,0,0:0:0:0:
272,156,34659,5,8,0:0:0:0:
272,156,34886,1,8,0:0:0:0:
444,264,35114,1,8,0:0:0:0:
444,264,35341,1,8,0:0:0:0:
388,152,35568,1,8,0:0:0:0:
288,316,35795,1,8,0:0:0:0:
256,336,35909,1,0,0:0:0:0:
220,344,36023,1,0,0:0:0:0:
184,336,36136,1,0,0:0:0:0:
152,316,36250,1,0,0:0:0:0:
136,280,36364,1,0,0:0:0:0:
132,244,36477,6,0,P|136:188|120:140,1,95,4|0,0:1|0:0,0:0:0:0:
272,26,36932,2,0,P|225:25|180:40,1,95,2|0,0:2|0:0,0:0:0:0:
32,220,37386,2,0,P|79:220|124:206,1,95
336,124,37841,2,0,L|208:108,1,95,2|0,0:2|0:0,0:0:0:0:
204,108,38182,1,0,0:0:0:0:
168,104,38295,5,0,0:0:0:0:
76,188,38523,1,0,0:0:0:0:
8,48,38750,1,2,0:2:0:0:
136,96,38977,1,0,0:0:0:0:
316,104,39204,2,0,P|280:60|228:40,1,95
164,240,39659,1,8,0:0:0:0:
164,240,39773,1,0,0:0:0:0:
164,240,39886,2,0,P|188:228|232:224,1,47.5
284,260,40114,6,0,P|312:228|328:156,1,95,4|0,0:1|0:0,0:0:0:0:
352,100,40454,2,0,P|396:136|444:152,1,95,2|0,0:0|0:0,0:0:0:0:
500,104,40795,1,2,0:0:0:0:
492,292,41023,1,4,0:0:0:0:
460,276,41136,1,0,0:0:0:0:
424,264,41250,1,0,0:0:0:0:
388,260,41364,1,0,0:0:0:0:
352,256,41477,2,0,P|320:256|292:268,1,47.5,0|0,1:0|0:0,0:0:0:0:
264,332,41704,2,0,P|233:342|211:363,1,47.5
40,356,42614,5,0,0:0:0:0:
40,356,42727,1,0,0:0:0:0:
40,356,42841,2,0,B|116:324|144:244|144:244|124:260,1,170.999994781494,4|0,0:2|0:0,0:0:0:0:
248,284,43295,2,0,B|328:302|369:376|369:376|347:363,1,170.999994781494,4|0,0:2|0:0,0:0:0:0:
444,352,43750,6,0,P|432:308|400:256,1,95,2|0,0:0|0:0,0:0:0:0:
320,180,44204,1,0,1:0:0:0:
200,152,44432,1,0,0:0:0:0:
200,152,44545,1,0,0:0:0:0:
200,152,44659,2,0,P|176:124|148:112,2,47.5
128,192,45000,2,0,P|60:206|1:171,1,142.5
104,64,45568,6,0,P|141:34|188:33,1,95
268,152,46023,2,0,L|380:164,1,95,0|0,1:0|0:0,0:0:0:0:
436,124,46364,1,0,0:0:0:0:
436,124,46477,2,0,P|404:180|396:232,1,95
416,292,46818,2,0,B|352:300|324:252|324:252|336:300,1,142.5
168,364,47386,5,0,0:0:0:0:
220,173,47614,1,0,0:0:0:0:
139,253,47841,1,0,1:0:0:0:
250,283,48068,1,0,0:0:0:0:
58,334,48295,5,0,0:0:0:0:
110,143,48523,1,0,0:0:0:0:
29,223,48750,1,0,1:0:0:0:
250,283,48977,1,0,0:0:0:0:
192,72,49204,6,0,P|172:128|164:184,1,95,4|0,0:2|0:0,0:0:0:0:
277,338,49659,2,0,P|287:292|304:248,1,95,4|0,0:2|0:0,0:0:0:0:
392,160,50114,1,4,0:2:0:0:
492,232,50341,1,0,0:0:0:0:
492,232,50454,2,0,P|440:248|400:292,1,95
376,352,50795,1,0,0:0:0:0:
160,344,51023,6,0,P|216:328|256:296,1,95,2|0,0:0|0:0,0:0:0:0:
284,192,51477,1,0,1:0:0:0:
192,108,51704,1,0,0:0:0:0:
192,108,51818,1,0,0:0:0:0:
192,108,51932,2,0,P|160:88|120:80,2,47.5
276,112,52273,2,0,P|324:88|420:112,1,142.5
428,320,52841,6,0,P|384:284|360:228,1,95
224,272,53295,2,0,L|112:320,1,95,0|0,1:0|0:0,0:0:0:0:
60,344,53636,1,0,0:0:0:0:
60,344,53750,2,0,P|40:284|48:244,1,95
76,176,54091,2,0,B|64:128|16:112|16:112|72:80,1,142.5
240,20,54659,5,0,0:0:0:0:
168,120,54886,1,0,0:0:0:0:
216,236,55114,2,0,P|256:276|272:328,1,95,0|0,1:0|0:0,0:0:0:0:
336,360,55454,2,0,P|352:312|344:240,1,95
316,192,55795,1,0,0:0:0:0:
384,56,56023,2,0,L|320:80,1,47.5,0|0,1:0|0:0,0:0:0:0:
120,28,56364,6,0,P|204:32|256:72,1,142.5
362,203,56932,2,0,L|316:192,1,47.5,0|0,1:0|0:0,0:0:0:0:
420,320,57273,2,0,P|488:312|520:288,1,95
472,224,57614,2,0,P|464:192|468:160,1,47.5
456,96,57841,1,0,1:0:0:0:
416,88,57954,1,0,0:0:0:0:
376,72,58068,1,0,0:0:0:0:
340,48,58182,1,0,0:0:0:0:
308,20,58295,5,8,0:0:0:0:
52,252,58750,1,8,0:0:0:0:
224,32,59204,2,0,P|244:76|288:100,1,95,8|0,0:0|0:0,0:0:0:0:
356,136,59545,1,8,0:0:0:0:
396,304,59773,1,8,0:0:0:0:
496,164,60000,6,0,P|432:184|356:240,1,142.5,8|0,0:0|0:0,0:0:0:0:
308,284,60454,1,0,0:0:0:0:
308,284,60568,2,0,P|288:228|300:184,1,95
356,136,60909,2,0,P|352:80|320:36,1,95
248,24,61250,2,0,L|244:76,1,47.5,0|0,1:0|1:0,0:0:0:0:
236,156,61477,1,4,2:0:0:0:
40,304,61932,5,4,0:2:0:0:
108,200,62159,1,2,0:2:0:0:
168,308,62386,1,2,0:2:0:0:
168,308,62500,1,0,0:0:0:0:
320,360,62727,2,0,P|284:312|216:296,1,95
200,232,63068,1,2,0:2:0:0:
312,180,63295,1,2,0:2:0:0:
184,40,63523,1,2,0:2:0:0:
160,156,63750,6,0,P|212:120|304:100,1,142.5,4|0,0:2|0:0,0:0:0:0:
176,240,64204,2,0,P|109:224|111:88,1,185.249991519928,4|0,0:2|0:0,0:0:0:0:
249,190,64659,2,0,B|207:209|175:239|175:239|211:269|224:304|205:357,1,199.499993911743,4|0,0:2|0:0,0:0:0:0:
0,325,65114,2,0,B|46:278|133:309|133:309|92:328|77:357,1,213.750008153916,4|0,0:2|0:0,0:0:0:0:
210,336,65568,6,0,P|248:344|260:352,2,47.5,2|0|0,0:0|0:0|0:0,0:0:0:0:
436,344,66023,2,0,P|372:328|328:284,1,95,0|0,1:0|0:0,0:0:0:0:
304,240,66364,1,0,0:0:0:0:
304,240,66477,2,0,L|308:168,1,47.5
312,108,66704,1,0,0:0:0:0:
312,108,66818,2,0,P|292:52|192:36,1,142.5
76,136,67386,6,0,P|132:124|172:84,1,95
344,188,67841,2,0,L|240:160,1,95,0|0,1:0|0:0,0:0:0:0:
188,216,68182,1,0,0:0:0:0:
188,216,68295,2,0,P|172:276|192:332,1,95
304,344,68636,2,0,P|284:296|252:268,1,95
178,307,68977,1,0,0:0:0:0:
96,167,69204,5,0,0:0:0:0:
178,307,69432,1,0,0:0:0:0:
206,197,69659,1,0,1:0:0:0:
67,277,69886,1,0,0:0:0:0:
102,367,70114,5,0,0:0:0:0:
267,271,70341,1,0,0:0:0:0:
6,202,70568,1,0,1:0:0:0:
171,106,70795,1,0,0:0:0:0:
136,236,71023,5,4,0:2:0:0:
244,176,71250,1,0,0:0:0:0:
136,236,71477,1,4,1:2:0:0:
200,344,71704,1,0,0:0:0:0:
395,314,71932,6,0,P|354:290|308:284,1,95,4|0,0:2|0:0,0:0:0:0:
328,200,72273,2,0,P|380:172|432:172,1,95
500,188,72614,1,0,0:0:0:0:
280,300,72841,6,0,P|220:280|184:244,1,95,2|0,0:0|0:0,0:0:0:0:
128,160,73295,1,0,1:0:0:0:
120,36,73523,2,0,P|144:44|176:64,1,47.5
216,120,73750,2,0,P|236:140|276:160,1,47.5
332,124,73977,1,0,0:0:0:0:
332,124,74091,2,0,P|280:160|296:252,1,142.5
480,352,74659,6,0,P|424:332|360:344,1,95
248,316,75114,2,0,L|136:344,1,95,0|0,1:0|0:0,0:0:0:0:
72,360,75454,1,0,0:0:0:0:
72,360,75568,2,0,P|68:312|40:260,1,95
32,184,75909,1,0,0:0:0:0:
240,36,76250,1,0,0:0:0:0:
156,124,76477,6,0,P|144:184|172:244,1,95
332,312,76932,2,0,P|296:260|248:240,1,95,0|0,1:0|0:0,0:0:0:0:
200,292,77273,2,0,P|144:304|80:284,1,95
36,252,77614,1,0,0:0:0:0:
75,93,77841,2,0,L|84:140,1,47.5,0|0,1:0|0:0,0:0:0:0:
116,316,78182,6,0,P|132:232|196:180,1,142.5
270,56,78750,2,0,L|244:96,1,47.5,0|0,1:0|0:0,0:0:0:0:
272,280,79091,2,0,P|272:220|232:152,1,95
184,148,79432,2,0,P|164:124|152:96,1,47.5
116,36,79659,1,0,1:0:0:0:
80,60,79773,1,0,0:0:0:0:
52,92,79886,1,0,0:0:0:0:
36,132,80000,1,0,0:0:0:0:
28,176,80114,5,8,0:0:0:0:
312,360,80568,1,8,0:0:0:0:
32,260,81023,2,0,P|88:236|112:196,1,95,8|0,0:0|0:0,0:0:0:0:
120,124,81364,1,8,0:0:0:0:
192,328,81591,1,8,0:0:0:0:
348,192,81818,6,0,P|268:188|200:224,1,142.5,8|0,0:0|0:0,0:0:0:0:
132,244,82273,1,0,0:0:0:0:
132,244,82386,2,0,P|72:228|32:200,1,95,0|0,1:0|0:0,0:0:0:0:
56,124,82727,2,0,P|112:100|164:92,1,95
216,48,83068,2,0,L|276:64,1,47.5
344,88,83295,1,0,1:0:0:0:
224,264,83523,1,0,0:0:0:0:
400,240,83750,5,8,0:0:0:0:
356,232,83864,1,0,0:0:0:0:
316,216,83977,1,0,0:0:0:0:
280,196,84091,1,0,0:0:0:0:
252,164,84204,2,0,P|240:152|192:128,1,47.5,8|0,0:0|0:0,0:0:0:0:
144,188,84432,2,0,P|128:180|75:174,1,47.5
40,292,84659,6,0,P|63:287|84:277,1,47.5,8|0,0:0|0:0,0:0:0:0:
172,276,84886,1,0,0:0:0:0:
172,276,85000,2,0,B|236:284|236:284|280:300,1,95,8|8,0:0|0:0,0:0:0:0:
392,184,85454,6,0,B|384:144|424:120|424:120|384:104|392:64|392:64|352:56|336:24|336:24|296:32|256:64|256:64|216:32|176:24|176:24|160:56|120:64|120:64|128:104|88:120|88:120|128:144|120:184,1,617.5,8|0,0:0|0:0,0:0:0:0:
