osu file format v14

[General]
AudioFilename: suger song to bitter step.mp3
AudioLeadIn: 0
PreviewTime: 211244
Countdown: 0
SampleSet: Soft
StackLeniency: 0.7
Mode: 0
LetterboxInBreaks: 1
WidescreenStoryboard: 0

[Editor]
Bookmarks: 9425,16698,23971,38516,53062,67607,85789,93062,107607,122153,136698,143971,151244,162153,178516,185789,196698,203971,211244,232380,233062,240335,249198
DistanceSpacing: 1.4
BeatDivisor: 4
GridSize: 4
TimelineZoom: 3.299998

[Metadata]
Title:Sugar Song to Bitter Step
TitleUnicode:シュガーソングとビターステップ
Artist:UNISON SQUARE GARDEN
ArtistUnicode:UNISON SQUARE GARDEN
Creator:Rare
Version:Collab
Source:血界戦線
Tags:
BeatmapID:725578
BeatmapSetID:326853

[Difficulty]
HPDrainRate:7
CircleSize:4
OverallDifficulty:8
ApproachRate:9
SliderMultiplier:1.7
SliderTickRate:1

[Events]
//Background and Video events
0,0,"aaa.jpg",0,0
//Break Periods
2,136899,143371
//Storyboard Layer 0 (Background)
//Storyboard Layer 1 (Fail)
//Storyboard Layer 2 (Pass)
//Storyboard Layer 3 (Foreground)
//Storyboard Sound Samples

[TimingPoints]
335,454.545454545455,4,2,1,60,1,0
3971,-100,4,2,1,50,0,0
5789,-100,4,2,1,60,0,0
13062,-90.9090909090909,4,2,1,60,0,0
13357,-90.9090909090909,4,2,1,5,0,0
13471,-90.9090909090909,4,2,1,60,0,0
13811,-90.9090909090909,4,2,1,5,0,0
13925,-90.9090909090909,4,2,1,60,0,0
14266,-90.9090909090909,4,2,1,5,0,0
14380,-90.9090909090909,4,2,1,60,0,0
14721,-90.9090909090909,4,2,1,5,0,0
14834,-90.9090909090909,4,2,1,60,0,0
67607,-100,4,2,1,60,0,1
85789,-100,4,2,1,60,0,0
94766,-133.333333333333,4,2,1,60,0,0
96812,-100,4,2,1,60,0,0
111471,-100,4,1,1,40,0,0
114880,-100,4,2,1,40,0,0
118516,-100,4,1,1,40,0,0
120335,-100,4,2,1,60,0,0
122153,-100,4,2,1,60,0,1
123698,-83.3333333333333,4,2,1,60,0,1
123897,-83.3333333333333,4,2,1,5,0,1
123953,-83.3333333333333,4,2,1,60,0,1
124124,-83.3333333333333,4,2,1,5,0,1
124181,-83.3333333333333,4,2,1,60,0,1
124351,-83.3333333333333,4,2,1,5,0,1
124408,-83.3333333333333,4,2,1,60,0,1
124834,-100,4,2,1,60,0,1
136698,-100,4,2,1,60,0,0
151244,-100,4,1,1,40,0,0
160335,-100,4,1,1,50,0,0
161244,-100,4,1,1,60,0,0
162153,-100,4,2,1,60,0,0
163811,-71.4285714285714,4,2,1,60,0,0
178289,-100,4,2,1,60,0,0
178403,-133.333333333333,4,2,1,60,0,0
185675,-100,4,2,1,60,0,0
188062,-100,4,2,1,30,0,0
188516,-100,4,2,1,45,0,0
188971,-100,4,2,1,60,0,0
189425,-100,4,1,1,30,0,0
191244,-100,4,1,1,40,0,0
193062,-100,4,1,1,50,0,0
194880,-100,4,1,1,60,0,0
196698,-100,4,2,1,60,0,0
211244,-100,4,2,1,60,0,1
231016,-133.333333333333,4,2,1,60,0,1
233062,-100,4,2,1,60,0,0
248289,-100,4,2,1,15,0,0

[HitObjects]
88,244,335,5,0,0:0:0:0:
176,276,448,2,0,L|200:307,2,21.25,0|0|8,0:0|0:0|0:0,0:0:0:0:
160,192,675,1,0,0:0:0:0:
108,328,789,1,0,0:0:0:0:
264,320,903,2,0,L|273:358,2,21.25,0|0|8,0:0|0:0|0:0,0:0:0:0:
252,232,1130,6,0,L|340:240,1,85,8|8,0:0|0:0,0:0:0:0:
336,239,1585,2,0,P|364:252|384:272,1,42.5,8|8,0:0|0:0,0:0:0:0:
424,324,1850,1,0,0:0:0:0:
444,244,2001,1,0,0:0:0:0:
460,164,2153,5,8,0:0:0:0:
460,164,3971,6,0,P|472:128|464:80,1,85
372,40,4425,2,0,L|284:44,1,85,8|0,0:0|0:0,0:0:0:0:
208,88,4728,2,0,L|168:88,2,28.3333333333333
232,104,4994,1,8,0:0:0:0:
120,36,5107,2,0,P|100:84|112:132,1,85,0|8,0:0|0:0,0:0:0:0:
144,192,5486,5,0,0:0:0:0:
256,236,5638,1,0,0:0:0:0:
252,124,5789,1,8,0:0:0:0:
252,124,7607,6,0,L|248:208,1,85
296,300,8062,2,0,P|344:304|384:288,1,85,8|0,0:0|0:0,0:0:0:0:
452,260,8403,2,0,L|456:296,2,28.3333333333333
448,228,8630,1,8,0:0:0:0:
368,188,8744,1,0,0:0:0:0:
496,96,8971,5,8,0:0:0:0:
448,228,9122,1,0,0:0:0:0:
344,112,9274,1,0,0:0:0:0:
344,112,9425,6,8,P|301:113|252:124,2,85,8|8|8,0:3|0:3|0:3,0:3:0:0:
496,188,10107,2,8,L|440:196,1,42.5,8|8,0:3|0:3,0:3:0:0:
380,328,10335,1,8,0:3:0:0:
380,328,10448,1,8,0:3:0:0:
360,208,10675,5,8,0:3:0:0:
360,208,10903,2,0,L|336:124,1,85
324,85,11244,2,8,P|348:72|416:88,2,85,12|8|8,0:3|0:3|0:3,0:3:0:0:
192,32,11925,6,8,P|184:56|192:88,1,42.5,8|8,0:3|0:3,0:3:0:0:
200,124,12153,1,8,0:3:0:0:
200,124,12266,1,8,0:3:0:0:
52,192,12494,5,8,0:3:0:0:
76,184,12607,1,4,0:0:0:0:
100,184,12721,1,0,0:0:0:0:
124,192,12835,1,0,0:0:0:0:
432,108,13062,6,0,L|264:120,1,140.25000428009,4|0,0:0|0:0,0:0:0:0:
156,184,13516,2,0,L|312:196,1,140.25000428009,4|0,0:0|0:0,0:0:0:0:
440,256,13971,2,0,L|280:268,1,140.25000428009,4|0,0:0|0:0,0:0:0:0:
164,332,14425,2,0,L|328:344,1,140.25000428009,4|0,0:0|0:0,0:0:0:0:
332,344,14880,1,8,0:0:0:0:
328,312,14994,1,8,0:0:0:0:
324,280,15107,1,8,0:0:0:0:
320,248,15221,1,8,0:0:0:0:
388,104,15448,6,8,P|404:96|444:96,2,46.7500014266968
344,88,15789,1,8,0:3:0:0:
336,100,15865,1,8,0:3:0:0:
332,112,15941,1,8,0:3:0:0:
328,124,16016,1,8,0:3:0:0:
328,136,16092,1,8,0:3:0:0:
332,148,16168,1,8,0:3:0:0:
336,160,16244,2,0,P|284:176|196:144,1,140.25000428009,12|0,0:0|0:0,0:0:0:0:
56,244,16698,6,0,P|80:280|124:308,1,93.5000028533936,4|0,0:0|0:0,0:0:0:0:
212,280,17039,1,0,0:0:0:0:
212,280,17153,2,0,L|272:268|272:268,1,46.7500014266968,8|0,0:0|0:0,0:0:0:0:
424,244,17494,6,0,P|364:208|328:144,1,140.25000428009
312,36,18062,2,0,P|356:28|404:36,1,93.5000028533936,8|0,0:0|0:0,0:0:0:0:
404,148,18516,6,0,P|368:120|320:108,1,93.5000028533936
212,120,18857,1,0,0:0:0:0:
188,96,18971,1,8,0:0:0:0:
164,72,19085,2,0,P|124:96|92:144,1,93.5000028533936
168,220,19425,6,0,P|220:216|268:180,1,93.5000028533936
348,27,19880,2,0,P|306:49|276:84,1,93.5000028533936,8|0,0:0|0:0,0:0:0:0:
240,296,20335,6,0,P|284:272|312:239,1,93.5000028533936
328,212,20675,1,0,0:0:0:0:
340,180,20789,1,8,0:0:0:0:
344,148,20903,1,0,0:0:0:0:
256,76,21130,1,0,0:0:0:0:
328,252,21471,6,0,L|216:236,1,93.5000028533936,0|8,0:0|0:0,0:0:0:0:
124,220,21925,1,0,0:0:0:0:
328,252,22153,5,8,0:0:0:0:
252,124,22607,1,8,0:0:0:0:
144,228,23062,1,8,0:0:0:0:
256,192,23516,12,4,23971,0:0:0:0:
204,104,24198,6,0,L|104:108,1,93.5000028533936,0|8,0:0|0:0,0:0:0:0:
24,180,24653,1,0,0:0:0:0:
128,224,24880,2,0,P|144:252|140:316,1,93.5000028533936
204,368,25221,1,0,0:0:0:0:
204,368,25335,2,0,L|300:372,1,93.5000028533936,8|0,0:0|0:0,0:0:0:0:
472,248,25789,6,0,P|432:236|376:244,1,93.5000028533936
276,280,26244,2,0,L|264:184,1,93.5000028533936,8|0,0:0|0:0,0:0:0:0:
328,20,26698,2,0,P|336:56|316:116,1,93.5000028533936
240,116,27039,1,0,0:0:0:0:
240,116,27153,2,0,L|144:108,1,93.5000028533936,8|0,0:0|0:0,0:0:0:0:
48,164,27607,6,0,P|32:200|40:256,1,93.5000028533936
132,316,28062,1,8,0:0:0:0:
132,316,28175,2,0,P|164:304|236:312,1,93.5000028533936
288,352,28516,2,0,L|384:344,1,93.5000028533936
500,220,28971,1,8,0:0:0:0:
500,220,29085,2,0,L|404:228,1,93.5000028533936
340,184,29425,6,0,P|328:128|340:88,1,93.5000028533936
236,44,29880,2,0,L|132:52,1,93.5000028533936,8|0,0:0|0:0,0:0:0:0:
2,159,30221,1,0,0:0:0:0:
2,159,30335,2,0,L|96:152,1,93.5000028533936
188,220,30789,5,8,0:0:0:0:
292,156,31016,1,0,0:0:0:0:
292,156,31130,1,0,0:0:0:0:
292,156,31244,2,0,L|299:249,1,93.5000028533936
200,124,31698,1,8,0:0:0:0:
264,332,31925,1,0,0:0:0:0:
264,332,32039,1,0,0:0:0:0:
264,332,32153,2,0,P|317:335|361:308,1,93.5000028533936
456,276,32607,6,0,L|463:369,1,93.5000028533936,8|0,0:0|0:0,0:0:0:0:
388,208,33062,2,0,P|376:160|388:116,1,93.5000028533936
508,8,33516,2,0,P|520:56|508:100,1,93.5000028533936,8|0,0:0|0:0,0:0:0:0:
386,118,33971,1,0,0:0:0:0:
216,40,34198,1,0,0:0:0:0:
328,32,34425,2,0,L|424:24,1,93.5000028533936,8|0,0:0|0:0,0:0:0:0:
288,120,34880,5,0,0:0:0:0:
88,188,35107,1,0,0:0:0:0:
264,208,35335,2,0,P|308:208|352:176,1,93.5000028533936,8|0,0:0|0:0,0:0:0:0:
348,181,35675,2,0,P|372:116|336:48,1,140.25000428009
236,28,36244,2,0,L|136:36,1,93.5000028533936,8|0,0:0|0:0,0:0:0:0:
44,92,36698,5,0,0:0:0:0:
123,218,36925,2,0,L|120:172,1,46.7500014266968,8|0,0:0|0:0,0:0:0:0:
203,326,37266,2,0,L|200:280,1,46.7500014266968,8|0,0:0|0:0,0:0:0:0:
236,76,37607,6,0,P|272:120|264:208,1,140.25000428009,8|0,0:0|0:0,0:0:0:0:
216,264,38062,2,0,L|152:272,1,46.7500014266968,8|0,0:0|0:0,0:0:0:0:
96,304,38289,1,0,0:0:0:0:
152,120,38516,1,4,0:0:0:0:
28,220,38744,6,0,P|48:256|104:284,1,93.5000028533936,0|8,0:0|0:0,0:0:0:0:
240,228,39198,1,0,0:0:0:0:
296,64,39425,2,0,P|248:72|204:120,1,93.5000028533936
200,172,39766,1,0,0:0:0:0:
200,172,39880,2,0,L|92:200,1,93.5000028533936,8|0,0:0|0:0,0:0:0:0:
20,220,40335,5,0,0:0:0:0:
144,328,40562,1,0,0:0:0:0:
248,192,40789,2,0,L|140:220,1,93.5000028533936,8|0,0:0|0:0,0:0:0:0:
48,116,41244,2,0,L|156:88,1,93.5000028533936
212,112,41585,1,0,0:0:0:0:
212,112,41698,2,0,P|256:124|300:100,1,93.5000028533936,8|0,0:0|0:0,0:0:0:0:
432,40,42153,6,0,L|420:132,1,93.5000028533936
480,272,42607,1,8,0:0:0:0:
480,272,42721,2,0,P|448:252|392:256,1,93.5000028533936
348,312,43062,2,0,P|320:316|260:280,1,93.5000028533936
252,96,43516,1,8,0:0:0:0:
252,96,43630,2,0,L|140:72,1,93.5000028533936
104,28,43971,6,0,P|84:80|104:120,1,93.5000028533936
28,244,44425,2,0,L|132:232,1,93.5000028533936,8|0,0:0|0:0,0:0:0:0:
152,300,44766,1,0,0:0:0:0:
152,300,44880,2,0,L|256:288,1,93.5000028533936
404,284,45335,5,8,0:0:0:0:
280,212,45562,1,0,0:0:0:0:
280,212,45675,1,0,0:0:0:0:
280,212,45789,2,0,P|308:168|368:156,1,93.5000028533936
472,136,46244,2,0,P|456:104|392:64,1,93.5000028533936,8|0,0:0|0:0,0:0:0:0:
410,69,46585,1,0,0:0:0:0:
410,69,46698,2,0,P|384:56|304:52,1,93.5000028533936
80,140,47153,6,0,L|96:36,1,93.5000028533936,8|0,0:0|0:0,0:0:0:0:
236,128,47607,2,0,P|244:168|220:228,1,93.5000028533936
84,308,48062,2,0,P|76:268|100:208,1,93.5000028533936,8|0,0:0|0:0,0:0:0:0:
320,280,48516,1,0,0:0:0:0:
172,272,48744,1,0,0:0:0:0:
328,328,48971,2,0,P|360:296|356:236,1,93.5000028533936,8|0,0:0|0:0,0:0:0:0:
316,96,49425,5,0,0:0:0:0:
232,240,49653,1,0,0:0:0:0:
404,192,49880,1,8,0:0:0:0:
380,176,49994,1,0,0:0:0:0:
356,164,50107,1,0,0:0:0:0:
328,156,50221,6,0,L|304:212,1,46.7500014266968
200,212,50448,2,0,L|224:156,1,46.7500014266968
272,268,50675,2,0,B|256:300|256:300|228:332|196:328,1,93.5000028533936,8|8,0:0|0:0,0:0:0:0:
207,328,51016,1,8,0:0:0:0:
44,256,51244,5,8,0:0:0:0:
148,180,51471,1,8,0:0:0:0:
148,180,51585,1,0,0:0:0:0:
36,116,51812,1,8,0:0:0:0:
36,116,51925,1,0,0:0:0:0:
36,116,52039,1,0,0:0:0:0:
36,116,52153,1,8,0:0:0:0:
128,44,52380,6,0,L|324:60,1,187.000005706787,8|0,0:0|0:0,0:0:0:0:
396,292,53062,6,0,L|280:276,1,93.5000028533936,8|0,0:0|0:0,0:0:0:0:
220,188,53516,1,8,0:0:0:0:
172,228,53630,1,0,0:0:0:0:
172,228,53971,1,8,0:0:0:0:
76,316,54425,6,0,P|56:272|48:208,1,93.5000028533936
168,16,54880,2,0,P|159:61|140:104,1,93.5000028533936,8|0,0:0|0:0,0:0:0:0:
84,212,55335,1,0,0:0:0:0:
36,180,55448,1,8,0:0:0:0:
36,180,55789,1,8,0:0:0:0:
280,84,56244,5,8,0:0:0:0:
280,84,56471,1,0,0:0:0:0:
400,132,56698,5,8,0:0:0:0:
456,248,56925,1,8,0:0:0:0:
356,316,57153,2,0,P|308:324|264:316,1,93.5000028533936,8|8,0:0|0:0,0:0:0:0:
216,204,57607,1,8,0:0:0:0:
216,204,57835,5,0,0:0:0:0:
248,184,57948,1,0,0:0:0:0:
272,156,58062,1,8,0:0:0:0:
284,120,58175,1,0,0:0:0:0:
284,84,58289,1,0,0:0:0:0:
280,48,58403,1,0,0:0:0:0:
260,16,58516,1,8,0:0:0:0:
260,16,58744,5,0,0:0:0:0:
156,76,58971,1,8,0:0:0:0:
130,105,59084,1,0,0:0:0:0:
109,138,59198,1,0,0:0:0:0:
92,173,59311,1,0,0:0:0:0:
84,208,59425,2,0,P|132:248|180:260,1,93.5000028533936,8|0,0:0|0:0,0:0:0:0:
248,172,59766,1,0,0:0:0:0:
248,172,59880,2,0,P|292:176|352:224,1,93.5000028533936,8|0,0:0|0:0,0:0:0:0:
388,312,60335,6,0,P|432:280|456:240,1,93.5000028533936,4|0,0:0|0:0,0:0:0:0:
344,192,60789,1,8,0:0:0:0:
300,152,60903,2,0,P|276:116|264:56,1,93.5000028533936
220,24,61244,2,0,P|176:24|124:37,1,93.5000028533936
20,193,61698,6,0,P|66:195|120:188,1,93.5000028533936,8|0,0:0|0:0,0:0:0:0:
268,92,62153,1,0,0:0:0:0:
396,224,62380,1,0,0:0:0:0:
292,288,62607,6,0,P|252:260|232:220,1,93.5000028533936,8|0,0:0|0:0,0:0:0:0:
234,54,63062,2,0,P|280:48|324:64,1,93.5000028533936
324,248,63516,5,8,0:0:0:0:
296,272,63630,1,0,0:0:0:0:
264,296,63744,2,0,L|196:288,1,46.7500014266968
77,208,63971,2,0,L|124:212,1,46.7500014266968,8|0,0:0|0:0,0:0:0:0:
156,192,64198,5,0,0:0:0:0:
188,172,64312,1,0,0:0:0:0:
220,152,64425,1,8,0:0:0:0:
252,132,64539,1,0,0:0:0:0:
280,132,64653,1,0,0:0:0:0:
308,132,64766,1,0,0:0:0:0:
336,132,64880,2,0,L|367:103,6,23.3750007133484,8|0|0|0|0|0|0,0:0|0:0|0:0|0:0|0:0|0:0|0:0,0:0:0:0:
424,140,65335,1,8,0:0:0:0:
426,186,65448,1,8,0:0:0:0:
409,229,65562,1,0,0:0:0:0:
376,261,65675,1,8,0:0:0:0:
331,275,66471,5,0,0:0:0:0:
331,275,66528,1,0,0:0:0:0:
331,275,66585,1,0,0:0:0:0:
331,275,66641,1,0,0:0:0:0:
331,275,66698,2,0,P|376:292|440:300,1,93.5000028533936,8|0,0:0|0:0,0:0:0:0:
296,164,67039,1,0,0:0:0:0:
296,164,67153,2,0,P|256:144|200:140,1,93.5000028533936,8|0,0:0|0:0,0:0:0:0:
8,204,67607,5,4,0:0:0:0:
8,204,67721,1,0,0:0:0:0:
8,204,67835,1,0,0:0:0:0:
176,283,68062,2,0,L|92:276,1,85,8|0,0:0|0:0,0:0:0:0:
64,120,68516,1,0,0:0:0:0:
64,120,68630,2,0,P|52:80|60:32,1,85
128,8,68971,2,0,L|212:15,1,85,8|0,0:0|0:0,0:0:0:0:
296,72,69425,6,0,P|360:72|388:60,1,85
392,44,69766,1,0,0:0:0:0:
404,24,69880,2,0,L|416:108,1,85,8|0,0:0|0:0,0:0:0:0:
472,192,70221,1,0,0:0:0:0:
472,192,70335,2,0,P|488:232|484:276,1,85
428,328,70675,1,0,0:0:0:0:
428,328,70789,2,0,L|340:320,1,85,8|0,0:0|0:0,0:0:0:0:
264,252,71244,5,0,0:0:0:0:
184,260,71471,1,0,0:0:0:0:
104,264,71698,2,0,L|20:272,1,85,8|0,0:0|0:0,0:0:0:0:
264,164,72153,5,0,0:0:0:0:
184,260,72380,1,0,0:0:0:0:
362,322,72607,2,0,P|371:280|360:240,1,85,8|0,0:0|0:0,0:0:0:0:
149,61,73062,6,0,L|156:152,1,85,4|0,0:0|0:0,0:0:0:0:
368,237,73516,2,0,L|361:328,1,85,8|0,0:0|0:0,0:0:0:0:
220,296,73971,2,0,L|120:300,1,85
112,308,74312,1,0,0:0:0:0:
88,316,74425,2,0,L|172:312,1,85,8|0,0:0|0:0,0:0:0:0:
276,224,74880,6,0,P|280:176|268:136,1,85,4|0,0:0|0:0,0:0:0:0:
188,76,75335,2,0,L|100:88,1,85,8|0,0:0|0:0,0:0:0:0:
0,232,75789,1,0,0:0:0:0:
0,232,75903,2,0,L|88:220,1,85
128,156,76244,2,0,P|136:116|124:68,1,85,8|0,0:0|0:0,0:0:0:0:
52,4,76698,5,0,0:0:0:0:
8,136,76925,1,0,0:0:0:0:
216,52,77153,2,0,L|304:48,1,85,8|0,0:0|0:0,0:0:0:0:
352,144,77607,2,0,L|440:140,1,85
460,156,77948,1,0,0:0:0:0:
460,156,78062,2,0,P|476:200|472:244,1,85,8|0,0:0|0:0,0:0:0:0:
424,328,78516,5,4,0:0:0:0:
304,224,78744,1,0,0:0:0:0:
184,336,78971,1,8,0:0:0:0:
184,336,79085,2,0,P|225:345|266:337,1,85
304,268,79425,6,0,L|296:180,1,85
180,32,79880,1,8,0:0:0:0:
180,32,79994,2,0,L|188:120,1,85
144,180,80335,6,0,L|48:172,1,85
368,204,80789,1,8,0:0:0:0:
368,204,80903,2,0,L|464:212,1,85
480,208,81244,6,0,P|452:180|440:136,1,85
444,124,81585,1,0,0:0:0:0:
447,116,81698,1,8,0:0:0:0:
452,109,81812,1,0,0:0:0:0:
458,103,81925,1,0,0:0:0:0:
465,97,82039,1,0,0:0:0:0:
472,93,82153,5,4,0:0:0:0:
472,93,82607,2,0,L|376:104,1,85,8|0,0:0|0:0,0:0:0:0:
204,296,83062,2,0,P|252:300|300:264,1,85,8|0,0:0|0:0,0:0:0:0:
320,220,83403,2,0,L|308:132,1,85,8|8,0:0|0:0,0:0:0:0:
296,56,83857,1,8,0:0:0:0:
220,24,85107,1,0,0:0:0:0:
220,24,85221,1,0,0:0:0:0:
220,24,85335,1,8,0:0:0:0:
40,112,85789,6,0,P|60:132|128:152,1,85
168,112,86130,1,0,0:0:0:0:
204,112,86244,1,8,0:0:0:0:
236,112,86357,1,0,0:0:0:0:
448,132,86585,6,0,P|416:172|328:188,1,127.5
308,136,87039,1,0,0:0:0:0:
308,136,87153,2,0,L|204:136,1,85,8|0,0:0|0:0,0:0:0:0:
28,200,87607,6,0,P|48:220|108:240,1,85
148,192,87948,1,0,0:0:0:0:
148,192,88062,2,0,L|228:192,1,42.5,8|0,0:0|0:0,0:0:0:0:
384,196,88403,6,0,P|376:232|324:264,1,85
339,261,88744,1,0,0:0:0:0:
160,296,88971,2,0,L|104:296,2,42.5,8|0|0,0:0|0:0|0:0,0:0:0:0:
364,352,89425,6,0,P|380:328|376:260,1,85
348,216,89766,1,0,0:0:0:0:
340,184,89880,1,8,0:0:0:0:
352,152,89994,1,0,0:0:0:0:
464,72,90221,6,0,P|424:52|336:32,1,127.5
160,64,90789,1,8,0:0:0:0:
132,80,90903,1,0,0:0:0:0:
108,104,91016,1,0,0:0:0:0:
92,136,91130,1,0,0:0:0:0:
88,168,91244,1,8,0:0:0:0:
169,276,91471,5,8,0:0:0:0:
222,151,91698,1,8,0:0:0:0:
169,276,91925,1,8,0:0:0:0:
88,168,92153,1,8,0:0:0:0:
269,41,92494,5,8,0:0:0:0:
288,261,92835,1,8,0:0:0:0:
224,160,93062,1,8,0:3:0:0:
400,256,94880,6,0,L|360:282,1,47.8125018239022,8|0,0:0|0:0,0:0:0:0:
220,209,95164,2,0,L|260:236,1,47.8125018239022,0|8,0:0|0:0,0:0:0:0:
400,156,95448,2,0,L|360:182,1,47.8125018239022,0|8,0:0|0:0,0:0:0:0:
208,104,95789,1,0,0:0:0:0:
229,119,95931,1,8,0:0:0:0:
251,134,96102,1,0,0:0:0:0:
273,149,96244,6,0,P|240:200|176:228,1,127.500004863739,8|0,0:0|0:0,0:0:0:0:
80,184,96925,1,0,0:0:0:0:
92,296,97153,2,0,P|160:312|196:304,1,85,8|0,0:0|0:0,0:0:0:0:
200,292,97494,1,0,0:0:0:0:
220,268,97607,2,0,P|272:260|320:260,1,85
460,316,98062,5,8,0:0:0:0:
460,316,98176,2,0,P|468:244|460:224,1,85
384,208,98516,2,0,P|336:200|292:176,1,85
136,52,98971,5,8,0:0:0:0:
172,156,99198,1,0,0:0:0:0:
172,156,99312,1,0,0:0:0:0:
172,156,99425,2,0,P|176:212|164:252,1,85
104,332,99880,1,8,0:0:0:0:
268,316,100107,5,0,0:0:0:0:
268,316,100221,1,0,0:0:0:0:
268,316,100334,2,0,P|320:292|356:252,1,85
396,176,100789,1,8,0:0:0:0:
316,96,101016,5,0,0:0:0:0:
316,96,101130,1,0,0:0:0:0:
316,96,101243,2,0,P|252:92|220:72,1,85
124,84,101698,2,0,P|112:124|112:176,1,85,8|0,0:0|0:0,0:0:0:0:
256,248,102153,5,0,0:0:0:0:
208,148,102381,1,0,0:0:0:0:
320,152,102608,2,0,P|347:183|366:221,1,85,8|0,0:0|0:0,0:0:0:0:
340,328,102948,1,0,0:0:0:0:
340,328,103061,2,0,P|300:348|248:352,1,85
128,252,103516,6,0,P|108:212|104:156,1,85,8|0,0:0|0:0,0:0:0:0:
92,120,103857,1,0,0:0:0:0:
88,64,103971,2,0,P|132:52|188:56,1,85
340,72,104425,5,8,0:0:0:0:
376,176,104653,1,0,0:0:0:0:
376,176,104766,1,0,0:0:0:0:
376,176,104880,2,0,P|380:240|364:276,1,85
364,280,105221,2,0,L|276:288,1,85,0|8,0:0|0:0,0:0:0:0:
224,296,105562,1,0,0:0:0:0:
64,144,105789,6,0,L|88:180,1,42.5,8|0,0:0|0:0,0:0:0:0:
144,276,106016,2,0,L|184:248,1,42.5
268,184,106244,1,0,0:0:0:0:
268,184,106357,2,0,L|240:148,1,42.5,8|0,0:0|0:0,0:0:0:0:
260,40,106585,1,0,0:0:0:0:
260,40,106699,2,0,L|296:72,1,42.5,8|0,0:0|0:0,0:0:0:0:
432,156,106925,5,8,0:0:0:0:
406,168,107038,1,0,0:0:0:0:
384,186,107152,1,8,0:0:0:0:
366,207,107265,1,0,0:0:0:0:
353,232,107379,1,8,0:0:0:0:
345,260,107493,1,0,0:0:0:0:
343,288,107606,5,4,0:0:0:0:
196,216,107835,1,0,0:0:0:0:
80,332,108062,1,0,0:0:0:0:
80,332,108175,2,0,L|216:328,1,127.5,0|8,0:0|0:0,0:0:0:0:
207,328,108744,2,0,L|224:372,3,28.3333333333333
304,55,109425,6,0,L|316:152,1,85,4|0,0:0|0:0,0:0:0:0:
396,276,109880,1,0,0:0:0:0:
396,276,109994,2,0,P|452:288|512:252,1,127.5,0|8,0:0|0:0,0:0:0:0:
220,240,110562,2,0,L|176:232,2,28.3333333333333
244,248,110789,2,0,L|108:255,1,127.5
92,248,111244,6,0,L|80:160,1,85,4|0,0:0|0:0,0:0:0:0:
120,60,111698,1,0,0:0:0:0:
12,28,111925,1,0,0:0:0:0:
80,163,112153,1,0,0:0:0:0:
184,200,112380,1,0,0:0:0:0:
226,200,112493,1,0,0:0:0:0:
263,180,112607,1,0,0:0:0:0:
287,145,112720,1,0,0:0:0:0:
291,104,112834,1,0,0:0:0:0:
276,64,112948,1,0,0:0:0:0:
244,37,113061,5,4,1:2:0:0:
4,116,113289,1,0,0:0:0:0:
160,4,113516,1,0,0:0:0:0:
45,229,113744,1,0,0:0:0:0:
44,16,113971,1,0,0:0:0:0:
172,188,114198,5,0,0:0:0:0:
193,215,114311,1,0,0:0:0:0:
223,233,114425,1,0,0:0:0:0:
258,240,114538,1,0,0:0:0:0:
293,233,114652,1,0,0:0:0:0:
323,215,114766,1,0,0:0:0:0:
344,187,114880,6,0,L|336:92,1,85,4|0,0:0|0:0,0:0:0:0:
340,76,115221,1,0,0:0:0:0:
352,52,115335,2,0,L|360:147,1,85,8|0,0:0|0:0,0:0:0:0:
420,184,115675,1,0,0:0:0:0:
420,184,115789,2,0,P|436:224|436:272,1,85,8|0,0:0|0:0,0:0:0:0:
364,336,116244,2,0,L|276:328,1,85,8|0,0:0|0:0,0:0:0:0:
204,260,116698,5,8,0:0:0:0:
184,360,116925,1,0,0:0:0:0:
312,244,117153,1,8,0:0:0:0:
128,188,117380,1,0,0:0:0:0:
64,268,117607,1,8,0:0:0:0:
236,152,117835,1,0,0:0:0:0:
160,84,118062,1,8,0:0:0:0:
160,84,118175,1,0,0:0:0:0:
160,84,118289,1,0,0:0:0:0:
260,56,118516,6,0,P|296:40|396:64,1,127.5,4|0,0:2|0:0,0:0:0:0:
400,68,118971,1,0,0:0:0:0:
410,86,119084,1,0,0:0:0:0:
417,106,119198,1,0,0:0:0:0:
419,127,119311,1,0,0:0:0:0:
416,148,119425,6,0,L|412:180,7,21.25
448,236,119880,2,0,L|452:267,7,21.25
468,332,120335,5,4,0:2:0:0:
292,256,120562,1,0,0:0:0:0:
364,328,120789,1,8,0:0:0:0:
328,160,121016,1,0,0:0:0:0:
188,264,121244,5,8,0:0:0:0:
384,240,121471,1,0,0:0:0:0:
320,72,121698,1,8,0:0:0:0:
292,256,121925,1,0,0:0:0:0:
320,72,122153,6,0,L|376:80,2,42.5,4|0|0,0:0|0:0|0:0,0:0:0:0:
244,24,122494,1,0,0:0:0:0:
244,24,122607,2,0,P|232:56|244:120,1,85,8|0,0:0|0:0,0:0:0:0:
268,224,122948,1,0,0:0:0:0:
268,224,123062,2,0,P|248:236|200:236,1,42.5
328,160,123289,2,0,P|348:148|396:148,2,42.5,0|0|8,0:0|0:0|0:0,0:0:0:0:
56,156,123744,6,0,P|88:140|128:156,1,76.4999976654053,4|0,0:0|0:0,0:0:0:0:
124,152,123971,2,0,P|156:136|196:152,1,76.4999976654053,4|0,0:0|0:0,0:0:0:0:
192,148,124198,2,0,P|224:132|264:148,1,76.4999976654053,4|0,0:0|0:0,0:0:0:0:
260,144,124425,2,0,P|292:132|320:148,2,50.9999984436036,12|0|0,0:0|0:0|0:0,0:0:0:0:
224,228,124766,5,0,0:0:0:0:
224,228,124880,2,0,P|264:236|308:208,1,85
302,217,125221,1,0,0:0:0:0:
302,217,125335,1,8,0:0:0:0:
484,84,125562,5,0,0:0:0:0:
324,140,125789,1,0,0:0:0:0:
456,288,126016,2,0,P|468:256|448:200,1,85,0|8,0:0|0:0,0:0:0:0:
376,60,126471,1,0,0:0:0:0:
292,208,126698,1,0,0:0:0:0:
496,172,126925,2,0,P|456:148|408:148,1,85,0|8,0:0|0:0,0:0:0:0:
348,112,127266,2,0,P|352:96|384:72,2,42.5
356,188,127607,5,8,0:3:0:0:
372,228,127721,1,8,0:3:0:0:
368,272,127835,1,8,0:3:0:0:
344,308,127948,1,8,0:3:0:0:
304,324,128062,2,0,P|284:328|252:312,3,42.5,8|0|0|0,0:0|0:0|0:0|0:0,0:0:0:0:
264,232,128516,5,8,0:3:0:0:
221,225,128630,1,8,0:3:0:0:
180,243,128744,1,8,0:3:0:0:
155,277,128857,1,8,0:3:0:0:
144,316,128971,2,0,P|164:328|208:320,3,42.5,8|0|0|0,0:0|0:0|0:0|0:0,0:0:0:0:
224,340,129425,6,0,P|236:320|232:288,1,42.5
221,225,129653,2,0,P|224:184|252:136,2,85,0|8|0,0:0|0:0|0:0,0:0:0:0:
268,284,130221,1,0,0:0:0:0:
268,284,130335,2,0,L|320:264,1,42.5
384,272,130562,2,0,L|436:252,2,42.5,0|0|8,0:0|0:0|0:0,0:0:0:0:
472,108,131016,6,0,P|416:80|448:140,1,170,4|0,0:0|0:0,0:0:0:0:
272,56,131698,6,0,B|268:96|268:96|316:84,1,85,8|0,0:0|0:0,0:0:0:0:
348,152,132039,1,0,0:0:0:0:
348,152,132153,2,0,B|328:180|328:180|264:192,1,85
278,189,132494,1,0,0:0:0:0:
278,189,132607,1,8,0:0:0:0:
52,212,132835,6,0,B|72:240|72:240|120:248,1,42.5
79,241,133062,2,0,L|184:240,1,85
324,340,133516,5,8,0:0:0:0:
324,340,133630,1,0,0:0:0:0:
176,304,133857,1,0,0:0:0:0:
176,304,133971,2,0,L|188:240,1,42.5
288,200,134198,2,0,L|276:264,1,42.5
200,160,134425,6,0,P|188:144|120:128,1,85,8|0,0:0|0:0,0:0:0:0:
348,88,134880,2,0,P|360:104|428:124,1,85,8|0,0:3|0:0,0:0:0:0:
108,256,135335,1,8,0:3:0:0:
108,256,135448,2,0,L|192:244,1,85,8|0,0:3|0:0,0:0:0:0:
192,243,135789,5,8,0:0:0:0:
352,340,136016,1,8,0:0:0:0:
424,204,136244,1,8,0:0:0:0:
316,192,136471,1,8,0:0:0:0:
388,56,136699,1,8,0:0:0:0:
164,280,143971,6,0,L|212:264,1,42.5,8|0,0:0|0:0,0:0:0:0:
356,240,144198,1,0,0:0:0:0:
356,240,144312,2,0,L|372:104,1,127.5
370,113,144880,1,8,0:0:0:0:
264,84,145107,2,0,L|256:136,5,42.5
159,233,145789,6,0,L|168:192,1,42.5,8|0,0:0|0:0,0:0:0:0:
152,84,146016,1,0,0:0:0:0:
152,84,146130,2,0,L|296:104,1,127.5
388,116,146698,1,8,0:0:0:0:
428,220,146925,2,0,L|368:232,5,42.5
352,236,147607,5,8,0:0:0:0:
320,244,147721,1,0,0:0:0:0:
212,264,147948,2,0,B|172:244|172:244|124:156,1,127.5
132,171,148516,5,8,0:0:0:0:
268,72,148744,2,0,L|356:60,2,85
188,148,149312,2,0,B|176:208|176:208|180:232,1,85
280,280,149653,1,0,0:0:0:0:
336,284,149766,1,0,0:0:0:0:
388,260,149880,1,8,0:0:0:0:
420,212,149994,1,0,0:0:0:0:
432,160,150107,1,0,0:0:0:0:
432,160,150221,2,0,L|348:132,1,85
300,112,150562,1,0,0:0:0:0:
272,160,150675,1,0,0:0:0:0:
244,208,150789,1,12,0:0:0:0:
244,208,151244,6,0,P|264:248|264:296,1,85
144,152,151698,1,0,0:0:0:0:
144,152,151812,2,0,L|44:156,1,85
16,92,152153,6,0,P|4:64|16:4,1,85
36,0,152494,1,0,0:0:0:0:
84,12,152607,1,0,0:0:0:0:
121,47,152721,1,0,0:0:0:0:
138,94,152834,1,0,0:0:0:0:
131,144,152948,1,0,0:0:0:0:
102,185,153062,1,0,0:0:0:0:
102,185,153175,6,0,L|111:271,1,85
188,304,153516,2,0,P|252:260|300:268,1,127.5
352,320,153971,6,0,L|464:308,1,85
464,288,154312,1,0,0:0:0:0:
494,258,154425,1,0,0:0:0:0:
510,219,154539,1,0,0:0:0:0:
509,177,154652,1,0,0:0:0:0:
492,138,154766,1,0,0:0:0:0:
460,110,154880,5,0,0:0:0:0:
460,110,154994,2,0,L|368:120,1,85
328,184,155335,2,0,L|316:52,1,127.5
248,16,155789,6,0,P|204:0|152:8,1,85
108,52,156130,2,0,L|112:104,1,42.5
72,176,156357,2,0,L|75:218,2,42.5
136,288,156698,5,0,0:0:0:0:
136,288,156812,2,0,L|224:276,1,85
404,332,157153,1,0,0:0:0:0:
404,332,157267,2,0,L|316:320,1,85
232,180,157607,1,0,0:0:0:0:
232,180,157721,2,0,P|220:136|224:96,1,85
448,32,158062,1,0,0:0:0:0:
448,32,158176,2,0,P|460:76|456:116,1,85
448,204,158516,5,0,0:0:0:0:
452,220,158630,1,0,0:0:0:0:
456,236,158744,1,0,0:0:0:0:
460,252,158857,1,0,0:0:0:0:
464,268,158971,5,0,0:0:0:0:
442,291,159084,1,0,0:0:0:0:
413,304,159198,1,0,0:0:0:0:
382,305,159311,1,0,0:0:0:0:
352,294,159425,5,0,0:0:0:0:
318,269,159538,1,0,0:0:0:0:
276,264,159652,1,0,0:0:0:0:
237,280,159765,1,0,0:0:0:0:
211,313,159880,5,0,0:0:0:0:
168,343,159993,1,0,0:0:0:0:
116,346,160107,1,0,0:0:0:0:
70,321,160220,1,0,0:0:0:0:
44,275,160335,5,0,0:0:0:0:
16,218,160448,1,0,0:0:0:0:
19,155,160562,1,0,0:0:0:0:
53,102,160675,1,0,0:0:0:0:
108,72,160789,5,0,0:0:0:0:
151,132,160902,1,0,0:0:0:0:
221,151,161016,1,0,0:0:0:0:
287,120,161129,1,0,0:0:0:0:
319,55,161243,5,0,0:0:0:0:
268,121,161357,1,0,0:0:0:0:
271,204,161471,1,0,0:0:0:0:
328,265,161584,1,0,0:0:0:0:
410,276,161698,5,0,0:0:0:0:
336,281,161811,1,0,0:0:0:0:
262,287,161925,1,0,0:0:0:0:
188,293,162038,1,0,0:0:0:0:
114,299,162152,5,0,0:0:0:0:
114,299,162380,2,8,L|80:224,1,42.5
20,152,162607,5,8,0:0:0:0:
28,160,162664,1,8,0:0:0:0:
40,164,162721,1,8,0:0:0:0:
52,164,162778,1,8,0:0:0:0:
64,160,162835,2,0,L|136:160,1,42.5,8|0,0:0|0:0,0:0:0:0:
336,192,163062,2,0,P|320:188|264:200,1,42.5,8|0,0:0|0:0,0:0:0:0:
264,56,163289,2,0,L|232:116,1,42.5,8|0,0:0|0:0,0:0:0:0:
184,212,163516,2,0,L|152:272,2,42.5,8|0|0,0:0|0:0|0:0,0:0:0:0:
148,116,163857,6,0,P|184:104|272:160,1,118.999996368408,2|0,0:0|0:0,0:0:0:0:
404,176,164198,2,0,P|376:176|312:192,1,59.4999981842042,2|0,0:0|0:0,0:0:0:0:
228,240,164425,2,0,P|268:244|300:280,2,59.4999981842042,2|0|2,0:0|0:0|0:0,0:0:0:0:
160,312,164766,6,0,P|132:272|160:176,1,118.999996368408,2|0,0:0|0:0,0:0:0:0:
208,60,165107,2,0,P|220:108|208:132,1,59.4999981842042,2|0,0:0|0:0,0:0:0:0:
316,232,165335,2,0,P|292:224|268:160,2,59.4999981842042,2|0|2,0:0|0:0|0:0,0:0:0:0:
360,316,165675,6,0,P|392:292|384:172,1,118.999996368408,2|0,0:0|0:0,0:0:0:0:
488,120,166016,2,0,P|452:104|380:120,1,59.4999981842042,2|0,0:0|0:0,0:0:0:0:
316,96,166244,2,0,P|316:64|360:16,2,59.4999981842042,2|0|2,0:0|0:0|0:0,0:0:0:0:
356,176,166585,2,0,P|352:208|312:240,1,59.4999981842042,2|0,0:0|0:0,0:0:0:0:
264,280,166812,1,8,0:0:0:0:
264,280,166925,1,8,0:0:0:0:
88,312,167153,5,8,0:0:0:0:
148,248,167266,1,8,0:0:0:0:
60,224,167380,2,8,L|12:256,3,29.7499990921021
128,148,167607,1,8,0:0:0:0:
128,148,167721,2,8,L|176:124,1,29.7499990921021
44,120,167835,2,8,L|0:144,2,29.7499990921021
108,60,168005,1,8,0:0:0:0:
424,120,168175,5,4,0:0:0:0:
256,330,168403,1,4,0:0:0:0:
269,61,168629,1,4,0:0:0:0:
415,287,168857,1,4,0:0:0:0:
165,190,169085,1,4,0:0:0:0:
480,136,169425,6,0,L|400:136,1,59.4999981842042,8|0,0:0|0:0,0:0:0:0:
444,212,169653,2,0,L|364:212,1,59.4999981842042,8|0,0:0|0:0,0:0:0:0:
415,287,169880,1,8,0:0:0:0:
415,287,169994,6,8,L|336:288,1,59.4999981842042,12|8,0:0|0:0,0:0:0:0:
97,97,170221,2,0,L|176:96,1,59.4999981842042,4|0,0:0|0:0,0:0:0:0:
351,33,170448,2,0,L|352:112,1,59.4999981842042,4|0,0:0|0:0,0:0:0:0:
161,351,170675,2,0,L|160:272,1,59.4999981842042,4|0,0:0|0:0,0:0:0:0:
256,192,170903,1,4,0:0:0:0:
256,192,171130,2,0,L|88:192,1,118.999996368408,4|0,0:0|0:0,0:0:0:0:
137,192,171414,1,8,0:3:0:0:
137,192,171471,1,8,0:3:0:0:
372,60,171850,6,8,B|416:80|416:80|456:148,1,79.3333309122722,8|0,0:3|0:3,0:3:0:0:
420,224,172153,1,8,0:3:0:0:
420,224,172304,2,8,L|332:196,1,79.3333309122722,8|8,0:3|0:3,0:3:0:0:
228,176,172607,1,8,0:3:0:0:
228,176,172759,2,8,L|124:220,1,79.3333309122722,8|8,0:3|0:3,0:3:0:0:
256,192,173062,12,0,177153,0:0:0:0:
388,88,177437,5,8,0:3:0:0:
388,88,177494,1,8,0:3:0:0:
388,88,177551,1,8,0:0:0:0:
320,172,177891,1,8,0:3:0:0:
252,252,178232,1,8,0:3:0:0:
252,252,178516,6,0,P|320:252|380:224,1,127.500004863739
380,144,179198,2,0,P|360:100|376:20,1,127.500004863739
252,52,179880,6,0,L|180:72,1,63.7500024318696
168,148,180335,2,0,P|136:152|84:136,1,63.7500024318696
64,220,180675,1,0,0:0:0:0:
80,260,180789,2,0,P|132:280|160:280,1,63.7500024318696
224,292,181130,2,0,L|328:299,1,95.6250036478044
471,194,181698,2,0,L|384:188,1,63.7500024318696
243,106,182153,6,0,P|300:78|364:72,1,127.500004863739
304,228,182835,2,0,P|251:255|183:262,1,127.500004863739
88,184,183516,2,0,P|68:212|52:256,1,63.7500024318696
144,328,183971,2,0,L|220:308,1,63.7500024318696
288,220,184425,2,0,P|284:252|296:292,1,63.7500024318696
368,316,184766,1,0,0:0:0:0:
368,316,184880,2,0,P|404:304|436:276,1,63.7500024318696
448,208,185335,2,0,L|420:140,1,63.7500024318696
256,44,185789,6,0,L|252:132,1,85
176,196,186244,1,8,0:0:0:0:
176,196,186357,1,0,0:0:0:0:
176,196,186471,2,0,L|180:244,1,42.5,0|8,0:0|0:0,0:0:0:0:
212,316,187153,2,0,P|296:344|392:220,1,255,4|0,0:0|0:0,0:0:0:0:
393,231,188062,6,0,P|404:196|400:144,1,85,4|0,0:0|0:0,0:0:0:0:
132,76,188516,2,0,P|121:111|125:163,1,85,4|0,0:0|0:0,0:0:0:0:
256,288,188971,2,0,L|264:152,1,127.5,4|0,0:0|0:0,0:0:0:0:
280,136,189425,5,0,0:0:0:0:
264,36,189653,1,0,0:0:0:0:
184,204,189880,1,0,0:0:0:0:
200,304,190108,1,0,0:0:0:0:
388,168,190335,5,0,0:0:0:0:
184,204,190562,1,0,0:0:0:0:
264,36,190789,1,0,0:0:0:0:
296,268,191016,1,0,0:0:0:0:
96,296,191244,5,0,0:0:0:0:
280,176,191471,1,0,0:0:0:0:
48,212,191698,1,0,0:0:0:0:
232,92,191925,1,0,0:0:0:0:
8,132,192153,5,0,0:0:0:0:
280,176,192380,1,0,0:0:0:0:
148,184,192607,1,0,0:0:0:0:
420,228,192834,1,0,0:0:0:0:
428,124,193062,5,0,0:0:0:0:
420,228,193289,1,0,0:0:0:0:
412,328,193516,1,0,0:0:0:0:
280,176,193744,1,0,0:0:0:0:
420,228,193971,5,0,0:0:0:0:
328,80,194198,1,0,0:0:0:0:
272,288,194425,1,0,0:0:0:0:
180,140,194652,1,0,0:0:0:0:
228,48,194880,5,0,0:0:0:0:
272,140,195107,1,0,0:0:0:0:
216,224,195335,1,0,0:0:0:0:
116,204,195562,1,0,0:0:0:0:
136,56,195789,5,0,0:0:0:0:
136,328,196130,1,0,0:0:0:0:
136,328,196244,2,0,P|196:348|260:328,1,127.5,0|0,0:0|2:0,0:0:0:0:
336,348,196698,5,2,0:0:0:0:
336,348,196812,1,2,0:0:0:0:
336,348,196925,2,2,P|344:308|332:264,1,85
408,152,197607,2,0,L|348:36,1,127.5,8|0,0:0|0:0,0:0:0:0:
104,152,198062,2,0,L|164:36,1,127.5,8|0,0:0|0:0,0:0:0:0:
312,252,198516,2,0,P|324:208|420:168,1,127.5,8|0,0:0|0:0,0:0:0:0:
200,252,198971,2,0,P|188:208|92:168,1,127.5,8|0,0:0|0:0,0:0:0:0:
408,180,199425,2,0,L|348:296,1,127.5,8|0,0:0|0:0,0:0:0:0:
104,180,199880,2,0,L|164:296,1,127.5,8|0,0:0|0:0,0:0:0:0:
332,336,200335,6,0,B|380:292|380:292|400:232,1,127.5,12|0,0:0|0:0,0:0:0:0:
180,336,200789,2,0,B|132:292|132:292|112:232,1,127.5,12|0,0:0|0:0,0:0:0:0:
256,28,201244,2,0,P|272:84|256:152,1,127.5,12|0,0:0|0:0,0:0:0:0:
256,356,201698,2,0,P|239:295|255:233,1,127.5,12|0,0:0|0:0,0:0:0:0:
336,172,202153,1,8,0:0:0:0:
336,172,202266,2,0,L|224:116,1,85,8|0,0:0|0:0,0:0:0:0:
259,133,202607,6,0,L|200:132,1,42.5,8|0,0:0|0:0,0:0:0:0:
168,260,202835,2,0,L|104:260,1,42.5,8|0,0:0|0:0,0:0:0:0:
448,80,203062,2,0,L|372:80,1,42.5,8|0,0:0|0:0,0:0:0:0:
324,328,203289,2,0,L|264:328,1,42.5,8|0,0:0|0:0,0:0:0:0:
480,192,203516,1,8,0:0:0:0:
480,192,203630,2,0,L|364:192,1,85,8|0,0:0|0:0,0:0:0:0:
256,100,203971,6,0,P|216:112|176:136,1,85,8|0,0:0|0:0,0:0:0:0:
150,266,204312,1,0,0:0:0:0:
150,266,204425,2,0,P|191:252|228:232,1,85
264,188,204766,1,0,0:0:0:0:
292,236,204880,1,8,0:0:0:0:
320,284,204994,1,0,0:0:0:0:
452,108,205221,5,0,0:0:0:0:
404,136,205335,1,8,0:0:0:0:
352,148,205448,1,0,0:0:0:0:
296,148,205562,2,0,P|256:144|212:120,1,85
112,84,206016,2,0,P|92:140|96:180,1,85,0|8,0:0|0:0,0:0:0:0:
112,196,206357,5,0,0:0:0:0:
128,224,206471,1,0,0:0:0:0:
140,256,206585,1,0,0:0:0:0:
140,288,206698,1,8,0:0:0:0:
136,320,206812,1,0,0:0:0:0:
236,324,207040,5,0,0:0:0:0:
236,324,207153,1,8,0:0:0:0:
277,321,207266,1,0,0:0:0:0:
318,309,207380,1,0,0:0:0:0:
354,288,207493,1,0,0:0:0:0:
385,259,207607,1,8,0:0:0:0:
385,259,207835,5,8,0:0:0:0:
400,124,208062,1,8,0:0:0:0:
272,172,208289,1,8,0:0:0:0:
68,140,208516,1,8,0:0:0:0:
196,92,208743,1,8,0:0:0:0:
324,136,208971,5,8,0:0:0:0:
256,180,209141,1,0,0:0:0:0:
324,228,209312,5,0,0:0:0:0:
284,284,209454,1,8,0:0:0:0:
288,280,210335,6,0,P|236:256|212:232,1,85,8|0,0:0|0:0,0:0:0:0:
108,89,210789,2,0,P|147:104|180:132,1,85,8|0,0:0|0:0,0:0:0:0:
224,292,211244,5,4,0:0:0:0:
224,292,211358,1,0,0:0:0:0:
224,292,211472,2,0,P|280:288|320:268,1,85,0|8,0:0|0:0,0:0:0:0:
376,192,211925,1,0,0:0:0:0:
404,84,212153,1,0,0:0:0:0:
404,84,212266,2,0,P|344:64|312:68,1,85
272,88,212607,1,8,0:0:0:0:
176,144,212835,2,0,P|196:192|232:220,1,85
320,256,213289,1,0,0:0:0:0:
432,248,213516,6,0,P|468:208|480:156,1,85,8|0,0:0|0:0,0:0:0:0:
488,124,213857,1,0,0:0:0:0:
476,68,213971,2,0,P|424:92|368:88,1,85
344,76,214312,1,0,0:0:0:0:
296,48,214425,2,0,P|256:56|216:84,1,85,8|0,0:0|0:0,0:0:0:0:
292,288,214880,5,0,0:0:0:0:
160,188,215107,1,0,0:0:0:0:
316,128,215335,2,0,P|360:96|384:48,1,85,8|0,0:0|0:0,0:0:0:0:
372,236,215789,5,0,0:0:0:0:
212,84,216016,1,0,0:0:0:0:
124,288,216244,2,0,P|84:320|44:332,1,85,8|0,0:0|0:0,0:0:0:0:
108,116,216698,6,0,P|140:88|179:73,1,85,8|0,0:0|0:0,0:0:0:0:
404,268,217153,2,0,P|371:295|332:310,1,85,8|0,0:0|0:0,0:0:0:0:
224,292,217607,1,8,0:0:0:0:
124,244,217835,1,0,0:0:0:0:
124,244,217949,1,0,0:0:0:0:
124,244,218062,2,0,P|140:200|184:156,1,85,8|0,0:0|0:0,0:0:0:0:
388,139,218516,6,0,P|374:180|348:213,1,85
340,324,218857,1,0,0:0:0:0:
340,324,218971,2,0,P|284:304|240:308,1,85,8|0,0:0|0:0,0:0:0:0:
148,312,219425,1,0,0:0:0:0:
148,312,219539,2,0,P|104:280|92:240,1,85
76,200,219880,1,8,0:0:0:0:
64,36,220107,1,0,0:0:0:0:
156,100,220334,2,0,P|216:96|252:72,1,85
316,0,220789,5,8,0:0:0:0:
436,116,221016,1,0,0:0:0:0:
436,116,221130,1,0,0:0:0:0:
436,116,221243,2,0,P|376:148|344:144,1,85
308,136,221585,1,0,0:0:0:0:
260,112,221698,2,0,P|200:100|156:120,1,85,8|0,0:0|0:0,0:0:0:0:
96,248,222153,5,0,0:0:0:0:
244,328,222380,1,0,0:0:0:0:
388,244,222608,1,8,0:0:0:0:
388,244,222721,2,0,P|428:192|436:160,1,85
428,140,223062,2,0,P|376:88|368:64,1,85
280,140,223516,5,8,0:0:0:0:
244,184,223630,2,0,P|184:228|156:232,1,85
64,240,223971,2,0,P|96:292|128:324,1,85
248,296,224425,5,8,0:0:0:0:
248,296,224539,2,0,P|292:280|336:280,1,85
380,256,224880,2,0,P|432:200|436:180,1,85
388,164,225221,1,0,0:0:0:0:
332,152,225335,1,8,0:0:0:0:
280,140,225448,1,0,0:0:0:0:
324,108,225562,1,0,0:0:0:0:
368,76,225675,1,0,0:0:0:0:
412,44,225789,1,12,0:0:0:0:
192,56,226244,6,0,P|232:133|276:161,1,127.5,8|0,0:0|0:0,0:0:0:0:
360,213,226698,1,8,0:0:0:0:
360,213,226812,2,0,L|276:293,1,85
212,340,227266,1,0,0:0:0:0:
104,320,227494,2,0,P|48:268|48:208,1,127.5
100,124,227948,1,0,0:0:0:0:
188,192,228062,2,0,L|268:256,1,85,8|0,0:0|0:0,0:0:0:0:
364,264,228403,2,0,P|404:248|440:208,1,85
456,168,228744,1,0,0:0:0:0:
464,112,228857,1,0,0:0:0:0:
448,60,228971,1,8,0:0:0:0:
296,124,229198,1,0,0:0:0:0:
360,276,229425,6,0,L|304:304,1,42.5,8|0,0:0|0:0,0:0:0:0:
156,260,229653,2,0,L|194:240,1,42.5,8|0,0:0|0:0,0:0:0:0:
272,88,229880,2,0,L|216:116,1,42.5,8|0,0:0|0:0,0:0:0:0:
64,84,230107,2,0,L|102:64,1,42.5,8|0,0:0|0:0,0:0:0:0:
188,48,230335,1,8,0:0:0:0:
227,62,230448,1,0,0:0:0:0:
258,90,230562,1,0,0:0:0:0:
277,127,230675,1,8,0:0:0:0:
277,127,230903,5,0,0:0:0:0:
196,216,231130,2,0,B|196:296|196:296|256:264|256:264|316:296|316:296|392:296,1,286.875010943413
452,192,232380,2,0,L|480:192,2,15.9375006079674
432,192,232550,2,0,P|380:144|368:88,1,127.500004863739,8|0,0:0|0:0,0:0:0:0:
376,64,233062,6,0,L|460:72,1,85,4|0,0:0|0:0,0:0:0:0:
460,72,233516,2,0,P|480:120|480:160,1,85,8|0,0:0|0:0,0:0:0:0:
464,180,233857,2,0,P|448:232|456:272,1,85
468,284,234198,1,0,0:0:0:0:
368,240,234425,2,0,P|316:212|232:224,1,127.5,8|0,0:0|0:0,0:0:0:0:
232,240,234880,6,0,L|224:152,1,85
32,136,235335,2,0,P|92:148|148:116,1,127.5,8|0,0:0|0:0,0:0:0:0:
160,88,235789,1,0,0:0:0:0:
0,8,236016,1,0,0:0:0:0:
108,240,236244,1,8,0:0:0:0:
88,40,236471,5,0,0:0:0:0:
88,40,236585,1,0,0:0:0:0:
88,40,236698,2,0,P|124:8|164:4,1,85
232,188,237153,1,8,0:0:0:0:
64,136,237380,1,0,0:0:0:0:
64,136,237494,1,0,0:0:0:0:
64,136,237607,2,0,P|21:113|4:76,1,85
252,24,238062,2,0,L|248:164,1,127.5,8|0,0:0|0:0,0:0:0:0:
264,176,238516,6,0,P|304:160|348:160,1,85,4|0,0:0|0:0,0:0:0:0:
160,232,238971,2,0,P|96:232|44:184,1,127.5,8|0,0:0|0:0,0:0:0:0:
28,172,239425,2,0,L|40:84,1,85,4|0,0:0|0:0,0:0:0:0:
124,4,239880,2,0,P|188:4|240:52,1,127.5,8|0,0:0|0:0,0:0:0:0:
284,104,240335,6,0,L|272:192,1,85,4|0,0:0|0:0,0:0:0:0:
264,264,240675,1,0,0:0:0:0:
264,264,240789,1,8,0:0:0:0:
263,264,240903,2,0,P|242:265|222:260,1,42.5
196,188,241130,2,0,P|153:184|113:195,1,85
44,232,241471,1,0,0:0:0:0:
44,232,241698,6,0,L|44:189,1,42.5,8|0,0:0|0:0,0:0:0:0:
120,296,241925,1,0,0:0:0:0:
120,296,242039,6,0,L|120:211,1,85
120,136,242380,1,0,0:0:0:0:
240,196,242607,5,8,0:0:0:0:
240,212,242721,1,0,0:0:0:0:
424,108,242948,2,0,P|362:98|315:138,1,127.5
396,204,243403,1,0,0:0:0:0:
396,204,243516,2,0,L|380:287,1,85,8|0,0:0|0:0,0:0:0:0:
280,288,243857,2,0,P|238:288|202:311,1,85
202,311,244198,1,8,0:0:0:0:
208,168,244425,5,8,0:0:0:0:
52,244,244653,1,8,0:0:0:0:
132,256,244766,1,8,0:0:0:0:
140,224,244880,1,8,0:0:0:0:
140,188,244994,1,8,0:0:0:0:
132,156,245107,1,8,0:0:0:0:
120,124,245221,1,8,0:0:0:0:
100,96,245335,5,8,0:0:0:0:
120,88,245448,1,8,0:0:0:0:
140,80,245562,2,0,L|217:46,1,85,8|8,0:0|0:0,0:0:0:0:
460,188,246244,5,8,0:0:0:0:
217,337,246698,2,0,P|203:298|215:258,1,85,8|8,0:0|0:0,0:0:0:0:
320,192,247039,1,8,0:0:0:0:
44,192,247266,1,8,0:0:0:0:
224,48,247494,1,8,0:0:0:0:
300,296,247835,6,8,L|321:296,3,21.25,8|8|8|8,0:3|0:3|0:3|0:3,0:3:0:0:
300,296,248062,2,0,B|300:144|300:144|420:132|372:248|304:216|304:216|392:296,1,425,8|0,0:0|0:0,0:0:0:0:
