osu file format v14

[General]
AudioFilename: UNDEAD+CORPORATION-++feat..mp3
AudioLeadIn: 0
PreviewTime: 104522
Countdown: 0
SampleSet: Soft
StackLeniency: 0.7
Mode: 3
LetterboxInBreaks: 0
SpecialStyle: 0
WidescreenStoryboard: 1

[Editor]
DistanceSpacing: 0.5
BeatDivisor: 4
GridSize: 4
TimelineZoom: 1.7

[Metadata]
Title:karakurenawi
TitleUnicode:からくれなゐ
Artist:UNDEAD CORPORATION
ArtistUnicode:UNDEAD CORPORATION
Creator:Tidek
Version:Normal
Source:東方Project
Tags:パインツリー Pinetree instrumental 旧地獄街道を行く Walking the Streets of a Former Hell Touhou 11 Subterranean Animism Stage 3 Theme 紅染の鬼が哭く C82 Comicket 82 東方地霊殿
BeatmapID:779139
BeatmapSetID:329497

[Difficulty]
HPDrainRate:8
CircleSize:4
OverallDifficulty:7.5
ApproachRate:5
SliderMultiplier:1.4
SliderTickRate:1

[Events]
//Background and Video events
0,0,"BG.png",0,0
//Break Periods
//Storyboard Layer 0 (Background)
//Storyboard Layer 1 (Fail)
//Storyboard Layer 2 (Pass)
//Storyboard Layer 3 (Foreground)
//Storyboard Sound Samples

[TimingPoints]
12052,352.941176470588,4,2,0,30,1,0
24757,-100,4,2,0,40,0,0
36051,-100,4,2,0,50,0,0
47346,-100,4,2,0,60,0,1
71346,-100,4,2,0,50,0,0
82640,-100,4,2,0,40,0,0
93934,-100,4,2,0,50,0,0
105228,-100,4,2,0,60,0,1
129228,-100,4,2,0,50,0,0
129581,-100,4,2,0,20,0,0
131346,-100,4,2,0,50,0,0
140522,-100,4,2,0,60,0,0
151816,-100,4,2,0,30,0,0
163110,-100,4,2,0,60,0,1
188169,-100,4,2,0,60,0,0

[HitObjects]
448,192,13463,5,4,0:0:0:0:
64,192,13463,128,4,13816:0:0:0:0:
448,192,13816,128,0,14169:0:0:0:0:
64,192,14169,128,2,14522:0:0:0:0:
448,192,14522,128,0,14875:0:0:0:0:
192,192,14875,128,0,15052:0:0:0:0:
320,192,15052,128,0,15228:0:0:0:0:
64,192,15228,128,0,15404:0:0:0:0:
192,192,15404,128,0,15581:0:0:0:0:
320,192,15581,128,2,15934:0:0:0:0:
448,192,15934,1,0,0:0:0:0:
192,192,16287,128,0,16640:0:0:0:0:
448,192,16640,128,0,16993:0:0:0:0:
192,192,16993,128,2,17346:0:0:0:0:
448,192,17346,128,0,17699:0:0:0:0:
64,192,17699,128,0,17875:0:0:0:0:
320,192,17875,128,0,18052:0:0:0:0:
192,192,18052,128,0,18228:0:0:0:0:
320,192,18228,128,0,18404:0:0:0:0:
448,192,18404,128,2,18757:0:0:0:0:
192,192,18757,1,0,0:0:0:0:
64,192,19110,128,0,19463:0:0:0:0:
448,192,19463,128,0,19816:0:0:0:0:
64,192,19816,128,2,20169:0:0:0:0:
448,192,20169,128,0,20522:0:0:0:0:
192,192,20522,128,0,20699:0:0:0:0:
320,192,20699,128,0,20875:0:0:0:0:
64,192,20875,128,0,21051:0:0:0:0:
192,192,21051,128,0,21228:0:0:0:0:
320,192,21228,128,2,21581:0:0:0:0:
448,192,21581,1,0,0:0:0:0:
192,192,21934,128,0,22287:0:0:0:0:
448,192,22287,128,0,22640:0:0:0:0:
192,192,22640,128,2,22993:0:0:0:0:
320,192,22993,128,0,23169:0:0:0:0:
192,192,23169,128,0,23346:0:0:0:0:
64,192,23346,128,0,24404:0:0:0:0:
320,192,23699,1,0,0:0:0:0:
192,192,24051,1,8,0:3:0:0:
448,192,24051,1,0,0:0:0:0:
320,192,24404,1,0,0:0:0:0:
192,192,24581,1,0,0:0:0:0:
64,192,24757,1,8,0:3:0:0:
448,192,24757,128,4,25110:0:0:0:0:
64,192,25110,128,8,25463:0:3:0:0:
448,192,25463,128,8,25816:0:3:0:0:
64,192,25816,128,8,26169:0:3:0:0:
448,192,26169,1,8,0:3:0:0:
192,192,26169,128,0,26346:0:0:0:0:
320,192,26346,128,0,26522:0:0:0:0:
64,192,26522,128,8,26699:0:3:0:0:
192,192,26699,128,0,26875:0:0:0:0:
320,192,26875,128,8,27228:0:3:0:0:
448,192,27051,1,0,0:0:0:0:
64,192,27228,1,8,0:3:0:0:
192,192,27581,128,8,27934:0:3:0:0:
448,192,27581,1,0,0:0:0:0:
320,192,27934,128,8,28287:0:3:0:0:
192,192,28287,128,8,28640:0:3:0:0:
320,192,28640,128,8,28993:0:3:0:0:
448,192,28993,1,8,0:3:0:0:
64,192,28993,128,0,29169:0:0:0:0:
320,192,29169,128,0,29346:0:0:0:0:
192,192,29346,128,8,29522:0:3:0:0:
320,192,29522,128,0,29699:0:0:0:0:
448,192,29699,128,8,30051:0:3:0:0:
64,192,29875,1,0,0:0:0:0:
320,192,30051,1,8,0:3:0:0:
192,192,30228,1,0,0:0:0:0:
448,192,30404,1,4,0:0:0:0:
64,192,30404,128,8,30757:0:3:0:0:
448,192,30757,128,8,31110:0:3:0:0:
64,192,31110,128,8,31463:0:3:0:0:
448,192,31463,128,8,31816:0:3:0:0:
320,192,31816,128,8,31993:0:3:0:0:
64,192,31816,1,0,0:0:0:0:
192,192,31993,128,0,32169:0:0:0:0:
448,192,32169,128,8,32346:0:3:0:0:
320,192,32346,128,0,32522:0:0:0:0:
192,192,32522,128,8,32875:0:3:0:0:
448,192,32699,1,0,0:0:0:0:
64,192,32875,1,4,0:0:0:0:
320,192,32875,1,8,0:3:0:0:
192,192,33228,1,4,0:0:0:0:
448,192,33228,1,8,0:3:0:0:
320,192,33404,1,0,0:0:0:0:
64,192,33581,1,8,0:3:0:0:
448,192,33757,1,0,0:0:0:0:
192,192,33934,1,8,0:3:0:0:
320,192,34110,1,0,1:0:0:0:
64,192,34287,1,0,1:0:0:0:
192,192,34463,1,0,1:0:0:0:
320,192,34640,1,0,1:0:0:0:
448,192,34816,1,0,0:0:0:0:
192,192,34993,1,8,0:3:0:0:
64,192,35169,1,0,0:0:0:0:
320,192,35346,1,8,0:3:0:0:
448,192,35522,1,0,0:0:0:0:
320,192,35699,1,0,1:0:0:0:
192,192,35699,128,0,36051:0:0:0:0:
448,192,36051,1,8,3:0:0:0:
64,192,36051,128,0,36228:0:0:0:0:
320,192,36228,128,0,36404:0:0:0:0:
192,192,36404,128,8,36581:0:3:0:0:
320,192,36581,128,0,36757:0:0:0:0:
64,192,36757,1,0,1:0:0:0:
448,192,36757,128,0,37110:0:0:0:0:
192,192,37110,128,0,37287:0:0:0:0:
320,192,37287,128,0,37463:0:0:0:0:
448,192,37463,128,8,38169:0:3:0:0:
320,192,37816,1,8,0:3:0:0:
64,192,38169,1,0,1:0:0:0:
192,192,38169,1,0,0:0:0:0:
320,192,38522,1,0,0:0:0:0:
192,192,38699,1,0,1:0:0:0:
448,192,38875,1,8,0:3:0:0:
64,192,38875,128,0,39051:0:0:0:0:
320,192,39051,128,0,39228:0:0:0:0:
192,192,39228,128,8,39404:0:3:0:0:
320,192,39404,128,0,39581:0:0:0:0:
448,192,39581,128,0,39934:1:0:0:0:
64,192,39581,1,0,0:0:0:0:
320,192,39934,128,0,40110:0:0:0:0:
192,192,40110,128,0,40287:0:0:0:0:
64,192,40287,128,8,40993:0:3:0:0:
192,192,40640,1,8,0:3:0:0:
320,192,40993,1,0,1:0:0:0:
448,192,40993,1,2,0:0:0:0:
448,192,41346,1,0,1:0:0:0:
192,192,41346,128,2,41699:0:0:0:0:
448,192,41699,1,0,1:0:0:0:
64,192,41699,128,0,41875:0:0:0:0:
192,192,41875,128,0,42051:0:0:0:0:
320,192,42051,128,0,42228:1:0:0:0:
448,192,42228,128,0,42404:0:0:0:0:
192,192,42404,128,0,42581:1:0:0:0:
320,192,42581,128,0,42757:0:0:0:0:
192,192,42757,128,0,42934:1:0:0:0:
64,192,42934,128,0,43110:0:0:0:0:
320,192,43110,1,0,1:0:0:0:
448,192,43110,128,0,43463:0:0:0:0:
320,192,43463,128,0,43816:1:0:0:0:
64,192,43463,1,0,0:0:0:0:
192,192,43816,128,0,44169:1:0:0:0:
448,192,43816,1,0,0:0:0:0:
320,192,44169,1,0,1:0:0:0:
448,192,44522,1,0,1:0:0:0:
64,192,44522,128,4,44699:0:0:0:0:
192,192,44699,128,0,44875:0:0:0:0:
320,192,44875,128,0,45051:1:0:0:0:
448,192,45051,128,0,45228:0:0:0:0:
192,192,45228,128,0,45404:1:0:0:0:
320,192,45404,128,0,45581:0:0:0:0:
192,192,45581,128,0,45757:1:0:0:0:
64,192,45757,128,0,45934:0:0:0:0:
320,192,45934,1,0,1:0:0:0:
448,192,45934,128,0,46640:0:0:0:0:
64,192,46640,128,0,46816:1:0:0:0:
320,192,46816,128,0,46993:0:0:0:0:
192,192,46993,128,0,47169:0:0:0:0:
448,192,47169,128,0,47346:0:0:0:0:
192,192,47346,1,0,1:0:0:0:
64,192,47346,128,0,47699:0:0:0:0:
320,192,47699,128,0,47875:1:0:0:0:
192,192,47875,128,0,48051:0:0:0:0:
448,192,48051,128,0,48228:1:0:0:0:
64,192,48228,1,0,0:0:0:0:
448,192,48404,128,0,48581:1:0:0:0:
192,192,48581,128,0,48757:0:0:0:0:
64,192,48757,128,0,49110:1:0:0:0:
320,192,48757,1,0,0:0:0:0:
192,192,49110,1,0,1:0:0:0:
448,192,49110,128,0,49463:0:0:0:0:
64,192,49463,1,0,1:0:0:0:
320,192,49463,1,0,0:0:0:0:
192,192,49816,128,0,49993:1:0:0:0:
320,192,49993,128,0,50169:0:0:0:0:
64,192,50169,1,0,1:0:0:0:
448,192,50169,128,0,50522:0:0:0:0:
192,192,50522,128,0,50699:1:0:0:0:
320,192,50699,128,0,50875:0:0:0:0:
64,192,50875,128,0,51051:1:0:0:0:
448,192,51051,1,0,0:0:0:0:
64,192,51228,128,0,51404:1:0:0:0:
320,192,51404,128,0,51581:0:0:0:0:
192,192,51581,1,0,1:0:0:0:
448,192,51581,128,0,51934:0:0:0:0:
320,192,51934,1,0,1:0:0:0:
64,192,51934,128,0,52287:0:0:0:0:
192,192,52287,1,0,1:0:0:0:
448,192,52287,1,0,0:0:0:0:
320,192,52640,128,0,52816:1:0:0:0:
192,192,52816,128,0,52993:0:0:0:0:
64,192,52993,128,0,53346:1:0:0:0:
448,192,52993,1,4,0:0:0:0:
192,192,53346,128,0,53522:1:0:0:0:
320,192,53522,128,0,53699:0:0:0:0:
448,192,53699,128,0,53875:1:0:0:0:
320,192,53875,128,0,54051:0:0:0:0:
448,192,54051,128,0,54404:1:0:0:0:
320,192,54404,128,0,54757:1:0:0:0:
64,192,54404,1,0,0:0:0:0:
192,192,54757,128,0,55110:1:0:0:0:
448,192,54757,1,0,0:0:0:0:
64,192,55110,1,0,1:0:0:0:
320,192,55110,1,0,0:0:0:0:
192,192,55463,128,0,55640:1:0:0:0:
320,192,55640,128,0,55816:0:0:0:0:
64,192,55816,1,0,1:0:0:0:
448,192,55816,128,0,56169:0:0:0:0:
192,192,56169,128,0,56346:1:0:0:0:
320,192,56346,128,0,56522:0:0:0:0:
64,192,56522,128,0,56699:1:0:0:0:
192,192,56699,1,0,0:0:0:0:
448,192,56875,128,0,57051:1:0:0:0:
320,192,57051,128,0,57228:0:0:0:0:
192,192,57228,128,0,57581:1:0:0:0:
64,192,57581,1,0,1:0:0:0:
448,192,57581,1,0,0:0:0:0:
320,192,57934,128,8,58110:0:3:0:0:
448,192,58110,128,8,58287:0:3:0:0:
192,192,58287,128,8,58463:0:3:0:0:
320,192,58463,128,8,58640:0:3:0:0:
448,192,58640,1,4,0:0:0:0:
64,192,58640,128,0,58993:1:0:0:0:
320,192,58993,128,0,59169:1:0:0:0:
192,192,59169,128,0,59346:0:0:0:0:
448,192,59346,128,0,59522:1:0:0:0:
64,192,59522,1,0,0:0:0:0:
448,192,59699,128,0,59875:1:0:0:0:
192,192,59875,128,0,60051:0:0:0:0:
320,192,60051,1,0,1:0:0:0:
64,192,60051,128,0,60404:0:0:0:0:
192,192,60404,1,0,1:0:0:0:
448,192,60404,128,0,60757:0:0:0:0:
64,192,60757,1,0,1:0:0:0:
320,192,60757,1,0,0:0:0:0:
192,192,61110,128,0,61287:1:0:0:0:
320,192,61287,128,0,61463:0:0:0:0:
64,192,61463,1,4,0:0:0:0:
448,192,61463,128,0,61816:1:0:0:0:
192,192,61816,128,0,61993:1:0:0:0:
320,192,61993,128,0,62169:0:0:0:0:
64,192,62169,128,0,62346:1:0:0:0:
448,192,62346,1,0,0:0:0:0:
64,192,62522,128,0,62699:1:0:0:0:
320,192,62699,128,0,62875:0:0:0:0:
192,192,62875,1,0,1:0:0:0:
448,192,62875,128,0,63228:0:0:0:0:
320,192,63228,1,0,1:0:0:0:
64,192,63228,128,0,63581:0:0:0:0:
192,192,63581,1,0,1:0:0:0:
448,192,63581,1,0,0:0:0:0:
320,192,63934,128,0,64110:1:0:0:0:
192,192,64110,128,0,64287:0:0:0:0:
448,192,64287,1,4,0:0:0:0:
64,192,64287,128,0,64640:1:0:0:0:
192,192,64640,128,0,64816:1:0:0:0:
320,192,64816,128,0,64993:0:0:0:0:
448,192,64993,128,0,65169:1:0:0:0:
320,192,65169,128,0,65346:0:0:0:0:
448,192,65346,128,0,65699:1:0:0:0:
64,192,65699,1,0,1:0:0:0:
320,192,65699,128,0,66051:0:0:0:0:
192,192,66051,128,0,66404:1:0:0:0:
448,192,66051,1,0,0:0:0:0:
64,192,66404,1,0,1:0:0:0:
320,192,66404,1,0,0:0:0:0:
192,192,66757,128,0,66934:1:0:0:0:
320,192,66934,128,0,67110:0:0:0:0:
64,192,67110,1,0,1:0:0:0:
448,192,67110,128,0,67463:0:0:0:0:
192,192,67463,128,0,67640:1:0:0:0:
320,192,67640,128,0,67816:0:0:0:0:
64,192,67816,128,0,67993:1:0:0:0:
192,192,67993,1,0,0:0:0:0:
448,192,68169,128,0,68346:1:0:0:0:
320,192,68346,128,0,68522:0:0:0:0:
192,192,68522,128,0,68875:1:0:0:0:
64,192,68875,1,0,1:0:0:0:
448,192,68875,1,0,0:0:0:0:
320,192,69228,128,0,69581:1:0:0:0:
192,192,69581,128,0,69757:1:0:0:0:
320,192,69757,128,0,69934:0:0:0:0:
64,192,69934,1,0,1:0:0:0:
448,192,69934,1,0,0:0:0:0:
192,192,70110,1,8,0:3:0:0:
320,192,70287,1,8,0:3:0:0:
448,192,70463,1,8,0:3:0:0:
64,192,70640,1,0,1:0:0:0:
192,192,70640,1,0,0:0:0:0:
320,192,70816,1,0,1:0:0:0:
448,192,70816,1,0,0:0:0:0:
64,192,70993,1,0,1:0:0:0:
192,192,70993,1,0,0:0:0:0:
320,192,71169,1,0,1:0:0:0:
448,192,71169,1,0,0:0:0:0:
64,192,71346,1,4,0:0:0:0:
448,192,71346,1,2,0:0:0:0:
192,192,71522,1,2,0:3:0:0:
320,192,71699,1,2,0:3:0:0:
192,192,71875,1,2,0:3:0:0:
64,192,72051,1,2,0:0:0:0:
448,192,72051,1,0,1:0:0:0:
192,192,72228,1,2,0:3:0:0:
320,192,72404,1,2,0:3:0:0:
448,192,72581,1,2,0:3:0:0:
192,192,72934,1,2,0:3:0:0:
320,192,73022,1,2,0:3:0:0:
192,192,73110,1,2,0:3:0:0:
448,192,73287,1,2,3:0:0:0:
64,192,73463,1,0,1:0:0:0:
192,192,73463,1,2,0:0:0:0:
320,192,73816,1,2,0:3:0:0:
192,192,73934,1,2,0:3:0:0:
320,192,73993,1,0,1:0:0:0:
448,192,73993,1,0,0:0:0:0:
64,192,74169,1,2,0:3:0:0:
192,192,74169,1,2,0:0:0:0:
320,192,74346,1,2,0:3:0:0:
192,192,74522,1,2,0:3:0:0:
320,192,74699,1,2,0:3:0:0:
64,192,74875,1,0,1:0:0:0:
448,192,74875,1,2,0:0:0:0:
320,192,75051,1,2,0:3:0:0:
192,192,75228,1,2,0:3:0:0:
64,192,75404,1,2,0:3:0:0:
320,192,75757,1,2,0:3:0:0:
192,192,75846,1,2,0:3:0:0:
320,192,75934,1,2,0:3:0:0:
64,192,76110,1,2,0:3:0:0:
320,192,76287,1,2,0:0:0:0:
448,192,76287,1,0,1:0:0:0:
192,192,76640,1,2,0:3:0:0:
448,192,76816,1,2,0:3:0:0:
320,192,76904,1,0,0:0:0:0:
64,192,76993,1,2,0:0:0:0:
192,192,76993,1,2,0:3:0:0:
320,192,77169,1,2,0:3:0:0:
192,192,77346,1,2,0:3:0:0:
320,192,77522,1,2,0:3:0:0:
64,192,77699,1,0,1:0:0:0:
448,192,77699,1,2,0:0:0:0:
320,192,77875,1,2,0:3:0:0:
192,192,78051,1,2,0:3:0:0:
64,192,78228,1,2,0:3:0:0:
320,192,78581,1,2,3:0:0:0:
192,192,78669,1,2,3:0:0:0:
320,192,78757,1,2,3:0:0:0:
64,192,78934,1,2,0:3:0:0:
320,192,79110,1,0,1:0:0:0:
448,192,79110,1,2,0:0:0:0:
192,192,79463,1,2,3:0:0:0:
320,192,79581,1,2,3:0:0:0:
64,192,79640,1,0,1:0:0:0:
192,192,79640,1,0,0:0:0:0:
320,192,79816,1,2,0:0:0:0:
448,192,79816,1,2,0:3:0:0:
64,192,79993,1,0,1:0:0:0:
192,192,79993,1,0,0:0:0:0:
320,192,80169,1,2,0:3:0:0:
192,192,80346,1,2,0:3:0:0:
64,192,80522,1,2,0:0:0:0:
448,192,80522,1,0,1:0:0:0:
320,192,80699,1,2,0:3:0:0:
192,192,80787,1,2,0:3:0:0:
64,192,80875,1,2,0:3:0:0:
320,192,81051,1,2,0:3:0:0:
192,192,81228,1,2,0:0:0:0:
64,192,81228,128,4,81934:0:0:0:0:
320,192,81404,1,0,0:0:0:0:
192,192,81757,1,0,0:0:0:0:
320,192,81934,1,0,1:0:0:0:
448,192,81934,128,2,82640:0:0:0:0:
192,192,82287,1,0,0:0:0:0:
320,192,82463,1,0,1:0:0:0:
64,192,82640,128,4,82993:0:0:0:0:
192,192,82640,1,0,0:0:0:0:
448,192,82993,128,8,83346:0:3:0:0:
64,192,83346,128,8,83699:0:3:0:0:
448,192,83699,128,8,84051:0:3:0:0:
64,192,84051,1,8,0:3:0:0:
320,192,84051,128,0,84228:0:0:0:0:
192,192,84228,128,0,84404:0:0:0:0:
448,192,84404,128,8,84581:0:3:0:0:
320,192,84581,128,0,84757:0:0:0:0:
192,192,84757,128,8,85110:0:3:0:0:
64,192,84934,1,0,0:0:0:0:
448,192,85110,1,8,0:3:0:0:
320,192,85463,128,8,85816:0:3:0:0:
64,192,85463,1,0,0:0:0:0:
192,192,85816,128,8,86169:0:3:0:0:
320,192,86169,128,8,86522:0:3:0:0:
192,192,86522,128,8,86875:0:3:0:0:
64,192,86875,1,8,0:3:0:0:
448,192,86875,128,0,87051:0:0:0:0:
192,192,87051,128,0,87228:0:0:0:0:
320,192,87228,128,8,87404:0:3:0:0:
192,192,87404,128,0,87581:0:0:0:0:
64,192,87581,128,8,87934:0:3:0:0:
448,192,87757,1,0,0:0:0:0:
192,192,87934,1,8,0:3:0:0:
320,192,88110,1,0,0:0:0:0:
64,192,88287,1,8,0:3:0:0:
448,192,88287,128,4,88640:0:0:0:0:
64,192,88640,128,8,88993:0:3:0:0:
448,192,88993,128,8,89346:0:3:0:0:
64,192,89346,128,8,89699:0:3:0:0:
192,192,89699,128,8,89875:0:3:0:0:
448,192,89699,1,0,0:0:0:0:
320,192,89875,128,0,90051:0:0:0:0:
64,192,90051,128,8,90228:0:3:0:0:
192,192,90228,128,0,90404:0:0:0:0:
320,192,90404,128,8,90757:0:3:0:0:
64,192,90581,1,0,0:0:0:0:
192,192,90757,1,4,0:0:0:0:
448,192,90757,1,8,0:3:0:0:
64,192,91110,1,4,0:0:0:0:
320,192,91110,1,8,0:3:0:0:
64,192,91463,1,2,0:0:0:0:
448,192,91463,1,8,0:3:0:0:
448,192,91816,1,2,0:0:0:0:
192,192,91816,1,8,0:3:0:0:
320,192,92169,128,8,92346:0:3:0:0:
64,192,92169,1,2,0:0:0:0:
192,192,92346,128,0,92522:0:0:0:0:
64,192,92522,128,8,93581:0:3:0:0:
448,192,92522,1,4,0:0:0:0:
448,192,92875,1,0,0:0:0:0:
192,192,93228,1,0,1:0:0:0:
320,192,93228,1,0,0:0:0:0:
448,192,93404,1,0,0:0:0:0:
192,192,93581,1,0,1:0:0:0:
320,192,93581,128,0,93934:0:0:0:0:
64,192,93934,1,8,0:3:0:0:
448,192,93934,128,0,94110:0:0:0:0:
192,192,94110,128,0,94287:0:0:0:0:
320,192,94287,128,8,94463:0:3:0:0:
192,192,94463,128,0,94640:0:0:0:0:
448,192,94640,1,0,1:0:0:0:
64,192,94640,128,0,94993:0:0:0:0:
320,192,94993,128,0,95169:0:0:0:0:
192,192,95169,128,0,95346:0:0:0:0:
64,192,95346,128,8,96051:0:3:0:0:
192,192,95699,1,8,0:3:0:0:
320,192,96051,1,0,1:0:0:0:
448,192,96051,1,0,0:0:0:0:
192,192,96404,1,0,0:0:0:0:
320,192,96581,1,0,1:0:0:0:
448,192,96757,128,8,96934:0:3:0:0:
64,192,96757,1,0,0:0:0:0:
192,192,96934,128,0,97110:0:0:0:0:
320,192,97110,128,8,97287:0:3:0:0:
192,192,97287,128,0,97463:0:0:0:0:
64,192,97463,128,0,97816:1:0:0:0:
448,192,97463,1,0,0:0:0:0:
192,192,97816,128,0,97993:0:0:0:0:
320,192,97993,128,0,98169:0:0:0:0:
448,192,98169,128,8,98875:0:3:0:0:
320,192,98522,1,8,0:3:0:0:
192,192,98875,1,2,0:0:0:0:
64,192,98875,1,0,1:0:0:0:
64,192,99228,1,0,1:0:0:0:
320,192,99228,128,2,99581:0:0:0:0:
64,192,99581,1,0,1:0:0:0:
448,192,99581,128,0,99757:0:0:0:0:
320,192,99757,128,0,99934:0:0:0:0:
192,192,99934,128,0,100110:1:0:0:0:
64,192,100110,128,0,100287:0:0:0:0:
320,192,100287,128,0,100463:1:0:0:0:
192,192,100463,128,0,100640:0:0:0:0:
320,192,100640,128,0,100816:1:0:0:0:
448,192,100816,128,0,100993:0:0:0:0:
64,192,100993,128,0,101346:1:0:0:0:
192,192,100993,1,0,0:0:0:0:
192,192,101346,128,0,101699:1:0:0:0:
448,192,101346,1,0,0:0:0:0:
320,192,101699,128,0,102051:1:0:0:0:
64,192,101699,1,0,0:0:0:0:
192,192,102051,1,0,1:0:0:0:
448,192,102404,128,4,102581:0:0:0:0:
64,192,102404,1,0,1:0:0:0:
320,192,102581,128,0,102757:0:0:0:0:
192,192,102757,128,0,102934:1:0:0:0:
64,192,102934,128,0,103110:0:0:0:0:
320,192,103110,128,0,103287:1:0:0:0:
192,192,103287,128,0,103463:0:0:0:0:
320,192,103463,128,0,103640:1:0:0:0:
448,192,103640,128,0,103816:0:0:0:0:
64,192,103816,128,0,104522:1:0:0:0:
192,192,103816,1,0,0:0:0:0:
448,192,104522,128,0,104699:1:0:0:0:
192,192,104699,128,0,104875:0:0:0:0:
320,192,104875,128,0,105051:0:0:0:0:
64,192,105051,128,0,105228:0:0:0:0:
448,192,105228,128,0,105581:1:0:0:0:
320,192,105228,1,0,0:0:0:0:
192,192,105581,128,0,105757:1:0:0:0:
320,192,105757,128,0,105934:0:0:0:0:
64,192,105934,128,0,106110:1:0:0:0:
448,192,106110,1,0,0:0:0:0:
64,192,106287,128,0,106463:1:0:0:0:
320,192,106463,128,0,106640:0:0:0:0:
192,192,106640,1,0,1:0:0:0:
448,192,106640,128,0,106993:0:0:0:0:
320,192,106993,1,0,1:0:0:0:
64,192,106993,128,0,107346:0:0:0:0:
448,192,107346,1,0,1:0:0:0:
192,192,107346,1,0,0:0:0:0:
320,192,107699,128,0,107875:1:0:0:0:
192,192,107875,128,0,108051:0:0:0:0:
64,192,108051,128,0,108404:1:0:0:0:
448,192,108051,1,0,0:0:0:0:
320,192,108404,128,0,108581:1:0:0:0:
192,192,108581,128,0,108757:0:0:0:0:
448,192,108757,128,0,108934:1:0:0:0:
64,192,108934,1,0,0:0:0:0:
448,192,109110,128,0,109287:1:0:0:0:
192,192,109287,128,0,109463:0:0:0:0:
64,192,109463,128,0,109816:1:0:0:0:
320,192,109463,1,0,1:0:0:0:
192,192,109816,1,0,1:0:0:0:
448,192,109816,128,0,110169:0:0:0:0:
64,192,110169,1,0,1:0:0:0:
320,192,110169,1,0,0:0:0:0:
192,192,110522,128,0,110699:1:0:0:0:
320,192,110699,128,0,110875:0:0:0:0:
448,192,110875,128,4,111228:0:0:0:0:
64,192,110875,1,0,1:0:0:0:
320,192,111228,128,0,111404:1:0:0:0:
192,192,111404,128,0,111581:0:0:0:0:
64,192,111581,128,0,111757:1:0:0:0:
192,192,111757,128,0,111934:0:0:0:0:
64,192,111934,128,0,112287:1:0:0:0:
448,192,112287,1,0,1:0:0:0:
192,192,112287,128,0,112640:0:0:0:0:
320,192,112640,128,0,112993:1:0:0:0:
64,192,112640,1,0,0:0:0:0:
192,192,112993,1,0,1:0:0:0:
448,192,112993,1,0,0:0:0:0:
320,192,113346,128,0,113522:1:0:0:0:
192,192,113522,128,0,113699:0:0:0:0:
448,192,113699,1,0,1:0:0:0:
64,192,113699,128,0,114051:0:0:0:0:
320,192,114051,128,0,114228:1:0:0:0:
192,192,114228,128,0,114404:0:0:0:0:
448,192,114404,128,0,114581:1:0:0:0:
320,192,114581,1,0,0:0:0:0:
64,192,114757,128,0,114934:1:0:0:0:
192,192,114934,128,0,115110:0:0:0:0:
320,192,115110,128,0,115463:1:0:0:0:
64,192,115463,1,0,1:0:0:0:
448,192,115463,1,0,0:0:0:0:
192,192,115816,128,4,115993:0:0:0:0:
448,192,115816,1,0,0:0:0:0:
64,192,115993,128,0,116169:0:0:0:0:
320,192,116169,128,4,116346:0:0:0:0:
448,192,116169,1,0,0:0:0:0:
192,192,116346,128,0,116522:0:0:0:0:
448,192,116522,128,4,116875:0:0:0:0:
64,192,116522,1,0,1:0:0:0:
192,192,116875,128,0,117051:1:0:0:0:
320,192,117051,128,0,117228:0:0:0:0:
64,192,117228,128,0,117404:1:0:0:0:
448,192,117404,1,0,0:0:0:0:
64,192,117581,128,0,117757:1:0:0:0:
320,192,117757,128,0,117934:0:0:0:0:
192,192,117934,1,0,1:0:0:0:
448,192,117934,128,0,118287:0:0:0:0:
320,192,118287,1,0,1:0:0:0:
64,192,118287,128,0,118640:0:0:0:0:
192,192,118640,1,0,1:0:0:0:
448,192,118640,1,0,0:0:0:0:
320,192,118993,128,0,119169:1:0:0:0:
192,192,119169,128,0,119346:0:0:0:0:
64,192,119346,128,4,119699:0:0:0:0:
448,192,119346,1,0,1:0:0:0:
320,192,119699,128,0,119875:1:0:0:0:
192,192,119875,128,0,120051:0:0:0:0:
448,192,120051,128,0,120228:1:0:0:0:
64,192,120228,1,0,0:0:0:0:
448,192,120404,128,0,120581:1:0:0:0:
192,192,120581,128,0,120757:0:0:0:0:
320,192,120757,1,0,1:0:0:0:
64,192,120757,128,0,121110:0:0:0:0:
448,192,121110,128,0,121463:1:0:0:0:
192,192,121110,1,0,0:0:0:0:
320,192,121463,1,0,1:0:0:0:
64,192,121463,1,0,0:0:0:0:
192,192,121816,128,0,121993:1:0:0:0:
320,192,121993,128,0,122169:0:0:0:0:
448,192,122169,128,4,122522:0:0:0:0:
64,192,122169,1,0,1:0:0:0:
320,192,122522,128,0,122699:1:0:0:0:
192,192,122699,128,0,122875:0:0:0:0:
64,192,122875,128,0,123051:1:0:0:0:
192,192,123051,128,0,123228:0:0:0:0:
64,192,123228,128,0,123581:1:0:0:0:
192,192,123581,128,0,123934:1:0:0:0:
448,192,123581,1,0,0:0:0:0:
64,192,123934,1,0,1:0:0:0:
320,192,123934,128,0,124287:0:0:0:0:
192,192,124287,1,0,1:0:0:0:
448,192,124287,1,0,0:0:0:0:
320,192,124640,128,0,124816:1:0:0:0:
192,192,124816,128,0,124993:0:0:0:0:
448,192,124993,1,0,1:0:0:0:
64,192,124993,128,0,125346:0:0:0:0:
320,192,125346,128,0,125522:1:0:0:0:
192,192,125522,128,0,125699:0:0:0:0:
448,192,125699,128,0,125875:1:0:0:0:
320,192,125875,1,0,0:0:0:0:
64,192,126051,128,0,126228:1:0:0:0:
192,192,126228,128,0,126404:0:0:0:0:
320,192,126404,128,0,126757:1:0:0:0:
448,192,126757,1,0,1:0:0:0:
64,192,126757,1,0,0:0:0:0:
192,192,127110,128,0,127463:1:0:0:0:
320,192,127463,128,0,127640:1:0:0:0:
192,192,127640,128,0,127816:0:0:0:0:
448,192,127816,1,0,1:0:0:0:
64,192,127816,1,0,0:0:0:0:
320,192,127993,1,8,0:3:0:0:
192,192,128169,1,8,0:3:0:0:
448,192,128522,1,8,0:3:0:0:
192,192,128699,1,8,0:3:0:0:
320,192,128875,1,8,0:3:0:0:
64,192,129051,1,0,0:0:0:0:
320,192,129228,1,4,0:0:0:0:
448,192,129228,1,0,0:0:0:0:
192,192,131169,1,2,0:0:0:0:
448,192,131346,128,0,132051:1:0:0:0:
64,192,131346,128,0,132051:0:0:0:0:
192,192,132051,1,4,0:0:0:0:
320,192,132051,1,0,0:0:0:0:
192,192,132757,1,4,0:0:0:0:
320,192,132757,1,0,0:0:0:0:
192,192,133463,1,4,0:0:0:0:
320,192,133463,1,0,0:0:0:0:
64,192,133816,1,0,1:0:0:0:
192,192,133993,1,0,1:0:0:0:
448,192,134169,1,8,0:3:0:0:
320,192,134346,1,8,0:3:0:0:
192,192,134522,1,8,0:3:0:0:
320,192,134699,1,8,0:3:0:0:
64,192,134875,1,4,0:0:0:0:
448,192,134875,1,0,0:0:0:0:
192,192,135228,1,8,0:3:0:0:
64,192,135581,1,0,1:0:0:0:
448,192,135581,1,4,0:0:0:0:
320,192,136110,1,8,0:3:0:0:
192,192,136199,1,8,0:3:0:0:
64,192,136287,1,4,0:0:0:0:
448,192,136287,1,8,0:3:0:0:
320,192,136463,1,8,0:3:0:0:
320,192,136816,1,8,0:3:0:0:
64,192,136993,1,4,0:0:0:0:
448,192,136993,1,0,1:0:0:0:
192,192,137522,1,8,0:3:0:0:
320,192,137610,1,8,0:3:0:0:
64,192,137699,1,4,0:0:0:0:
448,192,137699,1,8,0:3:0:0:
192,192,138051,1,8,0:3:0:0:
64,192,138404,1,0,1:0:0:0:
448,192,138404,1,4,0:0:0:0:
64,192,139110,1,4,0:0:0:0:
448,192,139110,1,0,0:0:0:0:
192,192,139287,1,0,0:0:0:0:
320,192,139375,1,0,0:0:0:0:
448,192,139463,1,8,0:3:0:0:
64,192,139551,1,8,0:3:0:0:
192,192,139640,1,8,0:3:0:0:
320,192,139728,1,8,0:3:0:0:
448,192,139816,1,8,0:3:0:0:
64,192,139993,1,8,0:3:0:0:
192,192,140169,1,4,0:0:0:0:
320,192,140169,1,0,1:0:0:0:
64,192,140522,1,2,0:3:0:0:
448,192,140522,1,4,0:0:0:0:
192,192,140699,1,2,0:3:0:0:
320,192,140875,1,2,0:3:0:0:
192,192,141051,1,2,0:3:0:0:
64,192,141228,1,0,1:0:0:0:
448,192,141228,1,2,0:0:0:0:
192,192,141404,1,2,0:3:0:0:
320,192,141581,1,2,0:3:0:0:
448,192,141757,1,2,0:3:0:0:
64,192,141934,1,2,0:0:0:0:
192,192,141934,1,0,0:0:0:0:
320,192,142110,1,2,0:3:0:0:
192,192,142199,1,2,0:3:0:0:
320,192,142287,1,2,0:3:0:0:
64,192,142463,1,2,0:3:0:0:
320,192,142640,1,0,1:0:0:0:
448,192,142640,1,2,0:0:0:0:
64,192,142816,1,0,0:0:0:0:
448,192,142993,1,2,0:3:0:0:
320,192,143110,1,2,0:3:0:0:
64,192,143169,1,0,1:0:0:0:
192,192,143169,1,0,0:0:0:0:
320,192,143346,1,2,0:3:0:0:
448,192,143346,1,2,0:0:0:0:
192,192,143522,1,2,0:3:0:0:
320,192,143699,1,2,0:3:0:0:
192,192,143875,1,2,0:3:0:0:
64,192,144051,1,0,1:0:0:0:
448,192,144051,1,2,0:0:0:0:
192,192,144228,1,2,0:3:0:0:
320,192,144404,1,2,0:3:0:0:
448,192,144581,1,2,0:3:0:0:
64,192,144757,1,2,0:0:0:0:
192,192,144757,1,0,0:0:0:0:
320,192,144934,1,2,0:3:0:0:
192,192,145022,1,2,0:3:0:0:
320,192,145110,1,2,0:3:0:0:
64,192,145287,1,2,0:3:0:0:
320,192,145463,1,0,1:0:0:0:
448,192,145463,128,2,146169:0:0:0:0:
64,192,145640,1,2,0:3:0:0:
192,192,145816,1,2,0:3:0:0:
320,192,145993,1,2,0:3:0:0:
64,192,146169,1,4,0:0:0:0:
192,192,146169,1,2,0:0:0:0:
320,192,146346,1,2,0:3:0:0:
192,192,146522,1,2,0:3:0:0:
320,192,146699,1,2,0:3:0:0:
64,192,146875,1,0,1:0:0:0:
448,192,146875,1,2,0:0:0:0:
320,192,147051,1,2,0:3:0:0:
192,192,147228,1,2,0:3:0:0:
64,192,147404,1,2,0:3:0:0:
320,192,147581,1,2,0:0:0:0:
448,192,147581,1,0,0:0:0:0:
192,192,147757,1,2,0:3:0:0:
320,192,147846,1,2,0:3:0:0:
192,192,147934,1,2,0:3:0:0:
448,192,148110,1,2,0:3:0:0:
64,192,148287,1,0,1:0:0:0:
192,192,148287,1,2,0:0:0:0:
448,192,148463,1,0,0:0:0:0:
64,192,148640,1,2,0:3:0:0:
192,192,148757,1,2,0:3:0:0:
320,192,148816,1,0,1:0:0:0:
448,192,148816,1,0,0:0:0:0:
64,192,148993,1,2,0:0:0:0:
192,192,148993,1,2,0:3:0:0:
320,192,149169,1,2,0:3:0:0:
448,192,149169,1,0,1:0:0:0:
192,192,149346,1,2,0:3:0:0:
320,192,149522,1,2,0:3:0:0:
448,192,149699,1,0,1:0:0:0:
320,192,149787,1,2,0:3:0:0:
192,192,149875,1,2,0:3:0:0:
64,192,149963,1,2,0:3:0:0:
320,192,150051,1,2,0:3:0:0:
448,192,150051,1,2,0:0:0:0:
192,192,150228,1,2,0:3:0:0:
448,192,150404,1,2,0:0:0:0:
64,192,150404,128,0,151110:0:0:0:0:
192,192,150581,1,0,0:0:0:0:
448,192,150757,1,0,0:0:0:0:
192,192,150934,1,0,0:0:0:0:
448,192,151110,1,0,1:0:0:0:
320,192,151110,1,2,0:0:0:0:
192,192,151287,1,2,0:3:0:0:
64,192,151463,1,2,0:3:0:0:
448,192,151463,1,0,0:0:0:0:
320,192,151640,1,2,0:3:0:0:
64,192,151640,1,0,1:0:0:0:
448,192,151816,1,2,0:0:0:0:
64,192,151816,128,4,151993:0:0:0:0:
320,192,151993,128,0,152169:0:0:0:0:
192,192,152169,128,0,152346:0:0:0:0:
320,192,152346,128,0,152522:0:0:0:0:
448,192,152522,128,0,152875:0:0:0:0:
192,192,152875,128,0,153051:0:0:0:0:
320,192,153051,128,0,153228:0:0:0:0:
448,192,153228,128,0,154110:0:0:0:0:
64,192,154640,128,0,154816:0:0:0:0:
320,192,154816,128,0,154993:0:0:0:0:
192,192,154993,128,0,155169:0:0:0:0:
320,192,155169,128,0,155346:0:0:0:0:
448,192,155346,128,0,155699:0:0:0:0:
192,192,155699,128,0,155875:0:0:0:0:
320,192,155875,128,0,156051:0:0:0:0:
64,192,156051,128,0,156757:0:0:0:0:
320,192,157110,128,0,157463:0:0:0:0:
64,192,157463,128,2,157640:0:0:0:0:
320,192,157640,128,0,157816:0:0:0:0:
192,192,157816,128,0,157993:0:0:0:0:
320,192,157993,128,0,158169:0:0:0:0:
448,192,158169,128,0,158346:0:0:0:0:
320,192,158346,128,0,158522:0:0:0:0:
192,192,158522,128,0,158699:0:0:0:0:
64,192,158699,128,0,158875:0:0:0:0:
448,192,158875,128,0,159228:0:0:0:0:
192,192,159228,128,0,159581:0:0:0:0:
320,192,159581,128,0,159934:0:0:0:0:
64,192,159934,1,0,0:0:0:0:
64,192,160287,128,2,160463:0:0:0:0:
192,192,160463,128,0,160640:0:0:0:0:
320,192,160640,128,0,160816:0:0:0:0:
448,192,160816,1,0,0:0:0:0:
448,192,160993,128,0,161169:0:0:0:0:
320,192,161169,128,0,161346:0:0:0:0:
192,192,161346,128,0,161522:0:0:0:0:
64,192,161522,128,0,161699:0:0:0:0:
320,192,161699,1,8,0:3:0:0:
448,192,161699,128,4,162404:0:0:0:0:
64,192,162404,128,0,162581:0:0:0:0:
320,192,162581,128,0,162757:0:0:0:0:
192,192,162757,128,0,162934:0:0:0:0:
448,192,162934,128,0,163110:0:0:0:0:
64,192,163110,128,0,163816:1:0:0:0:
320,192,163110,128,0,163463:0:0:0:0:
192,192,163463,1,0,1:0:0:0:
320,192,163640,1,0,0:0:0:0:
448,192,163816,128,0,164522:1:0:0:0:
64,192,163993,1,0,0:0:0:0:
192,192,164169,1,0,1:0:0:0:
320,192,164346,1,0,0:0:0:0:
192,192,164522,128,0,164875:1:0:0:0:
64,192,164522,128,0,165228:0:0:0:0:
320,192,164875,128,0,165228:1:0:0:0:
192,192,165228,1,0,1:0:0:0:
448,192,165228,1,0,0:0:0:0:
192,192,165581,128,0,165757:1:0:0:0:
320,192,165757,128,0,165934:0:0:0:0:
448,192,165934,128,0,166640:1:0:0:0:
64,192,165934,128,0,166287:0:0:0:0:
320,192,166287,1,0,1:0:0:0:
192,192,166463,1,0,0:0:0:0:
64,192,166640,128,0,167346:1:0:0:0:
448,192,166816,1,0,0:0:0:0:
320,192,166993,1,0,1:0:0:0:
192,192,167169,1,0,0:0:0:0:
320,192,167346,128,0,167699:1:0:0:0:
448,192,167346,128,0,168051:0:0:0:0:
192,192,167699,128,0,168051:1:0:0:0:
64,192,168051,1,0,1:0:0:0:
320,192,168051,1,0,0:0:0:0:
320,192,168404,128,0,168581:1:0:0:0:
192,192,168581,128,0,168757:0:0:0:0:
64,192,168757,128,0,169463:1:0:0:0:
448,192,168757,128,4,169110:0:0:0:0:
192,192,169110,1,0,1:0:0:0:
320,192,169287,1,0,0:0:0:0:
448,192,169463,128,0,170169:1:0:0:0:
64,192,169640,1,0,0:0:0:0:
192,192,169816,128,0,170169:1:0:0:0:
64,192,170169,128,0,170875:1:0:0:0:
320,192,170169,128,0,170522:0:0:0:0:
192,192,170522,128,0,170875:1:0:0:0:
320,192,170875,1,0,1:0:0:0:
448,192,170875,1,0,0:0:0:0:
192,192,171228,128,0,171404:1:0:0:0:
320,192,171404,128,0,171581:0:0:0:0:
448,192,171581,128,0,172287:1:0:0:0:
64,192,171581,128,0,171934:0:0:0:0:
320,192,171934,1,0,1:0:0:0:
192,192,172110,1,0,0:0:0:0:
64,192,172287,128,0,172993:1:0:0:0:
448,192,172463,1,0,0:0:0:0:
320,192,172640,1,0,1:0:0:0:
192,192,172816,1,0,0:0:0:0:
320,192,172993,128,0,173346:1:0:0:0:
448,192,172993,128,0,173699:0:0:0:0:
192,192,173346,1,0,1:0:0:0:
320,192,173699,1,4,0:0:0:0:
64,192,173699,128,0,173875:1:0:0:0:
192,192,173875,128,0,174051:0:0:0:0:
64,192,174051,1,4,0:0:0:0:
320,192,174051,128,0,174228:1:0:0:0:
448,192,174228,128,0,174404:0:0:0:0:
192,192,174404,128,4,174757:0:0:0:0:
64,192,174404,128,0,175110:1:0:0:0:
320,192,174757,1,0,1:0:0:0:
448,192,174934,1,0,0:0:0:0:
192,192,175110,128,0,175816:1:0:0:0:
64,192,175287,1,0,0:0:0:0:
320,192,175463,1,0,1:0:0:0:
448,192,175640,1,0,0:0:0:0:
320,192,175816,128,0,176522:1:0:0:0:
64,192,175816,128,0,176169:0:0:0:0:
192,192,176169,128,0,176522:1:0:0:0:
64,192,176522,1,0,1:0:0:0:
448,192,176522,1,0,0:0:0:0:
192,192,176875,128,0,177051:1:0:0:0:
64,192,177051,128,0,177228:0:0:0:0:
320,192,177228,128,4,177581:0:0:0:0:
448,192,177228,128,0,177934:1:0:0:0:
192,192,177581,1,0,1:0:0:0:
64,192,177757,1,0,0:0:0:0:
320,192,177934,128,0,178640:1:0:0:0:
448,192,178110,1,0,0:0:0:0:
192,192,178287,1,0,1:0:0:0:
64,192,178463,1,0,0:0:0:0:
192,192,178640,128,0,179346:1:0:0:0:
448,192,178640,128,0,178993:0:0:0:0:
320,192,178993,128,0,179346:1:0:0:0:
64,192,179346,1,0,1:0:0:0:
448,192,179346,1,0,0:0:0:0:
320,192,179699,128,0,179875:1:0:0:0:
448,192,179875,128,0,180051:0:0:0:0:
192,192,180051,128,4,180404:0:0:0:0:
64,192,180051,128,0,180757:1:0:0:0:
320,192,180404,1,0,1:0:0:0:
448,192,180581,1,0,0:0:0:0:
192,192,180757,128,0,181463:1:0:0:0:
64,192,180934,1,0,0:0:0:0:
320,192,181110,128,0,181463:1:0:0:0:
448,192,181463,128,0,182169:1:0:0:0:
64,192,181463,128,0,181816:0:0:0:0:
192,192,181816,128,0,182169:1:0:0:0:
64,192,182169,1,0,1:0:0:0:
320,192,182169,1,0,1:0:0:0:
192,192,182522,128,0,182699:1:0:0:0:
64,192,182699,128,0,182875:0:0:0:0:
448,192,182875,128,0,183581:1:0:0:0:
320,192,182875,128,0,183228:0:0:0:0:
192,192,183228,1,0,1:0:0:0:
64,192,183404,1,0,0:0:0:0:
320,192,183581,128,0,184287:1:0:0:0:
448,192,183757,1,0,0:0:0:0:
192,192,183934,1,0,1:0:0:0:
64,192,184110,1,0,0:0:0:0:
448,192,184287,128,4,184993:0:0:0:0:
192,192,184287,128,0,184640:1:0:0:0:
320,192,184640,1,0,1:0:0:0:
64,192,184993,128,0,185346:1:0:0:0:
192,192,185346,128,0,185522:1:0:0:0:
320,192,185522,128,0,185699:0:0:0:0:
64,192,185699,1,0,1:0:0:0:
192,192,185699,1,4,0:0:0:0:
448,192,185699,1,0,0:0:0:0:
320,192,186051,1,0,1:0:0:0:
448,192,186051,1,4,0:0:0:0:
64,192,186051,1,0,0:0:0:0:
64,192,186404,1,0,1:0:0:0:
192,192,186404,1,4,0:0:0:0:
448,192,186404,1,0,0:0:0:0:
320,192,186757,1,0,1:0:0:0:
448,192,186757,1,4,0:0:0:0:
64,192,186757,1,0,0:0:0:0:
64,192,187110,1,8,0:3:0:0:
192,192,187110,1,0,0:0:0:0:
320,192,187287,1,8,0:3:0:0:
192,192,187463,1,8,0:3:0:0:
448,192,187640,1,8,0:3:0:0:
192,192,187816,1,8,0:3:0:0:
320,192,187993,1,8,0:3:0:0:
64,192,188169,1,0,1:0:0:0:
448,192,188169,1,4,0:0:0:0:
192,192,188169,1,0,0:0:0:0:
