osu file format v11

[General]
AudioFilename: Reisen.mp3
AudioLeadIn: 0
PreviewTime: 96942
Countdown: 0
SampleSet: Normal
StackLeniency: 0.7
Mode: 0
LetterboxInBreaks: 1

[Editor]
DistanceSpacing: 0.5
BeatDivisor: 4
GridSize: 4

[Metadata]
Title:Yoru Naku Usagi wa Yume wo Miru
TitleUnicode:夜啼く兎は夢を見る
Artist:UNDEAD CORPORATION
ArtistUnicode:UNDEAD CORPORATION
Creator:Strawberry
Version:Lunatic
Source:Touhou
Tags:Ranko Nakamura Masaki Reisen Udongein Inaba a3272509123 bakabaka jomnhnk Twice ZUN instrumental Lunatic Red Eyes Invisible Full Moon Imperishable Night th08
BeatmapID:214252
BeatmapSetID:59049

[Difficulty]
HPDrainRate:7
CircleSize:4
OverallDifficulty:7
ApproachRate:9
SliderMultiplier:2
SliderTickRate:2

[Events]
//Background and Video events
0,0,"BG.jpg"
//Break Periods
2,39489,41967
2,57767,61767
//Storyboard Layer 0 (Background)
//Storyboard Layer 1 (Fail)
//Storyboard Layer 2 (Pass)
//Storyboard Layer 3 (Foreground)
//Storyboard Sound Samples
//Background Colour Transformations
3,100,163,162,255

[TimingPoints]
4017,685.714285714286,4,2,1,20,1,0
9160,-100,4,2,1,30,0,0
9502,-100,4,2,1,25,0,0
10874,-100,4,2,1,20,0,0
11217,-100,4,2,1,10,0,0
11560,-100,4,2,1,20,0,0
12245,-100,4,2,1,25,0,0
12931,-100,4,2,1,30,0,0
13102,-100,4,2,1,25,0,0
13617,-100,4,2,1,15,0,0
13788,-100,4,2,1,20,0,0
13960,-100,4,2,1,15,0,0
14988,750,4,2,1,15,1,0
16488,-100,4,2,1,10,0,0
17983,674.157303370787,4,2,1,20,1,0
18320,-100,4,2,1,10,0,0
18657,-100,4,2,1,20,0,0
18994,-100,4,2,1,10,0,0
20005,-100,4,2,1,20,0,0
21016,-100,4,2,1,10,0,0
21690,-100,4,2,1,15,0,0
22027,-100,4,2,1,20,0,0
22702,-100,4,2,1,15,0,0
23039,-100,4,2,1,17,0,0
23376,-100,4,2,1,20,0,0
23713,-100,4,2,1,10,0,0
24050,-100,4,2,1,20,0,0
24387,-100,4,2,1,10,0,0
25398,-100,4,2,1,20,0,0
26409,-100,4,2,1,15,0,0
26747,-100,4,2,1,20,0,0
27084,-100,4,2,1,10,0,0
27421,-100,4,2,1,20,0,0
27758,-100,4,2,1,10,0,0
29443,-100,4,2,1,20,0,0
30117,-100,4,2,1,10,0,0
30793,-100,4,2,1,20,0,0
31803,-100,4,2,1,10,0,0
32140,-100,4,2,1,20,0,0
32477,-100,4,2,1,10,0,0
33488,662.983425414365,4,2,1,10,1,0
34150,-100,4,2,1,13,0,0
34813,-100,4,2,1,15,0,0
35476,-100,4,2,1,17,0,0
36139,-100,4,2,1,5,0,0
36305,-100,4,2,1,20,0,0
36802,-100,4,2,1,17,0,0
37465,-100,4,2,1,15,0,0
38128,-100,4,2,1,13,0,0
38791,-100,4,2,1,10,0,0
39289,-100,4,2,1,5,0,0
41967,300,4,2,1,20,1,0
42567,-133.333333333333,4,2,0,45,0,0
42867,-100,4,2,0,30,0,0
43167,-100,4,1,1,70,0,0
43317,-100,4,1,1,50,0,0
43617,-100,4,1,1,70,0,0
43767,-100,4,1,1,50,0,0
44067,-100,4,1,1,70,0,0
44367,-100,4,1,1,50,0,0
44667,-100,4,1,1,70,0,0
44817,-100,4,1,1,50,0,0
44967,-100,4,1,1,70,0,0
45117,-100,4,1,1,50,0,0
45567,-100,4,1,1,70,0,0
45717,-100,4,1,1,50,0,0
46017,-100,4,1,1,70,0,0
46167,-100,4,1,1,50,0,0
46467,-100,4,1,1,70,0,0
46617,-100,4,1,1,50,0,0
47067,-100,4,1,1,70,0,0
47217,-100,4,1,1,50,0,0
47367,-100,4,1,1,70,0,0
47517,-100,4,1,1,50,0,0
47967,-100,4,1,1,60,0,0
52767,-100,4,1,1,70,0,0
53067,-100,4,1,1,50,0,0
53217,-100,4,1,1,70,0,0
53367,-100,4,1,1,50,0,0
53667,-100,4,1,1,70,0,0
53817,-100,4,1,1,50,0,0
54267,-100,4,1,1,70,0,0
54417,-100,4,1,1,50,0,0
54567,-100,4,1,1,70,0,0
54717,-100,4,1,1,50,0,0
55167,-100,4,1,1,70,0,0
55467,-100,4,1,1,50,0,0
55617,-100,4,1,1,70,0,0
55767,-100,4,1,1,50,0,0
56067,-100,4,1,1,70,0,0
56217,-100,4,1,1,50,0,0
56367,-100,4,1,1,70,0,0
56442,-100,4,1,1,50,0,0
56967,-100,4,1,1,60,0,0
57042,-100,4,1,1,50,0,0
57117,-100,4,1,1,40,0,0
57267,-100,4,1,1,50,0,0
57417,-100,4,1,1,40,0,0
57567,-100,4,2,1,20,0,0
62367,-133.333333333333,4,1,1,40,0,0
67167,-133.333333333333,4,2,1,40,0,0
69417,-133.333333333333,4,2,1,20,0,0
69567,-133.333333333333,4,2,1,40,0,0
71817,-133.333333333333,4,2,1,20,0,0
71967,-133.333333333333,4,2,1,40,0,0
73017,-133.333333333333,4,2,1,20,0,0
73167,-133.333333333333,4,2,1,40,0,0
74667,-133.333333333333,4,2,1,20,0,0
74817,-133.333333333333,4,2,1,40,0,0
75417,-133.333333333333,4,2,1,20,0,0
75567,-133.333333333333,4,2,1,40,0,0
76167,-133.333333333333,4,1,1,40,0,0
76767,-100,4,1,2,60,0,0
81117,-100,4,2,1,60,0,0
81417,-100,4,1,1,60,0,0
83967,-100,4,1,2,60,0,0
87417,-100,4,1,2,60,0,1
96567,-100,4,1,1,60,0,1
97467,-100,4,1,2,60,0,1
105717,-100,4,1,2,55,0,1
105867,-100,4,1,2,50,0,1
106017,-100,4,1,2,45,0,1
106167,-100,4,1,2,65,0,1
106767,-100,4,1,2,60,0,0
108567,-100,4,1,1,60,0,0
108867,-133.333333333333,4,1,2,60,0,0
111567,-100,4,1,1,70,0,0
111717,-100,4,1,1,50,0,0
112017,-100,4,1,1,70,0,0
112167,-100,4,1,1,50,0,0
112467,-100,4,1,1,70,0,0
112617,-100,4,1,1,50,0,0
113067,-100,4,1,1,70,0,0
113217,-100,4,1,1,50,0,0
113367,-100,4,1,1,70,0,0
113517,-100,4,1,1,50,0,0
113967,-100,4,1,1,70,0,0
114117,-100,4,1,1,50,0,0
114417,-100,4,1,1,70,0,0
114567,-100,4,1,1,50,0,0
114867,-100,4,1,1,70,0,0
115017,-100,4,1,1,50,0,0
115467,-100,4,1,1,70,0,0
115617,-100,4,1,1,50,0,0
115767,-100,4,1,1,70,0,0
115917,-100,4,1,1,50,0,0
116667,-100,4,1,1,60,0,0
121167,-100,4,1,1,70,0,0
121467,-100,4,1,1,50,0,0
121617,-100,4,1,1,70,0,0
121767,-100,4,1,1,50,0,0
122067,-100,4,1,1,70,0,0
122217,-100,4,1,1,50,0,0
122667,-100,4,1,1,70,0,0
122817,-100,4,1,1,50,0,0
122967,-100,4,1,1,70,0,0
123117,-100,4,1,1,50,0,0
123567,-100,4,1,1,70,0,0
123717,-100,4,1,1,50,0,0
124017,-100,4,1,1,70,0,0
124167,-100,4,1,1,50,0,0
124467,-100,4,1,1,70,0,0
124617,-100,4,1,1,50,0,0
124767,-100,4,1,1,70,0,0
124917,-100,4,1,1,60,0,0
124992,-100,4,1,1,50,0,0
125067,-100,4,1,1,40,0,0
125217,-100,4,1,1,55,0,0
125292,-100,4,1,1,45,0,0
125367,-100,4,1,1,35,0,0
125517,-100,4,1,1,60,0,0
125667,-100,4,1,1,50,0,0
125742,-100,4,1,1,40,0,0
125817,-100,4,1,1,30,0,0
129567,-133.333333333333,4,1,1,60,0,0
130167,-100,4,1,1,40,0,0
130767,-133.333333333333,4,2,1,40,0,0
135417,-133.333333333333,4,2,1,20,0,0
135567,-100,4,1,2,60,0,0
140367,-100,4,1,1,60,0,0
142767,-100,4,1,2,60,0,0
145167,-100,4,1,1,70,0,0
145242,-100,4,1,2,60,0,0
145767,-100,4,1,1,60,0,0
146217,-100,4,1,2,60,0,1
155367,-100,4,1,1,60,0,1
155817,-100,4,1,2,60,0,1
163392,-100,4,2,1,40,0,1
163617,-100,4,1,2,60,0,1
165567,300,3,1,1,60,1,0
165567,-133.333333333333,3,1,1,60,0,0
179067,-133.333333333333,3,2,1,60,0,0
179817,-133.333333333333,3,1,1,60,0,0
179967,300,4,1,1,60,1,0
179967,-133.333333333333,4,1,1,60,0,0
184767,-133.333333333333,4,1,1,40,0,0
184917,-133.333333333333,4,1,1,60,0,0
185367,-133.333333333333,4,1,1,40,0,0
185517,-133.333333333333,4,1,1,60,0,0
185667,-133.333333333333,4,1,1,40,0,0
185967,-133.333333333333,4,1,1,60,0,0
186267,-133.333333333333,4,1,1,40,0,0
186342,-133.333333333333,4,1,1,60,0,0
186567,-133.333333333333,4,1,1,40,0,0
186717,-133.333333333333,4,1,1,60,0,0
186867,-133.333333333333,4,1,1,40,0,0
187017,-133.333333333333,4,1,1,60,0,0
188067,-133.333333333333,4,1,1,40,0,0
188367,-133.333333333333,4,1,1,60,0,0
188967,-133.333333333333,4,1,1,30,0,0
189042,-133.333333333333,4,1,1,60,0,0
189117,-133.333333333333,4,1,1,30,0,0
189192,-133.333333333333,4,1,1,60,0,0
189267,-100,4,1,1,60,0,0
189567,-100,4,1,1,70,0,0
189717,-100,4,1,1,50,0,0
190017,-100,4,1,1,70,0,0
190167,-100,4,1,1,50,0,0
190467,-100,4,1,1,70,0,0
190617,-100,4,1,1,50,0,0
191067,-100,4,1,1,70,0,0
191217,-100,4,1,1,50,0,0
191367,-100,4,1,1,70,0,0
191517,-100,4,1,1,50,0,0
191967,-100,4,1,1,70,0,0
192117,-100,4,1,1,50,0,0
192417,-100,4,1,1,70,0,0
192567,-100,4,1,1,50,0,0
192867,-100,4,1,1,70,0,0
193017,-100,4,1,1,50,0,0
193467,-100,4,1,1,70,0,0
193617,-100,4,1,1,50,0,0
193767,-100,4,1,1,70,0,0
193917,-100,4,1,1,50,0,0
194367,-100,4,1,1,60,0,0
199167,-100,4,1,1,70,0,0
199317,-100,4,1,1,50,0,0
199617,-100,4,1,1,70,0,0
199767,-100,4,1,1,50,0,0
200067,-100,4,1,1,70,0,0
200367,-100,4,1,1,50,0,0
200667,-100,4,1,1,70,0,0
200817,-100,4,1,1,50,0,0
200967,-100,4,1,1,70,0,0
201117,-100,4,1,1,50,0,0
201567,-100,4,1,1,70,0,0
201717,-100,4,1,1,50,0,0
202017,-100,4,1,1,70,0,0
202167,-100,4,1,1,50,0,0
202467,-100,4,1,1,70,0,0
202617,-100,4,1,1,50,0,0
202917,-100,4,1,1,60,0,0
202992,-100,4,1,1,50,0,0
203067,-100,4,1,1,40,0,0
203367,-100,4,1,1,50,0,0
203967,-100,4,1,2,60,0,0
205017,-100,4,1,1,40,0,0
205092,-100,4,1,2,60,0,0
206217,-100,4,1,1,40,0,0
206367,-100,4,1,1,50,0,0
206517,-100,4,1,2,60,0,0
206667,-100,4,1,1,40,0,0
206817,-100,4,1,2,60,0,0
207117,-100,4,1,1,40,0,0
207267,-100,4,1,2,60,0,0
207417,-100,4,1,1,60,0,0
207492,-100,4,1,2,60,0,0
208767,-100,4,1,1,60,0,0
211167,-100,4,1,2,60,0,0
214617,-100,4,1,2,60,0,1
233667,-100,4,2,1,80,0,0
234117,-100,4,1,1,60,0,1
234267,-100,4,1,2,60,0,1
238617,-100,4,1,1,80,0,1
238767,-100,4,1,1,60,0,1
239067,-100,4,1,1,80,0,1
239142,-100,4,1,1,60,0,1
239367,-100,4,1,2,60,0,1
241392,-100,4,1,2,50,0,1
241617,-100,4,1,2,60,0,1
242592,-100,4,1,2,70,0,1
242817,-100,4,1,2,60,0,1
243192,-100,4,1,2,70,0,1
243417,-100,4,1,1,60,0,1
243867,-100,4,1,1,80,0,1
244017,-100,4,1,1,60,0,1
244467,-100,4,1,2,60,0,1
248217,-100,4,1,1,80,0,1
248367,-100,4,1,1,60,0,1
248667,-100,4,1,1,80,0,1
248742,-100,4,1,1,60,0,1
249267,-100,4,1,2,60,0,1
250992,-100,4,2,1,60,0,1
251217,-100,4,1,2,60,0,1
251817,-100,4,1,2,55,0,1
251967,-100,4,1,2,50,0,1
252117,-100,4,1,2,45,0,1
252267,-100,4,1,2,50,0,1
252417,-100,4,1,2,60,0,1
252887,300,4,1,1,60,1,1
253221,375,4,1,0,60,1,0
253221,-133.333333333333,4,2,1,40,0,0
255481,408.163265306122,4,1,0,60,1,0
255481,-133.333333333333,4,2,1,40,0,0
256308,444.444444444444,4,1,0,60,1,0
256308,-133.333333333333,4,2,1,40,0,0
257196,461.538461538462,4,1,0,60,1,0
257196,-133.333333333333,4,2,1,40,0,0
257657,500,4,1,0,60,1,0
257657,-133.333333333333,4,2,1,40,0,0
258157,600,4,1,0,60,1,0
258157,-133.333333333333,4,2,1,40,0,0
259432,-133.333333333333,4,2,1,39,0,0
259507,-133.333333333333,4,2,1,38,0,0
259582,-133.333333333333,4,2,1,37,0,0
259657,-133.333333333333,4,2,1,36,0,0
259732,-133.333333333333,4,2,1,35,0,0
259807,-133.333333333333,4,2,1,34,0,0
259882,-133.333333333333,4,2,1,33,0,0
259957,-133.333333333333,4,2,1,32,0,0
260032,-133.333333333333,4,2,1,31,0,0
260107,-133.333333333333,4,2,1,30,0,0
260182,-133.333333333333,4,2,1,29,0,0
260257,-133.333333333333,4,2,1,28,0,0
260332,-133.333333333333,4,2,1,27,0,0
260407,-133.333333333333,4,2,1,26,0,0
260482,-133.333333333333,4,2,1,25,0,0
260557,-133.333333333333,4,2,1,24,0,0
260632,-133.333333333333,4,2,1,23,0,0
260707,-133.333333333333,4,2,1,22,0,0
260782,-133.333333333333,4,2,1,21,0,0
260857,-133.333333333333,4,2,1,20,0,0
260932,-133.333333333333,4,2,1,19,0,0
261007,-133.333333333333,4,2,1,18,0,0
261082,-133.333333333333,4,2,1,17,0,0
261157,-133.333333333333,4,2,1,16,0,0
261232,-133.333333333333,4,2,1,15,0,0
261307,-133.333333333333,4,2,1,14,0,0
261382,-133.333333333333,4,2,1,13,0,0
261457,-133.333333333333,4,2,1,12,0,0
261532,-133.333333333333,4,2,1,11,0,0
261607,-133.333333333333,4,2,1,10,0,0
261682,-133.333333333333,4,2,1,9,0,0
261757,-133.333333333333,4,2,1,8,0,0
261832,-133.333333333333,4,2,1,7,0,0
261907,-133.333333333333,4,2,1,6,0,0
261982,-133.333333333333,4,2,1,5,0,0
262957,-133.333333333333,4,2,1,25,0,0

[Colours]
Combo1 : 68,134,242
Combo2 : 255,176,216
Combo3 : 140,199,247
Combo4 : 243,109,180
SliderBorder : 255,255,255

[HitObjects]
28,196,6760,2,0,B|68:136|132:116|208:140,1,200,0|0,0:0|0:0,0:0:0
307,245,8131,2,0,B|380:268|444:248|484:188,1,200
456,92,9160,1,0,0:0:0
356,92,9502,2,0,B|276:92|256:172|176:172,1,200
84,140,10531,1,0,0:0:0
24,244,10874,1,0,0:0:0
140,280,11217,2,0,P|156:312,2,33.3333333333333
196,324,11560,2,0,B|240:352|296:344,1,100
464,308,12245,6,0,B|420:241|332:257,1,150
333,257,12931,2,0,B|288:228|276:176,1,100
236,88,13617,2,0,B|184:88,1,50
336,88,14302,1,0,0:0:0
404,160,14645,1,0,0:0:0
336,224,14988,5,0,0:0:0
308,240,16488,1,0,0:0:0
280,256,17983,6,0,B|228:232|212:180,1,100
112,244,18657,2,0,B|92:190|117:142,1,100
184,76,19331,2,0,B|268:136|372:136,1,200
480,164,20679,2,0,B|396:224|292:224,1,200
196,204,21690,1,0,0:0:0
104,240,22027,1,0,0:0:0
104,240,22702,1,0,0:0:0
196,204,23039,1,0,0:0:0
264,128,23376,6,0,B|300:164|296:224,1,100
365,315,24050,2,0,B|408:278|408:228,1,100
420,128,24724,2,0,B|316:136|236:212,1,200
240,207,26072,1,0,0:0:0
300,128,26409,1,0,0:0:0
392,92,26747,2,0,B|364:40|312:32,1,100
300,128,27421,2,0,B|328:180|380:188,1,100
392,92,28095,1,0,0:0:0
256,112,28769,6,0,B|176:112|156:192|76:192,1,200
256,272,30117,2,0,B|336:272|356:192|436:192,1,200
296,64,31466,1,0,0:0:0
196,76,31803,1,0,0:0:0
128,148,32140,1,0,0:0:0
124,248,32477,1,0,0:0:0
180,328,32814,1,0,0:0:0
256,192,33488,12,0,36139,0:0:0
256,192,36802,12,0,39289,0:0:0
184,192,42567,6,0,B|228:164|284:228|332:188,1,150.000005722046,2|2,0:0|0:0,0:0:0
469,132,43167,6,0,B|440:136|440:136|424:68|376:60|376:60|328:104,1,200,8|0,0:0|0:0,0:0:0
42,251,43617,2,0,B|72:248|72:248|88:316|136:324|136:324|184:280,1,200,8|0,0:0|0:0,0:0:0
256,192,44067,1,8,0:0:0
204,80,44367,5,0,0:0:0
228,64,44442,1,0,0:0:0
256,60,44517,1,0,0:0:0
284,64,44592,1,0,0:0:0
308,80,44667,1,8,0:0:0
256,192,44817,1,0,0:0:0
304,304,44967,2,0,B|256:328|204:304,1,100,8|0,0:0|0:0,0:0:0
256,192,45267,5,0,0:0:0
256,192,45417,1,0,0:0:0
36,132,45567,6,0,B|96:150|96:150|140:134|140:82|140:82|184:106,1,200,8|0,0:0|0:0,0:0:0
476,252,46017,2,0,B|415:233|415:233|371:249|371:301|371:301|327:277,1,200,8|0,0:0|0:0,0:0:0
256,192,46467,1,8,0:0:0
256,192,46542,1,0,0:0:0
256,192,46617,1,0,0:0:0
292,76,46767,5,0,0:0:0
320,84,46842,1,0,0:0:0
344,100,46917,1,0,0:0:0
360,124,46992,1,0,0:0:0
368,152,47067,1,8,0:0:0
256,192,47217,1,0,0:0:0
220,308,47367,2,0,B|156:312|96:336|96:336|120:264,1,200,8|2,0:0|0:0,0:0:0
135,225,47767,2,0,P|147:193|155:161,1,66.6666666666667,2|2,0:0|0:0,0:0:0
152,116,47967,6,0,B|100:124|48:116,1,100,8|0,0:0|0:0,0:0:0
112,36,48267,2,0,B|164:28|216:36,1,100,8|0,0:0|0:0,0:0:0
312,40,48567,2,0,B|352:136|312:240,1,200,0|0,0:0|0:0,0:0:0
256,152,49017,2,0,B|332:144|404:176,1,150,2|0,0:0|0:0,0:0:0
402,175,49317,2,0,B|424:228|476:240,1,100,8|2,0:0|0:0,0:0:0
500,144,49617,1,2,0:0:0
402,175,49767,2,0,B|356:208|352:264,1,100,2|0,0:0|0:0,0:0:0
256,232,50067,2,0,B|246:287|283:330,1,100,2|0,0:0|0:0,0:0:0
353,258,50367,5,2,0:0:0
256,232,50517,1,0,0:0:0
160,252,50667,1,2,0:0:0
160,252,50742,1,0,0:0:0
160,252,50817,1,0,0:0:0
104,336,50967,2,0,B|40:300|40:300|24:232|80:188,1,200,10|2,0:0|0:0,0:0:0
168,128,51417,1,2,0:0:0
76,88,51567,1,10,0:0:0
268,116,51717,5,0,0:0:0
268,116,51792,1,0,0:0:0
268,116,51867,1,2,0:0:0
360,156,52017,1,0,0:0:0
440,96,52167,2,0,B|404:56|348:56,1,100,8|2,0:0|0:0,0:0:0
280,216,52467,2,0,B|316:256|372:256,1,100
452,204,52767,5,8,0:0:0
192,216,53067,1,0,0:0:0
296,332,53217,2,0,B|196:304,1,100,8|0,0:0|0:0,0:0:0
27,345,53517,2,0,B|124:372,1,100,0|8,0:0|0:0,0:0:0
200,304,53817,1,0,0:0:0
248,216,53967,1,0,0:0:0
236,184,54042,1,0,0:0:0
244,152,54117,1,0,0:0:0
260,120,54192,1,0,0:0:0
288,104,54267,5,8,0:0:0
340,212,54417,1,0,0:0:0
364,96,54567,1,8,0:0:0
416,204,54717,1,0,0:0:0
440,88,54867,1,0,0:0:0
492,196,55017,1,0,0:0:0
464,312,55167,1,8,0:0:0
228,352,55467,5,0,0:0:0
272,256,55617,2,0,B|326:339,1,100,8|0,0:0|0:0,0:0:0
168,280,55917,2,0,B|113:196,1,100,0|8,0:0|0:0,0:0:0
208,164,56217,1,0,0:0:0
272,80,56367,5,8,0:0:0
288,60,56442,1,0,0:0:0
300,40,56517,2,0,B|336:80|336:80|348:128,1,100
348,244,56817,1,0,0:0:0
232,212,56967,1,0,0:0:0
216,208,57042,1,0,0:0:0
200,204,57117,1,0,0:0:0
84,176,57267,1,0,0:0:0
120,292,57417,1,0,0:0:0
172,88,57567,5,2,0:0:0
192,152,62367,5,0,0:0:0
296,128,62667,1,0,0:0:0
320,232,62967,1,0,0:0:0
216,256,63267,1,0,0:0:0
176,100,63567,5,0,0:0:0
348,112,63867,1,0,0:0:0
336,284,64167,1,0,0:0:0
164,272,64467,1,0,0:0:0
184,48,64767,5,0,0:0:0
400,120,65067,1,0,0:0:0
328,336,65367,1,0,0:0:0
112,264,65667,1,0,0:0:0
256,188,65967,5,4,0:0:0
256,188,66267,5,0,0:0:0
240,164,66342,1,0,0:0:0
224,140,66417,1,0,0:0:0
208,116,66492,1,0,0:0:0
192,92,66567,1,0,0:0:0
156,256,66717,1,0,0:0:0
320,292,66867,1,0,0:0:0
356,128,67017,1,0,0:0:0
192,92,67167,6,0,B|116:112,1,75.0000028610231
36,208,67467,2,0,B|108:188,1,75.0000028610231
156,256,67767,1,2,0:0:0
240,260,67917,1,0,0:0:0
320,292,68067,2,0,B|356:312|376:360,1,75.0000028610231,2|2,0:0|0:0,0:0:0
320,292,68367,5,0,0:0:0
384,244,68517,1,0,0:0:0
392,228,68592,1,0,0:0:0
400,212,68667,1,2,0:0:0
464,164,68817,1,0,0:0:0
447,89,68967,2,0,B|396:104|376:156|400:212,1,150.000005722046
400,212,69342,1,0,0:0:0
400,212,69417,1,2,0:0:0
300,160,69567,6,0,B|228:136,1,75.0000028610231,2|0,0:0|0:0,0:0:0
104,172,69867,2,0,B|176:196,1,75.0000028610231,2|0,0:0|0:0,0:0:0
252,224,70167,1,2,0:0:0
188,276,70317,1,0,0:0:0
204,356,70467,2,0,B|268:312,1,75.0000028610231,2|2,0:0|0:0,0:0:0
332,264,70767,5,0,0:0:0
352,340,70917,1,0,0:0:0
368,332,70992,1,0,0:0:0
384,324,71067,1,2,0:0:0
456,284,71217,1,0,0:0:0
404,220,71367,2,0,B|368:172|308:168|268:212,1,150.000005722046,0|2,0:0|0:0,0:0:0
273,206,71742,1,0,0:0:0
273,206,71817,1,2,0:0:0
220,264,71967,6,0,B|152:232,1,75.0000028610231
28,264,72267,2,0,B|96:296,1,75.0000028610231
152,232,72567,1,2,0:0:0
88,176,72717,1,0,0:0:0
116,100,72867,1,2,0:0:0
200,104,73017,1,2,0:0:0
224,184,73167,2,0,B|248:232|232:288|179:311,2,150.000005722046,0|2|0,0:0|0:0|0:0,0:0:0
224,184,74067,5,0,0:0:0
284,128,74217,1,0,0:0:0
364,108,74367,1,2,0:0:0
364,108,74667,5,2,0:0:0
400,184,74817,1,0,0:0:0
404,268,74967,2,0,B|340:332,1,75.0000028610231,2|0,0:0|0:0,0:0:0
224,340,75267,2,0,B|277:286,1,75.0000028610231,2|2,0:0|0:0,0:0:0
336,228,75567,6,0,B|292:192|226:201|204:256,2,150.000005722046,4|4|0,0:0|0:0|0:0,0:0:0
277,286,76317,1,0,0:0:0
360,304,76467,1,0,0:0:0
412,240,76617,1,0,0:0:0
384,164,76767,6,0,B|360:92|284:56|216:72,1,200,0|8,0:0|0:0,0:0:0
128,220,77217,2,0,B|152:292|228:328|296:312,1,200
256,192,77667,1,8,0:0:0
176,132,77817,1,0,0:0:0
336,252,78117,5,0,0:0:0
256,192,78267,1,8,0:0:0
256,292,78417,2,0,B|298:359|374:359|422:295,1,200
424,276,78792,1,0,0:0:0
424,256,78867,2,0,B|496:180,1,100,8|0,0:0|0:0,0:0:0
472,63,79167,6,0,B|404:136,1,100
336,208,79467,1,8,0:0:0
268,280,79617,1,0,0:0:0
404,136,79917,5,0,0:0:0
336,208,80067,1,8,0:0:0
296,116,80217,2,0,B|320:44|384:12|460:44,1,200
468,48,80592,1,0,0:0:0
480,56,80667,1,8,0:0:0
404,136,80817,2,0,B|376:184|404:232,1,100
492,184,81117,1,4,0:0:0
428,44,81267,1,4,0:0:0
304,136,81417,5,0,0:0:0
304,136,81492,1,0,0:0:0
304,136,81567,2,0,B|200:136,1,100,2|0,0:0|0:0,0:0:0
208,248,81867,2,0,B|312:248,1,100,2|0,0:0|0:0,0:0:0
204,136,82167,2,0,B|104:136,1,100,2|0,0:0|0:0,0:0:0
308,248,82467,2,0,B|408:248,1,100,2|0,0:0|0:0,0:0:0
104,136,82767,2,0,B|156:220,1,100,2|0,0:0|0:0,0:0:0
408,248,83067,2,0,B|356:164,1,100,2|0,0:0|0:0,0:0:0
256,192,83367,1,0,0:0:0
256,292,83517,1,2,0:0:0
256,92,83667,2,0,B|256:44,2,50,2|0|0,0:0|0:0|0:0,0:0:0
168,140,83967,5,8,0:0:0
204,280,84117,1,0,0:0:0
344,244,84267,1,0,0:0:0
308,104,84417,1,0,0:0:0
168,140,84567,1,0,0:0:0
256,192,84717,1,8,0:0:0
256,192,84792,1,0,0:0:0
256,192,84867,1,8,0:0:0
391,153,85017,5,0,0:0:0
294,327,85167,1,8,0:0:0
120,230,85317,1,0,0:0:0
217,56,85467,5,8,0:0:0
245,46,85542,1,0,0:0:0
274,44,85617,1,0,0:0:0
303,49,85692,1,0,0:0:0
330,61,85767,1,0,0:0:0
351,81,85842,1,0,0:0:0
364,107,85917,1,0,0:0:0
383,129,85992,1,0,0:0:0
403,150,86067,1,0,0:0:0
431,159,86142,1,0,0:0:0
460,157,86217,1,0,0:0:0
487,145,86292,1,0,0:0:0
505,121,86367,5,8,0:0:0
352,264,86517,1,0,0:0:0
468,236,86667,1,8,0:0:0
256,192,86817,1,0,0:0:0
256,192,86892,1,0,0:0:0
256,192,86967,1,8,0:0:0
44,148,87117,1,8,0:0:0
160,120,87267,1,0,0:0:0
256,192,87417,6,0,B|216:254|231:329|294:372,1,200,4|0,0:0|0:0,0:0:0
368,176,87867,2,0,B|399:125|455:126,1,100,8|0,0:0|0:0,0:0:0
484,312,88167,2,0,B|452:362|396:361,1,100
352,264,88467,1,8,0:0:0
256,192,88617,6,0,B|295:129|280:54|217:11,1,200
156,168,89067,2,0,B|119:215|63:207,1,100,8|0,0:0|0:0,3:0:0
72,80,89367,1,8,0:0:0
256,192,89517,1,0,0:0:0
256,192,89592,1,0,0:0:0
256,192,89667,1,8,0:0:0
116,204,89817,6,0,B|124:288|208:320,1,150
201,317,90117,2,0,B|251:291|307:303,1,100,0|8,0:0|0:0,0:0:0
472,332,90417,1,0,0:0:0
444,320,90492,1,0,0:0:0
416,316,90567,1,0,0:0:0
340,240,90717,2,0,P|352:220|380:200,2,50,0|0|8,0:0|0:0|0:0,0:0:0
292,352,91017,6,0,B|232:320|204:240|240:168,1,200
288,68,91467,1,8,0:0:0
172,104,91617,1,0,0:0:0
156,100,91692,1,0,0:0:0
140,96,91767,1,8,0:0:0
32,144,91917,1,8,0:0:0
124,220,92067,1,8,0:0:0
236,176,92217,6,0,B|304:156|376:192|392:264,1,200,4|0,0:0|0:0,0:0:0
272,288,92667,1,8,0:0:0
236,176,92817,1,0,0:0:0
268,60,92967,1,0,0:0:0
248,64,93042,1,0,0:0:0
228,68,93117,1,0,0:0:0
124,132,93267,1,8,0:0:0
236,176,93417,6,0,B|284:232|352:244|424:220,1,200
344,116,93867,2,0,B|390:91|406:34,1,100,8|0,0:0|0:0,0:0:0
184,56,94167,2,0,B|137:80|121:137,1,100,8|0,0:0|0:0,0:0:0
340,116,94467,5,8,0:0:0
360,132,94542,1,0,0:0:0
380,148,94617,2,0,B|304:176|284:260,1,150
285,255,94917,2,0,B|250:299|191:294,1,100,0|8,0:0|0:0,0:0:0
188,172,95217,5,0,0:0:0
184,52,95367,1,0,0:0:0
88,112,95517,1,0,0:0:0
72,132,95592,1,0,0:0:0
64,160,95667,1,8,0:0:0
64,188,95742,1,0,0:0:0
72,216,95817,1,0,0:0:0
188,172,95967,5,0,0:0:0
304,144,96117,1,0,0:0:0
312,172,96192,1,0,0:0:0
304,200,96267,1,8,0:0:0
188,172,96417,1,0,0:0:0
88,112,96567,5,8,0:0:0
304,144,96717,1,8,0:0:0
72,216,96867,1,8,0:0:0
268,253,97017,6,0,B|359:237|404:296,1,150
404,296,97317,2,0,B|460:288|484:228,1,100,8|12,0:0|0:0,0:0:0
456,120,97617,2,0,B|400:128|376:188,1,100
480,237,97917,1,0,0:0:0
456,120,98067,1,8,0:0:0
352,64,98217,2,0,B|280:60|220:104|200:176,1,200
308,116,98667,6,0,B|280:64|228:56,1,100,8|0,0:0|0:0,0:0:0
112,52,98967,1,8,0:0:0
100,80,99042,1,0,0:0:0
88,108,99117,1,0,0:0:0
80,136,99192,1,0,0:0:0
68,164,99267,1,8,0:0:0
32,292,99417,6,0,B|116:332|164:260,1,150
172,221,99717,2,0,B|224:212|272:248,1,100,0|8,0:0|0:0,0:0:0
320,352,100017,1,0,0:0:0
228,276,100167,2,0,B|257:235|317:227,1,100
344,224,100392,1,0,0:0:0
372,228,100467,1,8,0:0:0
464,304,100617,1,0,0:0:0
480,136,100767,5,0,0:0:0
372,228,100917,1,0,0:0:0
364,208,100992,1,0,0:0:0
356,188,101067,1,8,0:0:0
292,32,101217,1,0,0:0:0
232,136,101367,1,8,0:0:0
240,156,101442,1,0,0:0:0
248,176,101517,1,8,0:0:0
308,336,101667,1,8,0:0:0
208,268,101817,6,0,B|136:248|108:176|144:108,1,200
143,108,102192,1,0,0:0:0
143,108,102267,2,0,B|124:56|64:40,1,100,8|0,0:0|0:0,0:0:0
36,192,102567,2,0,B|55:244|115:260,1,100
143,108,102867,1,8,0:0:0
264,96,103017,6,0,B|368:84|472:116,1,200
461,113,103392,1,0,0:0:0
461,113,103467,2,0,B|440:64|400:32,1,100,8|0,0:0|0:0,0:0:0
304,152,103767,2,0,B|325:201|365:233,1,100,8|0,0:0|0:0,0:0:0
504,288,104067,5,8,0:0:0
504,288,104142,1,0,0:0:0
504,288,104217,2,0,B|412:332,1,100
304,280,104517,1,0,0:0:0
196,232,104667,2,0,B|104:276,1,100,8|0,0:0|0:0,0:0:0
208,336,104967,5,0,0:0:0
225,311,105042,1,0,0:0:0
249,294,105117,1,0,0:0:0
278,287,105192,1,0,0:0:0
307,294,105267,1,8,0:0:0
333,307,105342,1,8,0:0:0
362,305,105417,1,0,0:0:0
388,290,105492,1,0,0:0:0
408,268,105567,5,0,0:0:0
468,188,105717,1,0,0:0:0
412,104,105867,1,0,0:0:0
316,132,106017,1,0,0:0:0
312,232,106167,5,8,0:0:0
468,188,106317,1,4,0:0:0
316,132,106467,1,8,0:0:0
408,268,106617,1,8,0:0:0
412,104,106767,1,8,0:0:0
133,120,108567,5,8,0:0:0
378,121,108717,1,8,0:0:0
256,312,108867,2,0,B|216:266|216:266|275:231|252:178,2,150.000005722046,8|8|8,0:0|0:0|0:0,0:0:0
348,271,109617,2,0,B|361:232|349:190,1,75.0000028610231,0|8,0:0|0:0,0:0:0
163,112,109917,2,0,B|150:151|162:193,1,75.0000028610231
256,192,110217,1,0,0:0:0
320,128,110367,2,0,B|348:100|352:56,1,75.0000028610231,8|0,0:0|0:0,0:0:0
192,256,110667,2,0,B|164:284|160:328,1,75.0000028610231
256,192,110967,6,0,B|228:160,3,37.5000014305115,8|0|0|0,0:0|0:0|0:0|0:0,0:0:0
256,192,111267,2,0,B|284:224,3,37.5000014305115
256,192,111567,6,0,B|208:176|208:176|184:144|188:108|188:108|116:76,1,200,8|0,0:0|0:0,0:0:0
68,336,112017,1,8,0:0:0
40,148,112167,2,0,B|44:204|92:244,1,100
160,300,112467,1,8,0:0:0
40,148,112617,1,0,0:0:0
82,235,112767,5,0,0:0:0
104,216,112842,1,0,0:0:0
132,208,112917,1,0,0:0:0
160,212,112992,1,0,0:0:0
188,208,113067,2,0,B|232:184|232:184|256:140,1,100,8|0,0:0|0:0,0:0:0
108,80,113367,2,0,B|64:104|64:104|40:148,1,100,8|0,0:0|0:0,0:0:0
340,112,113667,2,0,B|384:88|384:88|408:44,1,100
212,28,113967,6,0,B|224:128|308:204,1,200,8|0,0:0|0:0,0:0:0
384,264,114417,1,8,0:0:0
397,164,114567,2,0,B|305:200,1,100
292,300,114867,2,0,B|385:263,1,100,8|0,0:0|0:0,0:0:0
396,164,115167,5,0,0:0:0
372,148,115242,1,0,0:0:0
352,124,115317,1,0,0:0:0
336,100,115392,1,0,0:0:0
328,72,115467,1,8,0:0:0
252,164,115617,1,0,0:0:0
240,44,115767,1,8,0:0:0
164,136,115917,1,0,0:0:0
144,16,116067,2,0,B|112:32|112:32|100:64,3,66.6666666666667,2|2|2|8,0:0|0:0|0:0|0:0,0:0:0
124,304,116667,6,0,P|86:271|72:224,1,100
156,224,116967,2,0,B|212:200|236:160|236:160|340:132,1,200,2|8,0:0|0:0,0:0:0
492,181,117417,2,0,B|396:208,1,100,2|0,0:0|0:0,0:0:0
328,135,117717,1,2,0:0:0
316,120,117792,1,0,0:0:0
304,104,117867,2,0,B|207:130,1,100,0|0,0:0|0:0,0:0:0
112,160,118167,2,0,B|60:176,3,50
112,160,118467,2,0,B|96:224|96:224|104:260,1,100,10|0,0:0|0:0,0:0:0
156,344,118767,6,0,B|208:328|240:284,1,100,10|0,0:0|0:0,0:0:0
436,264,119067,2,0,B|396:226|342:221,1,100,2|0,0:0|0:0,0:0:0
220,64,119367,2,0,B|207:117|229:166,1,100,2|0,0:0|0:0,0:0:0
308,100,119667,2,0,B|320:46|298:-2,1,100,2|2,0:0|0:0,0:0:0
144,196,119967,2,0,B|172:242|223:261,1,100,8|2,0:0|0:0,0:0:0
308,100,120267,2,0,B|279:53|228:34,1,100,0|2,0:0|0:0,0:0:0
188,340,120567,2,0,B|241:352|290:330,1,100,10|0,0:0|0:0,0:0:0
380,296,120867,1,0,0:0:0
368,280,120942,1,0,0:0:0
356,264,121017,6,0,B|328:240|328:240|328:216|328:216|296:180,1,100,0|8,0:0|0:0,0:0:0
356,264,121467,1,0,0:0:0
228,184,121617,1,8,0:0:0
228,184,121767,1,0,0:0:0
188,340,121917,1,0,0:0:0
136,220,122067,2,0,B|116:152|168:80|240:84,1,200,8|0,0:0|0:0,0:0:0
264,88,122442,1,0,0:0:0
285,100,122517,2,0,P|341:86,2,50,0|0|8,0:0|0:0|0:0,0:0:0
408,184,122817,2,0,B|308:184,1,100,0|8,0:0|0:0,0:0:0
188,276,123117,2,0,B|288:276,1,100
388,276,123417,1,0,0:0:0
336,360,123567,6,0,B|276:316|288:212,1,150,8|0,0:0|0:0,0:0:0
286,225,123867,2,0,B|264:180|264:180|216:152,1,100,0|8,0:0|0:0,0:0:0
108,196,124167,2,0,B|130:241|130:241|178:269,1,100
221,155,124467,2,0,B|198:109|198:109|150:81,1,100,8|0,0:0|0:0,0:0:0
108,196,124767,5,8,0:0:0
168,276,124917,1,0,0:0:0
180,292,124992,1,0,0:0:0
192,308,125067,1,0,0:0:0
328,344,125217,1,0,0:0:0
316,328,125292,1,0,0:0:0
304,312,125367,1,0,0:0:0
244,232,125517,1,0,0:0:0
164,116,125667,1,0,0:0:0
300,140,125817,1,0,0:0:0
380,256,125967,1,0,0:0:0
256,192,126042,12,0,128067,0:0:0
256,192,128217,12,0,129567,0:0:0
256,54,129867,5,0,0:0:0
292,88,129942,1,0,0:0:0
328,132,130017,1,0,0:0:0
328,132,130092,1,0,0:0:0
328,132,130167,2,0,B|224:148,1,100
184,252,130467,2,0,B|288:236,1,100
372,220,130767,6,0,B|380:276|340:324|284:324,1,150.000005722046
376,304,131217,2,0,B|412:288|452:292,1,75.0000028610231,0|2,0:0|0:0,0:0:0
449,291,131667,6,0,B|416:272|372:272,1,75.0000028610231,2|2,0:0|0:0,0:0:0
288,264,131967,1,0,0:0:0
200,280,132117,1,0,0:0:0
184,284,132192,1,0,0:0:0
168,288,132267,1,2,0:0:0
88,328,132417,1,0,0:0:0
176,308,132567,6,0,B|208:264|196:200,1,112.500004291535
196,200,132867,1,0,0:0:0
144,128,133017,1,0,0:0:0
208,64,133167,6,0,B|240:108|240:164|196:200,1,150.000005722046,2|2,0:0|0:0,0:0:0
144,128,133617,1,0,0:0:0
196,200,133767,2,0,B|272:216,1,75.0000028610231,2|0,0:0|0:0,0:0:0
352,176,134067,2,0,B|427:191,1,75.0000028610231,2|2,0:0|0:0,0:0:0
512,208,134367,2,0,B|504:260|444:296|388:272,2,150.000005722046,4|4|4,0:0|0:0|0:0,0:0:0
116,228,135267,5,2,0:0:0
128,236,135417,1,2,0:0:0
224,316,135567,6,0,B|280:308|304:256,1,100
396,44,135867,1,8,0:0:0
296,60,136017,2,0,B|308:112|360:136,1,100
464,192,136317,1,0,0:0:0
444,192,136392,1,0,0:0:0
424,192,136467,1,8,0:0:0
176,212,136617,2,0,B|288:204|352:288,1,200
464,268,137067,1,8,0:0:0
220,320,137217,2,0,B|256:252|256:252|304:224|308:140,1,200
307,145,137592,1,0,0:0:0
307,145,137667,2,0,B|332:196|328:244,1,100,8|0,0:0|0:0,0:0:0
348,360,137967,6,0,B|268:296|156:312,1,200,0|8,0:0|0:0,0:0:0
88,364,138417,1,0,0:0:0
12,316,138567,1,0,0:0:0
40,228,138717,1,0,0:0:0
132,232,138867,2,0,B|184:212|240:224,1,100,8|0,0:0|0:0,0:0:0
352,220,139167,1,0,0:0:0
276,312,139317,1,0,0:0:0
296,312,139392,1,0,0:0:0
316,312,139467,1,8,0:0:0
436,324,139617,2,0,B|496:244|496:136,1,200,0|0,0:0|0:0,0:0:0
399,31,140067,2,0,B|376:76|376:128,1,100,8|0,0:0|0:0,0:0:0
375,127,140292,1,0,0:0:0
376,128,140367,6,0,B|376:180|352:224,1,100,2|0,0:0|0:0,0:0:0
256,192,140667,1,2,0:0:0
256,192,140817,1,0,0:0:0
136,256,140967,2,0,B|136:204|159:159,1,100,2|0,0:0|0:0,0:0:0
256,192,141267,1,2,0:0:0
256,192,141417,1,0,0:0:0
260,292,141567,6,0,B|312:280|344:240,1,100,2|0,0:0|0:0,0:0:0
252,92,141867,2,0,B|200:104|168:144,1,100,2|0,0:0|0:0,0:0:0
256,192,142167,1,2,0:0:0
360,132,142317,1,0,0:0:0
464,76,142467,2,0,B|504:48,2,50,2|0|0,0:0|0:0|0:0,0:0:0
360,132,142767,5,0,0:0:0
344,160,142842,1,0,0:0:0
332,188,142917,1,0,0:0:0
336,216,142992,1,0,0:0:0
352,244,143067,1,8,0:0:0
452,188,143217,1,0,0:0:0
332,188,143367,2,0,B|232:188,1,100,0|0,0:0|0:0,0:0:0
192,84,143667,1,0,0:0:0
268,288,143817,1,0,0:0:0
76,184,143967,5,0,0:0:0
105,186,144042,1,0,0:0:0
132,197,144117,1,0,0:0:0
153,218,144192,1,0,0:0:0
164,245,144267,1,8,0:0:0
245,333,144417,1,0,0:0:0
273,324,144492,1,0,0:0:0
296,305,144567,1,0,0:0:0
311,279,144642,1,0,0:0:0
317,249,144717,1,8,0:0:0
301,130,144867,5,0,0:0:0
330,128,144942,1,0,0:0:0
358,137,145017,1,0,0:0:0
378,159,145092,1,0,0:0:0
390,186,145167,1,4,0:0:0
405,211,145242,1,0,0:0:0
428,229,145317,1,0,0:0:0
457,232,145392,1,0,0:0:0
485,221,145467,5,0,0:0:0
500,195,145542,1,0,0:0:0
500,165,145617,1,0,0:0:0
488,137,145692,1,0,0:0:0
462,121,145767,1,8,0:0:0
379,33,145917,1,0,0:0:0
164,192,146067,1,0,0:0:0
91,41,146217,6,0,B|120:108|120:108|188:80|240:128,1,200,4|0,0:0|0:0,0:0:0
221,270,146667,2,0,B|176:244|164:192,1,100,8|0,0:0|0:0,0:0:0
324,268,146967,2,0,B|324:324|284:360,1,100
222,270,147267,1,8,0:0:0
228,240,147342,1,0,0:0:0
244,216,147417,2,0,B|288:156|372:160|412:232,1,200
324,268,147867,1,8,0:0:0
232,104,148017,1,0,0:0:0
72,180,148167,1,8,0:0:0
72,180,148242,1,0,0:0:0
72,180,148317,2,0,B|120:200|164:232,1,100,0|8,0:0|0:0,0:0:0
374,284,148617,6,0,B|292:368|192:324,1,200
307,163,149067,2,0,B|296:216|248:240,1,100,8|0,0:0|0:0,0:0:0
232,104,149367,2,0,B|268:60|324:68,1,100
320,67,149592,1,0,0:0:0
320,68,149667,2,0,B|372:75|408:31,1,100,8|0,0:0|0:0,0:0:0
384,148,149967,1,0,0:0:0
397,175,150042,1,0,0:0:0
407,202,150117,1,0,0:0:0
416,230,150192,1,0,0:0:0
423,259,150267,2,0,B|376:232|328:228,1,100,8|0,0:0|0:0,0:0:0
180,200,150567,2,0,B|192:252|240:276,1,100,8|8,0:0|0:0,0:0:0
239,275,150792,1,0,0:0:0
239,275,150867,6,0,B|192:296|136:288,1,100,0|4,0:0|0:0,0:0:0
32,332,151167,1,0,0:0:0
40,304,151242,1,0,0:0:0
48,276,151317,1,0,0:0:0
52,248,151392,1,0,0:0:0
56,220,151467,2,0,B|52:168|84:116,1,100,8|0,0:0|0:0,0:0:0
244,28,151767,2,0,B|196:56|176:104,1,100
140,216,152067,1,8,0:0:0
416,147,152217,2,0,B|311:104|228:168,1,200
360,220,152667,2,0,B|320:248|303:300,1,100,8|0,0:0|0:0,0:0:0
244,384,152967,2,0,B|204:348|207:294,1,100,8|0,0:0|0:0,0:0:0
132,176,153267,5,8,0:0:0
112,200,153342,1,0,0:0:0
96,228,153417,2,0,B|84:176|104:124,1,100
220,100,153717,2,0,B|256:56|304:36,1,100,0|8,0:0|0:0,0:0:0
288,68,153942,1,0,0:0:0
284,96,154017,1,0,0:0:0
276,216,154167,1,0,0:0:0
300,196,154242,1,0,0:0:0
328,180,154317,1,0,0:0:0
356,172,154392,1,0,0:0:0
384,168,154467,5,8,0:0:0
336,280,154617,1,0,0:0:0
448,344,154767,1,0,0:0:0
292,380,154917,1,0,0:0:0
272,360,154992,1,0,0:0:0
248,340,155067,2,0,B|208:304|208:304|160:296,1,100,8|0,0:0|0:0,0:0:0
56,240,155367,1,8,0:0:0
68,212,155442,1,0,0:0:0
88,192,155517,1,8,0:0:0
116,180,155592,1,0,0:0:0
144,180,155667,1,8,0:0:0
430,220,155817,6,0,B|328:272|244:200,1,200,4|0,0:0|0:0,0:0:0
410,97,156267,2,0,B|372:132|320:136,1,100,8|0,0:0|0:0,0:0:0
459,6,156567,2,0,B|500:32|512:88,1,100
410,97,156867,1,8,0:0:0
410,97,156942,1,0,0:0:0
410,97,157017,2,0,B|328:28|216:64,1,200
40,136,157467,2,0,B|88:148|136:116,1,100,8|0,0:0|0:0,0:0:0
72,40,157767,2,0,B|84:144|128:240,1,200,0|8,0:0|0:0,0:0:0
180,360,158217,6,0,P|204:316|240:280,1,100
320,192,158517,1,0,0:0:0
436,156,158667,1,8,0:0:0
476,268,158817,1,0,0:0:0
360,304,158967,1,0,0:0:0
368,152,159117,5,0,0:0:0
368,152,159192,1,0,0:0:0
368,152,159267,1,8,0:0:0
475,208,159417,1,0,0:0:0
424,316,159567,1,0,0:0:0
317,259,159717,1,0,0:0:0
436,156,159867,1,8,0:0:0
436,156,159942,1,0,0:0:0
436,156,160017,1,0,0:0:0
328,40,160167,1,8,0:0:0
300,48,160242,1,0,0:0:0
272,52,160317,1,8,0:0:0
244,52,160392,1,0,0:0:0
216,48,160467,1,8,0:0:0
1,160,160617,6,0,B|8:48|120:16,1,200
140,208,161067,2,0,B|108:168|108:116,1,100,8|0,0:0|0:0,0:0:0
240,188,161367,2,0,B|248:244|204:284,1,100,0|0,0:0|0:0,0:0:0
140,208,161667,1,8,0:0:0
209,280,161817,2,0,B|272:368|384:356,1,200
386,199,162267,2,0,B|364:244|308:256,1,100,8|0,0:0|0:0,0:0:0
292,136,162567,1,8,0:0:0
308,112,162642,1,0,0:0:0
332,96,162717,1,0,0:0:0
360,88,162792,1,0,0:0:0
388,88,162867,1,8,0:0:0
232,48,163017,6,0,B|128:52|44:128,1,200
28,140,163392,1,4,0:0:0
12,164,163467,2,0,B|64:168|116:192,1,100,4|0,0:0|0:0,0:0:0
76,304,163767,2,0,B|120:324|172:328,1,100
188,304,163992,1,8,0:0:0
212,284,164067,1,0,0:0:0
240,276,164142,1,8,0:0:0
268,276,164217,1,0,0:0:0
376,328,164367,5,0,0:0:0
468,248,164517,1,0,0:0:0
484,224,164592,1,0,0:0:0
488,196,164667,1,8,0:0:0
480,168,164742,1,0,0:0:0
460,148,164817,1,0,0:0:0
352,92,164967,1,8,0:0:0
352,92,165042,2,0,B|304:120|252:112,1,100,8|0,0:0|0:0,0:0:0
228,104,165267,1,0,0:0:0
208,84,165342,1,0,0:0:0
200,56,165417,1,0,0:0:0
208,28,165492,1,0,0:0:0
232,12,165567,6,0,B|152:16|100:84,1,150.000005722046,8|0,0:0|0:0,0:0:0
52,156,166017,1,0,0:0:0
20,72,166167,1,8,0:0:0
88,240,166467,6,0,B|164:248|236:208,1,150.000005722046,8|0,0:0|0:0,0:0:0
252,196,166842,1,0,0:0:0
272,188,166917,1,0,0:0:0
292,184,166992,1,0,0:0:0
312,184,167067,2,0,B|280:160|240:152,1,75.0000028610231,8|0,0:0|0:0,0:0:0
308,320,167367,6,0,B|340:344|380:352,1,75.0000028610231
388,260,167667,2,0,B|427:254|461:231,1,75.0000028610231,8|0,0:0|0:0,0:0:0
408,156,167967,2,0,B|431:124|440:84,1,75.0000028610231,8|0,0:0|0:0,0:0:0
207,124,168267,2,0,B|288:128|348:80,1,150.000005722046,8|0,0:0|0:0,0:0:0
268,40,168717,2,0,B|196:24,2,75.0000028610231,0|8|8,0:0|0:0|0:0,0:0:0
208,124,169167,6,0,B|244:164|244:164|236:208|264:264,2,150.000005722046,8|0|0,0:0|0:0|0:0,0:0:0
344,188,170067,1,8,0:0:0
300,332,170367,1,0,0:0:0
384,300,170517,1,0,0:0:0
400,288,170592,1,0,0:0:0
416,276,170667,1,0,0:0:0
300,332,170817,1,0,0:0:0
224,284,170967,6,0,B|196:256|152:252,1,75.0000028610231,8|0,0:0|0:0,0:0:0
68,240,171267,1,0,0:0:0
80,220,171342,1,0,0:0:0
92,200,171417,1,0,0:0:0
208,84,171567,2,0,B|168:148,1,75.0000028610231
381,115,171867,6,0,B|320:108|276:144,1,112.500004291535,8|0,0:0|0:0,0:0:0
275,144,172167,1,0,0:0:0
348,200,172317,2,0,B|404:205|442:254,1,112.500004291535,8|0,0:0|0:0,0:0:0
442,254,172617,1,0,0:0:0
360,292,172767,6,0,B|298:284|256:324|256:324|200:296,1,150.000005722046,8|0,0:0|0:0,0:0:0
204,296,173142,1,0,0:0:0
184,284,173217,1,0,0:0:0
164,272,173292,1,0,0:0:0
144,260,173367,2,0,B|72:276,1,75.0000028610231,8|0,0:0|0:0,0:0:0
124,104,173667,5,8,0:0:0
92,188,173817,1,0,0:0:0
168,24,173967,1,0,0:0:0
188,36,174042,1,0,0:0:0
204,48,174117,1,0,0:0:0
224,60,174192,1,0,0:0:0
240,72,174267,2,0,B|313:55,1,75.0000028610231,8|0,0:0|0:0,0:0:0
347,172,174567,6,8,B|404:116|400:36,2,150.000005722046,0|8|8,0:0|0:0|0:0,0:0:0
36,228,175467,2,0,B|88:172|168:164,2,150.000005722046,8|0|8,0:0|0:0|0:0,0:0:0
120,264,176217,1,0,0:0:0
188,324,176367,6,0,B|240:384|324:380,1,150.000005722046,0|8,0:0|0:0,0:0:0
300,292,176817,1,0,0:0:0
277,129,176967,2,0,B|288:204,1,75.0000028610231,8|0,0:0|0:0,0:0:0
264,40,177267,2,0,B|345:36|397:96,1,150.000005722046
404,116,177642,1,0,0:0:0
416,136,177717,1,0,0:0:0
432,148,177792,1,0,0:0:0
452,156,177867,2,0,B|466:82,1,75.0000028610231,8|0,0:0|0:0,0:0:0
376,204,178167,6,0,B|361:277,1,75.0000028610231
261,381,178467,2,0,B|276:308,1,75.0000028610231,8|0,0:0|0:0,0:0:0
276,308,178692,1,0,0:0:0
276,308,178767,1,8,0:0:0
120,220,179067,2,0,B|156:184|156:184|208:192|240:236,2,150.000005722046,4|4|4,0:0|0:0|0:0,0:0:0
56,284,179817,1,0,0:0:0
40,196,179967,6,0,B|2:161|2:161|7:109|49:75,2,150.000005722046,8|8|8,0:0|0:0|0:0,0:0:0
56,284,180717,1,8,0:0:0
136,240,180867,2,0,B|204:208,1,75.0000028610231,0|2,0:0|0:0,0:0:0
344,228,181167,2,0,B|276:260,1,75.0000028610231,0|2,0:0|0:0,0:0:0
208,384,181467,2,0,B|276:352,1,75.0000028610231,0|2,0:0|0:0,0:0:0
495,376,181767,6,0,B|440:328|360:316,2,150.000005722046,8|8|8,0:0|0:0|0:0,0:0:0
404,160,182667,2,0,B|408:196|418:233,1,75.0000028610231
492,180,182967,1,0,0:0:0
472,92,183117,1,0,0:0:0
384,64,183267,2,0,B|372:12,2,37.5000014305115
404,160,183567,6,0,B|332:192,1,75.0000028610231
183,190,183867,2,0,B|252:160,1,75.0000028610231
260,72,184167,1,8,0:0:0
260,72,184242,1,0,0:0:0
260,72,184317,1,0,0:0:0
252,252,184467,1,8,0:0:0
252,252,184542,1,0,0:0:0
252,252,184617,1,0,0:0:0
36,344,184767,6,0,B|84:280|164:272,1,150.000005722046,4|0,0:0|0:0,0:0:0
224,336,185217,1,0,0:0:0
312,320,185367,2,0,B|352:332|352:332|396:328,1,75.0000028610231,4|0,0:0|0:0,0:0:0
485,252,185667,2,0,B|445:240|445:240|412:244,1,75.0000028610231,4|4,0:0|0:0,0:0:0
402,138,185967,2,0,B|365:158|365:158|344:184,1,75.0000028610231
312,320,186267,1,4,0:0:0
312,320,186342,1,0,0:0:0
312,320,186417,1,0,0:0:0
188,308,186567,5,4,0:0:0
208,196,186717,1,0,0:0:0
76,296,186867,1,4,0:0:0
208,196,187017,1,0,0:0:0
188,308,187167,1,4,0:0:0
208,56,187467,5,0,0:0:0
268,128,187617,1,0,0:0:0
420,146,187767,2,0,B|356:108,1,75.0000028610231
360,212,188067,2,0,B|428:252,1,75.0000028610231,4|4,0:0|0:0,0:0:0
500,300,188367,2,0,B|412:296|352:344,1,150.000005722046,4|0,0:0|0:0,0:0:0
358,339,188742,1,0,0:0:0
358,339,188817,1,0,0:0:0
268,324,188967,1,4,0:0:0
252,308,189042,1,0,0:0:0
240,288,189117,1,4,0:0:0
232,268,189192,1,0,0:0:0
228,248,189267,2,0,B|180:240|124:280,1,100,4|0,0:0|0:0,0:0:0
19,222,189567,6,0,B|-8:288|16:368|16:368|56:336,1,200,8|0,0:0|0:0,0:0:0
157,178,190017,2,0,B|133:222|133:274,1,100,8|0,0:0|0:0,0:0:0
204,348,190317,1,0,0:0:0
264,232,190467,2,0,B|304:200|304:200|328:280|301:346,1,200,8|0,0:0|0:0,0:0:0
324,324,190842,1,0,0:0:0
352,312,190917,1,0,0:0:0
380,312,190992,1,0,0:0:0
408,320,191067,2,0,B|424:272|412:216,1,100,8|0,0:0|0:0,0:0:0
476,24,191367,6,0,B|364:44|340:152,1,200,8|0,0:0|0:0,0:0:0
428,104,191817,2,0,B|320:72,1,100,0|8,0:0|0:0,0:0:0
216,44,192117,1,0,0:0:0
52,92,192267,1,0,0:0:0
168,123,192417,2,0,B|264:152,1,100,8|0,0:0|0:0,0:0:0
80,208,192717,1,0,0:0:0
196,239,192867,2,0,B|291:267,1,100,8|0,0:0|0:0,0:0:0
404,308,193167,5,0,0:0:0
428,288,193242,1,0,0:0:0
452,268,193317,1,0,0:0:0
452,240,193392,1,0,0:0:0
452,212,193467,2,0,B|452:108,1,100,8|0,0:0|0:0,0:0:0
352,8,193767,2,0,B|352:108,1,100,8|0,0:0|0:0,0:0:0
279,195,194067,2,0,P|302:220|339:230,2,66.6666666666667,2|2|2,0:0|0:0|0:0,0:0:0
248,156,194367,6,0,B|224:148|212:132|212:132|164:160|92:148,1,150,8|0,0:0|0:0,0:0:0
109,150,194667,2,0,B|56:172|36:232,1,100
132,357,194967,2,0,B|109:312|132:260,1,100,2|0,0:0|0:0,0:0:0
224,316,195267,2,0,B|245:369|305:389,1,100,0|2,0:0|0:0,0:0:0
468,300,195567,1,0,0:0:0
392,364,195717,1,0,0:0:0
392,364,195792,1,0,0:0:0
392,364,195867,2,0,B|368:316|380:264,1,100,2|0,0:0|0:0,0:0:0
391,66,196167,2,0,B|431:34|431:34|455:114|428:180,1,200,0|2,0:0|0:0,0:0:0
379,266,196617,1,2,0:0:0
312,192,196767,6,0,B|300:136|260:112|260:112|208:128|144:92,1,200,0|2,0:0|0:0,0:0:0
224,20,197217,1,0,0:0:0
256,116,197367,2,0,B|356:80,1,100,10|0,0:0|0:0,0:0:0
481,140,197667,2,0,B|388:176,1,100,0|2,0:0|0:0,0:0:0
292,208,197967,1,8,0:0:0
196,236,198117,2,0,B|144:256,2,50,2|0|0,0:0|0:0|0:0,0:0:0
292,208,198417,1,2,0:0:0
384,248,198567,2,0,B|484:292,1,100,8|2,0:0|0:0,0:0:0
196,160,198867,2,0,B|104:119,1,100
68,259,199167,6,0,B|-8:184|16:76,1,200,8|0,0:0|0:0,0:0:0
176,183,199617,2,0,B|128:172|104:120,1,100,8|0,0:0|0:0,0:0:0
256,124,199917,2,0,B|286:170|273:231,1,100,0|8,0:0|0:0,0:0:0
296,216,200142,1,0,0:0:0
316,220,200217,1,0,0:0:0
444,332,200367,5,0,0:0:0
420,312,200442,1,0,0:0:0
396,296,200517,1,0,0:0:0
368,296,200592,1,0,0:0:0
340,296,200667,2,0,B|240:296,1,100,8|0,0:0|0:0,0:0:0
72,368,200967,2,0,B|172:368,1,100,8|0,0:0|0:0,0:0:0
240,296,201267,2,0,B|272:252|241:202,1,100
236,104,201567,6,0,B|156:108|120:180|152:248,1,200,8|0,0:0|0:0,0:0:0
242,203,202017,2,0,B|324:176|356:248|356:248|422:183,1,200,8|0,0:0|0:0,0:0:0
446,41,202467,2,0,B|372:108,1,100,8|0,0:0|0:0,0:0:0
244,204,202767,5,8,0:0:0
112,160,202917,1,0,0:0:0
112,160,202992,1,0,0:0:0
112,160,203067,1,0,0:0:0
136,296,203217,1,0,0:0:0
276,276,203367,5,0,0:0:0
184,168,203517,1,0,0:0:0
44,192,203667,1,0,0:0:0
136,296,203817,1,0,0:0:0
276,276,203967,6,0,B|352:264|400:288|400:288|464:248,1,200,4|0,0:0|0:0,0:0:0
510,105,204417,2,0,B|424:156,1,100,0|8,0:0|0:0,0:0:0
276,124,204717,2,0,B|362:73,1,100
244,52,205017,1,4,0:0:0
224,56,205092,1,0,0:0:0
204,60,205167,1,0,0:0:0
160,168,205317,2,0,B|176:216|224:248,1,100
256,160,205617,1,0,0:0:0
300,72,205767,2,0,B|372:148|364:260,1,200,8|0,0:0|0:0,0:0:0
340,352,206217,1,4,0:0:0
479,219,206367,6,0,B|464:268|428:304,1,100,4|0,0:0|0:0,0:0:0
340,352,206667,1,4,0:0:0
252,304,206817,2,0,B|212:272|152:276,1,100,0|8,0:0|0:0,0:0:0
60,276,207117,1,4,0:0:0
252,216,207267,1,0,0:0:0
136,184,207417,1,4,0:0:0
128,168,207492,1,0,0:0:0
120,152,207567,1,0,0:0:0
76,64,207717,1,0,0:0:0
120,152,207867,2,0,B|176:136|184:76,1,100
288,124,208167,1,8,0:0:0
308,116,208242,1,0,0:0:0
328,108,208317,1,0,0:0:0
485,80,208467,2,0,B|465:136|465:136|428:152,1,100,8|0,0:0|0:0,0:0:0
336,192,208767,6,0,B|416:268,1,100,2|0,0:0|0:0,0:0:0
176,192,209067,2,0,B|96:116,1,100,2|0,0:0|0:0,0:0:0
256,256,209367,2,0,B|260:300|260:300|248:320|248:320|252:360,1,100,2|0,0:0|0:0,0:0:0
256,128,209667,2,0,B|252:84|252:84|264:64|264:64|260:24,1,100,2|0,0:0|0:0,0:0:0
168,100,209967,5,2,0:0:0
88,124,210117,1,0,0:0:0
164,280,210267,5,2,0:0:0
188,360,210417,1,0,0:0:0
344,284,210567,5,2,0:0:0
424,260,210717,1,0,0:0:0
348,104,210867,5,2,0:0:0
336,64,210942,1,0,0:0:0
324,24,211017,1,2,0:0:0
168,100,211167,5,0,0:0:0
92,192,211317,2,0,B|0:236,1,100,0|8,0:0|0:0,0:0:0
104,300,211617,2,0,B|192:256|192:256|248:264|284:316,1,200
348,380,212067,1,8,0:0:0
412,304,212217,2,0,B|436:276|436:276|436:236|448:204,1,100,0|4,0:0|0:0,0:0:0
344,200,212517,5,0,0:0:0
344,200,212592,2,0,B|348:148|376:104,1,100,8|0,0:0|0:0,0:0:0
328,84,212817,2,0,B|276:88|232:124,1,100
196,156,213042,2,0,B|160:120|144:68,1,100,8|0,0:0|0:0,0:0:0
144,71,213267,1,0,0:0:0
132,96,213342,1,0,0:0:0
116,124,213417,1,0,0:0:0
92,140,213492,1,0,0:0:0
68,156,213567,5,8,0:0:0
144,296,213717,1,0,0:0:0
4,216,213867,1,8,0:0:0
156,200,214017,1,0,0:0:0
156,200,214092,1,0,0:0:0
156,200,214167,1,8,0:0:0
292,280,214317,2,0,B|260:328|212:344,1,100,8|0,0:0|0:0,0:0:0
155,200,214617,6,0,B|200:144|280:136|336:176,1,200,4|0,0:0|0:0,0:0:0
461,326,215067,2,0,B|416:300|404:248,1,100,8|0,0:0|0:0,0:0:0
490,84,215367,2,0,B|476:140|424:152,1,100
320,88,215667,1,8,0:0:0
304,76,215742,1,0,0:0:0
288,64,215817,2,0,B|236:88|236:88|168:60|76:60,1,200
176,164,216267,2,0,B|216:193|234:244,1,100,8|0,0:0|0:0,3:0:0
112,272,216567,2,0,B|64:248|15:248,1,100,8|0,0:0|0:0,0:0:0
32,224,216792,2,0,B|65:180,1,50,0|8,0:0|0:0,0:0:0
60,340,217017,6,0,B|96:368|96:368|164:332|248:364,1,200,4|0,0:0|0:0,0:0:0
348,293,217467,2,0,B|308:264|256:260,1,100,8|0,0:0|0:0,0:0:0
424,224,217767,2,0,B|452:272|448:320,1,100
448,319,217992,1,0,0:0:0
448,319,218067,1,8,0:0:0
320,208,218217,2,0,B|340:136|416:104|492:144,1,200
424,224,218667,1,8,0:0:0
360,20,218817,1,0,0:0:0
340,36,218892,1,0,0:0:0
320,52,218967,2,0,B|256:92|232:144|232:144|144:160,1,200,0|8,0:0|0:0,0:0:0
33,356,219417,6,0,B|97:316|121:264|121:264|192:252,1,200,4|0,0:0|0:0,0:0:0
358,312,219867,2,0,B|260:328,1,100,8|0,0:0|0:0,0:0:0
296,232,220167,2,0,B|352:220|352:220|384:184,1,100
396,164,220392,1,0,0:0:0
412,140,220467,1,8,0:0:0
352,36,220617,2,0,B|232:32|200:148,1,200
324,148,221067,1,8,0:0:0
264,24,221217,1,0,0:0:0
128,20,221367,1,8,0:0:0
84,108,221517,1,0,0:0:0
76,124,221592,1,0,0:0:0
68,140,221667,1,8,0:0:0
44,256,221817,6,0,B|115:227|115:227|135:175|175:119,1,200,4|0,0:0|0:0,0:0:0
328,64,222267,2,0,B|297:106|277:150,1,100,8|0,0:0|0:0,0:0:0
284,308,222567,1,0,0:0:0
300,284,222642,1,0,0:0:0
320,260,222717,1,0,0:0:0
336,236,222792,1,0,0:0:0
356,216,222867,2,0,B|360:264|360:264|344:316,1,100,8|0,0:0|0:0,0:0:0
448,208,223167,2,0,B|432:100,1,100
428,80,223392,1,0,0:0:0
424,52,223467,1,8,0:0:0
188,143,223617,2,0,B|300:132|328:20,1,200
208,32,224067,5,8,0:0:0
240,212,224217,1,4,0:0:0
224,224,224292,1,0,0:0:0
208,236,224367,1,0,0:0:0
140,336,224517,1,0,0:0:0
260,352,224667,2,0,B|308:328|308:328|332:288,1,100,8|0,0:0|0:0,0:0:0
84,240,224967,2,0,B|36:264|36:264|12:304,1,100
4,132,225267,1,8,0:0:0
8,152,225342,1,0,0:0:0
12,172,225417,2,0,B|48:116|48:116|120:120|184:92,1,200
324,116,225867,2,0,B|289:151|239:168,1,100,8|0,0:0|0:0,3:0:0
156,288,226167,2,0,B|264:284|344:216,1,200,0|8,0:0|0:0,0:0:0
339,219,226542,1,0,0:0:0
339,219,226617,6,0,B|364:108|452:56,1,200,4|0,0:0|0:0,0:0:0
400,168,227067,2,0,B|348:160|292:188,1,100,8|0,0:0|0:0,0:0:0
200,256,227367,2,0,B|174:208|193:159,1,100
199,129,227592,1,0,0:0:0
214,102,227667,1,8,0:0:0
43,38,227817,2,0,B|18:137|84:228,1,200
83,227,228192,1,0,0:0:0
83,227,228267,2,0,B|120:264|120:320,1,100,8|0,0:0|0:0,0:0:0
20,308,228567,2,0,B|112:260|216:264,1,200,0|8,0:0|0:0,0:0:0
244,264,228942,1,0,0:0:0
272,268,229017,6,0,B|328:256|352:208,1,100,4|0,0:0|0:0,0:0:0
248,148,229317,1,0,0:0:0
224,32,229467,2,0,B|168:44|145:88,1,100,8|0,0:0|0:0,0:0:0
144,208,229767,1,0,0:0:0
248,148,229917,1,0,0:0:0
276,136,229992,1,0,0:0:0
304,128,230067,1,8,0:0:0
424,128,230217,2,0,B|400:184|400:184|412:252|392:328,1,200
237,303,230667,2,0,B|288:284|308:236,1,100,8|0,0:0|0:0,0:0:0
140,236,230967,2,0,B|112:280|116:336,1,100,8|8,0:0|0:0,0:0:0
115,331,231192,1,0,0:0:0
115,331,231267,1,8,0:0:0
236,304,231417,6,0,B|140:276|96:152,1,200,4|0,0:0|0:0,0:0:0
220,180,231867,2,0,B|212:128|234:82,1,100,8|0,0:0|0:0,0:0:0
420,96,232167,2,0,B|372:100|336:144,1,100,8|0,0:0|0:0,0:0:0
336,143,232392,1,0,0:0:0
336,144,232467,2,0,B|344:196|321:241,1,100,8|0,0:0|0:0,0:0:0
220,180,232767,5,8,0:0:0
340,324,232917,1,0,0:0:0
116,220,233067,1,8,0:0:0
340,324,233217,1,0,0:0:0
340,324,233292,1,0,0:0:0
340,324,233367,2,0,B|436:284,1,100,8|0,0:0|0:0,0:0:0
400,172,233667,38,0,B|496:132,1,100,2|0,0:0|0:0,0:0:0
256,192,234117,5,4,0:0:0
244,176,234192,1,0,0:0:0
232,160,234267,2,0,B|188:140|188:140|124:152,1,100,8|0,0:0|0:0,0:0:0
24,184,234567,1,0,0:0:0
36,200,234642,1,0,0:0:0
48,216,234717,1,0,0:0:0
60,232,234792,1,0,0:0:0
72,248,234867,1,8,0:0:0
337,258,235017,6,0,B|288:316|200:304|172:236,1,200
303,109,235467,2,0,B|304:164|256:192,1,100,8|0,0:0|0:0,0:0:0
160,160,235767,1,0,0:0:0
176,132,235842,1,0,0:0:0
184,104,235917,1,0,0:0:0
184,72,235992,1,0,0:0:0
176,44,236067,1,8,0:0:0
68,96,236217,6,0,B|32:160|52:236|120:264,1,200
119,263,236592,1,0,0:0:0
119,263,236667,2,0,B|168:236|216:244,1,100,8|0,0:0|0:0,0:0:0
384,252,236967,1,8,0:0:0
236,348,237117,1,0,0:0:0
300,192,237267,1,8,0:0:0
340,356,237417,1,0,0:0:0
300,192,237567,5,8,0:0:0
236,348,237717,1,0,0:0:0
224,332,237792,1,0,0:0:0
212,316,237867,1,8,0:0:0
116,176,238017,1,0,0:0:0
12,236,238167,1,8,0:0:0
28,248,238242,1,0,0:0:0
44,260,238317,1,0,0:0:0
60,272,238392,1,0,0:0:0
76,284,238467,1,8,0:0:0
354,206,238617,6,0,B|280:241|216:205|216:205|176:245,1,200,4|0,0:0|0:0,0:0:0
167,244,238992,1,0,0:0:0
157,243,239067,2,0,B|102:235|62:175,1,100,4|0,0:0|0:0,0:0:0
8,100,239367,1,0,0:0:0
84,36,239517,1,0,0:0:0
96,28,239592,1,0,0:0:0
108,20,239667,1,8,0:0:0
357,51,239817,2,0,B|248:40|168:100,1,200
333,202,240267,2,0,B|308:152|260:140,1,100,8|0,0:0|0:0,0:0:0
236,240,240567,1,0,0:0:0
228,260,240642,1,0,0:0:0
220,280,240717,1,0,0:0:0
212,300,240792,1,0,0:0:0
204,320,240867,1,8,0:0:0
108,352,241017,6,0,B|16:288|60:168,1,200
57,175,241392,1,4,0:0:0
57,175,241467,1,4,0:0:0
404,32,241617,2,0,B|496:96|452:216,1,200
454,208,241992,1,4,0:0:0
454,208,242067,1,4,0:0:0
32,56,242217,2,0,B|152:36|184:152,1,200
200,160,242592,1,4,0:0:0
216,172,242667,1,4,0:0:0
480,328,242817,2,0,B|360:348|328:232,1,200
312,224,243192,1,4,0:0:0
296,212,243267,1,4,0:0:0
212,264,243417,6,0,B|148:240|148:240|96:256|96:256|24:224,1,200,4|0,0:0|0:0,0:0:0
195,129,243867,2,0,B|100:160,1,100,4|0,0:0|0:0,0:0:0
268,32,244167,1,0,0:0:0
284,44,244242,1,0,0:0:0
300,56,244317,1,0,0:0:0
316,68,244392,1,0,0:0:0
332,80,244467,1,8,0:0:0
347,325,244617,6,0,B|332:212|408:144,1,200
292,172,245067,2,0,B|244:204|228:264,1,100,8|0,0:0|0:0,0:0:0
220,372,245367,2,0,B|160:360|128:312,1,100
135,322,245592,1,0,0:0:0
135,322,245667,1,8,0:0:0
40,248,245817,6,0,B|135:195|234:235,1,200,4|0,0:0|0:0,0:0:0
348,268,246267,1,8,0:0:0
368,272,246342,1,0,0:0:0
388,276,246417,1,4,0:0:0
353,122,246567,5,8,0:0:0
362,104,246642,1,0,0:0:0
371,86,246717,1,4,0:0:0
214,80,246867,5,8,0:0:0
199,66,246942,1,0,0:0:0
183,53,247017,1,4,0:0:0
137,203,247167,5,8,0:0:0
120,214,247242,1,0,0:0:0
103,225,247317,1,4,0:0:0
236,309,247467,5,8,0:0:0
242,328,247542,1,0,0:0:0
249,348,247617,1,4,0:0:0
256,192,247767,5,8,0:0:0
256,192,247842,1,0,0:0:0
256,192,247917,1,0,0:0:0
256,192,247992,1,0,0:0:0
256,192,248067,1,12,0:0:0
478,120,248217,6,0,B|456:232|340:244,1,200,4|0,0:0|0:0,0:0:0
256,192,248667,2,0,B|272:136,3,50,4|0|0|0,0:0|0:0|0:0|0:0,0:0:0
256,192,248967,2,0,B|208:172|156:180,1,100
4,252,249267,1,8,0:0:0
20,264,249342,1,0,0:0:0
36,276,249417,2,0,B|84:296|136:288,1,100
252,280,249717,1,0,0:0:0
272,276,249792,1,0,0:0:0
292,272,249867,2,0,B|348:260|400:272,1,100,8|0,0:0|0:0,0:0:0
444,84,250167,1,0,0:0:0
428,96,250242,1,0,0:0:0
412,108,250317,1,0,0:0:0
396,120,250392,1,0,0:0:0
380,132,250467,1,8,0:0:0
172,204,250617,6,0,B|180:88|288:56,1,200
285,56,250992,1,4,0:0:0
285,56,251067,2,0,B|188:40,1,100,4|0,0:0|0:0,0:0:0
10,83,251367,2,0,B|108:100,1,100
136,107,251592,1,8,0:0:0
163,117,251667,1,8,0:0:0
184,138,251742,1,0,0:0:0
208,154,251817,1,0,0:0:0
237,155,251892,1,0,0:0:0
266,148,251967,1,0,0:0:0
292,133,252042,1,0,0:0:0
321,128,252117,1,0,0:0:0
350,134,252192,1,0,0:0:0
375,150,252267,1,0,0:0:0
393,173,252342,1,0,0:0:0
399,202,252417,6,0,B|408:280|348:336|268:320,1,200
300,224,252887,1,2,0:0:0
128,76,253221,5,2,0:0:0
52,240,253596,1,0,0:0:0
132,204,253783,1,0,0:0:0
220,196,253971,2,0,B|300:184|372:232,1,150.000005722046,2|2,0:0|0:0,0:0:0
432,284,254533,1,2,0:0:0
332,292,254721,2,0,B|348:204|432:192,2,150.000005722046,0|2|0,0:0|0:0|0:0,0:0:0
176,296,255889,5,0,0:0:0
232,224,256093,1,0,0:0:0
316,204,256308,2,0,B|392:180|432:104,1,150.000005722046,2|2,0:0|0:0,0:0:0
348,56,256974,1,0,0:0:0
256,72,257196,2,0,B|180:96|140:172,1,150.000005722046,0|2,0:0|0:0,0:0:0
112,248,257907,1,2,0:0:0
208,232,258157,2,0,B|280:236|308:200|308:200|372:224,1,150.000005722046,0|2,0:0|0:0,0:0:0
256,192,259357,12,2,262957,0:0:0
