osu file format v11

[General]
AudioFilename: Reisen.mp3
AudioLeadIn: 0
PreviewTime: 96942
Countdown: 0
SampleSet: Soft
StackLeniency: 0.7
Mode: 0
LetterboxInBreaks: 1

[Editor]
Bookmarks: 140967
DistanceSpacing: 1.4
BeatDivisor: 4
GridSize: 4

[Metadata]
Title:Yoru Naku Usagi wa Yume wo Miru
TitleUnicode:夜啼く兎は夢を見る
Artist:UNDEAD CORPORATION
ArtistUnicode:UNDEAD CORPORATION
Creator:Strawberry
Version:Hard
Source:Touhou
Tags:Ranko Nakamura Masaki Reisen Udongein Inaba a3272509123 bakabaka jomnhnk Twice ZUN instrumental Lunatic Red Eyes Invisible Full Moon Imperishable Night th08
BeatmapID:214249
BeatmapSetID:59049

[Difficulty]
HPDrainRate:6
CircleSize:4
OverallDifficulty:6
ApproachRate:8
SliderMultiplier:1.6
SliderTickRate:2

[Events]
//Background and Video events
0,0,"BG.jpg"
//Break Periods
2,39489,41817
2,57767,61617
2,126167,128817
2,180167,183417
2,204167,207417
//Storyboard Layer 0 (Background)
//Storyboard Layer 1 (Fail)
//Storyboard Layer 2 (Pass)
//Storyboard Layer 3 (Foreground)
//Storyboard Sound Samples
//Background Colour Transformations
3,100,163,162,255

[TimingPoints]
4017,685.714285714286,4,2,1,20,1,0
9160,-100,4,2,1,30,0,0
9502,-100,4,2,1,25,0,0
10874,-100,4,2,1,20,0,0
11217,-100,4,2,1,10,0,0
11560,-100,4,2,1,20,0,0
12245,-100,4,2,1,25,0,0
12931,-100,4,2,1,30,0,0
13102,-100,4,2,1,25,0,0
13617,-100,4,2,1,15,0,0
13788,-100,4,2,1,20,0,0
13960,-100,4,2,1,15,0,0
14988,750,4,2,1,15,1,0
16488,-100,4,2,1,10,0,0
17983,674.157303370787,4,2,1,20,1,0
18320,-100,4,2,1,10,0,0
18657,-100,4,2,1,20,0,0
18994,-100,4,2,1,10,0,0
20005,-100,4,2,1,20,0,0
21016,-100,4,2,1,10,0,0
21690,-100,4,2,1,15,0,0
22027,-100,4,2,1,20,0,0
22702,-100,4,2,1,15,0,0
23039,-100,4,2,1,17,0,0
23376,-100,4,2,1,20,0,0
23713,-100,4,2,1,10,0,0
24050,-100,4,2,1,20,0,0
24387,-100,4,2,1,10,0,0
25398,-100,4,2,1,20,0,0
26409,-100,4,2,1,15,0,0
26747,-100,4,2,1,20,0,0
27084,-100,4,2,1,10,0,0
27421,-100,4,2,1,20,0,0
27758,-100,4,2,1,10,0,0
29443,-100,4,2,1,20,0,0
30117,-100,4,2,1,10,0,0
30793,-100,4,2,1,20,0,0
31803,-100,4,2,1,10,0,0
32140,-100,4,2,1,20,0,0
32477,-100,4,2,1,10,0,0
33488,662.983425414365,4,2,1,10,1,0
34150,-100,4,2,1,13,0,0
34813,-100,4,2,1,15,0,0
35476,-100,4,2,1,17,0,0
36139,-100,4,2,1,5,0,0
36305,-100,4,2,1,20,0,0
36802,-100,4,2,1,17,0,0
37465,-100,4,2,1,15,0,0
38128,-100,4,2,1,13,0,0
38791,-100,4,2,1,10,0,0
39289,-100,4,2,1,5,0,0
41967,300,4,2,1,20,1,0
42567,-100,4,2,0,45,0,0
42867,-100,4,2,0,30,0,0
43167,-100,4,1,1,70,0,0
43317,-100,4,1,1,50,0,0
43617,-100,4,1,1,70,0,0
43767,-100,4,1,1,50,0,0
44067,-100,4,1,1,70,0,0
44367,-100,4,1,1,50,0,0
44667,-100,4,1,1,70,0,0
44817,-100,4,1,1,50,0,0
44967,-100,4,1,1,70,0,0
45117,-100,4,1,1,50,0,0
45567,-100,4,1,1,70,0,0
45717,-100,4,1,1,50,0,0
46017,-100,4,1,1,70,0,0
46167,-100,4,1,1,50,0,0
46467,-100,4,1,1,70,0,0
46617,-100,4,1,1,50,0,0
47067,-100,4,1,1,70,0,0
47217,-100,4,1,1,50,0,0
47367,-100,4,1,1,70,0,0
47517,-100,4,1,1,50,0,0
47967,-100,4,1,1,60,0,0
52767,-100,4,1,1,70,0,0
53067,-100,4,1,1,50,0,0
53217,-100,4,1,1,70,0,0
53367,-100,4,1,1,50,0,0
53667,-100,4,1,1,70,0,0
53817,-100,4,1,1,50,0,0
54267,-100,4,1,1,70,0,0
54417,-100,4,1,1,50,0,0
54567,-100,4,1,1,70,0,0
54717,-100,4,1,1,50,0,0
55167,-100,4,1,1,70,0,0
55467,-100,4,1,1,50,0,0
55617,-100,4,1,1,70,0,0
55767,-100,4,1,1,50,0,0
56067,-100,4,1,1,70,0,0
56217,-100,4,1,1,50,0,0
56367,-100,4,1,1,70,0,0
56442,-100,4,1,1,50,0,0
56967,-100,4,1,1,60,0,0
57042,-100,4,1,1,50,0,0
57117,-100,4,1,1,40,0,0
57267,-100,4,1,1,50,0,0
57417,-100,4,1,1,40,0,0
57567,-100,4,2,1,20,0,0
62367,-133.333333333333,4,1,1,40,0,0
67167,-133.333333333333,4,2,1,40,0,0
69417,-133.333333333333,4,2,1,20,0,0
69567,-133.333333333333,4,2,1,40,0,0
71817,-133.333333333333,4,2,1,20,0,0
71967,-133.333333333333,4,2,1,40,0,0
73017,-133.333333333333,4,2,1,20,0,0
73167,-133.333333333333,4,2,1,40,0,0
74667,-133.333333333333,4,2,1,20,0,0
74817,-133.333333333333,4,2,1,40,0,0
75417,-133.333333333333,4,2,1,20,0,0
75567,-133.333333333333,4,2,1,40,0,0
76167,-133.333333333333,4,1,1,40,0,0
76767,-100,4,1,2,60,0,0
81117,-100,4,2,1,60,0,0
81417,-100,4,1,1,60,0,0
83967,-100,4,1,2,60,0,0
87417,-100,4,1,2,60,0,1
96567,-100,4,1,1,60,0,1
97467,-100,4,1,2,60,0,1
105717,-100,4,1,2,55,0,1
105867,-100,4,1,2,50,0,1
106017,-100,4,1,2,45,0,1
106167,-100,4,1,2,65,0,1
106767,-100,4,1,2,60,0,0
108567,-100,4,1,1,60,0,0
108867,-133.333333333333,4,1,2,60,0,0
111567,-100,4,1,1,70,0,0
111717,-100,4,1,1,50,0,0
112017,-100,4,1,1,70,0,0
112167,-100,4,1,1,50,0,0
112467,-100,4,1,1,70,0,0
112617,-100,4,1,1,50,0,0
113067,-100,4,1,1,70,0,0
113217,-100,4,1,1,50,0,0
113367,-100,4,1,1,70,0,0
113517,-100,4,1,1,50,0,0
113967,-100,4,1,1,70,0,0
114117,-100,4,1,1,50,0,0
114417,-100,4,1,1,70,0,0
114567,-100,4,1,1,50,0,0
114867,-100,4,1,1,70,0,0
115017,-100,4,1,1,50,0,0
115467,-100,4,1,1,70,0,0
115617,-100,4,1,1,50,0,0
115767,-100,4,1,1,70,0,0
115917,-100,4,1,1,50,0,0
116667,-100,4,1,1,60,0,0
121167,-100,4,1,1,70,0,0
121467,-100,4,1,1,50,0,0
121617,-100,4,1,1,70,0,0
121767,-100,4,1,1,50,0,0
122067,-100,4,1,1,70,0,0
122217,-100,4,1,1,50,0,0
122667,-100,4,1,1,70,0,0
122817,-100,4,1,1,50,0,0
122967,-100,4,1,1,70,0,0
123117,-100,4,1,1,50,0,0
123567,-100,4,1,1,70,0,0
123717,-100,4,1,1,50,0,0
124017,-100,4,1,1,70,0,0
124167,-100,4,1,1,50,0,0
124467,-100,4,1,1,70,0,0
124617,-100,4,1,1,50,0,0
124767,-100,4,1,1,70,0,0
124917,-100,4,1,1,60,0,0
124992,-100,4,1,1,50,0,0
125067,-100,4,1,1,40,0,0
125217,-100,4,1,1,55,0,0
125292,-100,4,1,1,45,0,0
125367,-100,4,1,1,35,0,0
125517,-100,4,1,1,60,0,0
125667,-100,4,1,1,50,0,0
125742,-100,4,1,1,40,0,0
125817,-100,4,1,1,30,0,0
129567,-133.333333333333,4,1,1,60,0,0
130167,-100,4,1,1,40,0,0
130767,-133.333333333333,4,2,1,40,0,0
135417,-133.333333333333,4,2,1,20,0,0
135567,-100,4,1,2,60,0,0
140367,-100,4,1,1,60,0,0
142767,-100,4,1,2,60,0,0
145767,-100,4,1,1,60,0,0
146217,-100,4,1,2,60,0,1
155367,-100,4,1,1,60,0,1
155817,-100,4,1,2,60,0,1
163392,-100,4,2,1,60,0,1
163617,-100,4,1,2,60,0,1
165567,300,3,1,1,60,1,0
165567,-133.333333333333,3,1,1,60,0,0
179067,-133.333333333333,3,2,2,60,0,0
179967,300,4,1,1,60,1,0
179967,-133.333333333333,4,1,1,60,0,0
184767,-133.333333333333,4,1,1,40,0,0
184917,-133.333333333333,4,1,1,60,0,0
185367,-133.333333333333,4,1,1,40,0,0
185517,-133.333333333333,4,1,1,60,0,0
185667,-133.333333333333,4,1,1,40,0,0
185967,-133.333333333333,4,1,1,60,0,0
186267,-133.333333333333,4,1,1,40,0,0
186342,-133.333333333333,4,1,1,60,0,0
186567,-133.333333333333,4,1,1,40,0,0
186717,-133.333333333333,4,1,1,60,0,0
186867,-133.333333333333,4,1,1,40,0,0
187017,-133.333333333333,4,1,1,60,0,0
188067,-133.333333333333,4,1,1,40,0,0
188367,-133.333333333333,4,1,1,60,0,0
188967,-133.333333333333,4,1,1,30,0,0
189267,-100,4,1,1,60,0,0
189567,-100,4,1,1,70,0,0
189717,-100,4,1,1,50,0,0
190017,-100,4,1,1,70,0,0
190167,-100,4,1,1,50,0,0
190467,-100,4,1,1,70,0,0
190617,-100,4,1,1,50,0,0
191067,-100,4,1,1,70,0,0
191217,-100,4,1,1,50,0,0
191367,-100,4,1,1,70,0,0
191517,-100,4,1,1,50,0,0
191967,-100,4,1,1,70,0,0
192117,-100,4,1,1,50,0,0
192417,-100,4,1,1,70,0,0
192567,-100,4,1,1,50,0,0
192867,-100,4,1,1,70,0,0
193017,-100,4,1,1,50,0,0
193467,-100,4,1,1,70,0,0
193617,-100,4,1,1,50,0,0
193767,-100,4,1,1,70,0,0
193917,-100,4,1,1,50,0,0
194367,-100,4,1,1,60,0,0
199167,-100,4,1,1,70,0,0
199317,-100,4,1,1,50,0,0
199617,-100,4,1,1,70,0,0
199767,-100,4,1,1,50,0,0
200067,-100,4,1,1,70,0,0
200367,-100,4,1,1,50,0,0
200667,-100,4,1,1,70,0,0
200817,-100,4,1,1,50,0,0
200967,-100,4,1,1,70,0,0
201117,-100,4,1,1,50,0,0
201567,-100,4,1,1,70,0,0
201717,-100,4,1,1,50,0,0
202017,-100,4,1,1,70,0,0
202167,-100,4,1,1,50,0,0
202467,-100,4,1,1,70,0,0
202617,-100,4,1,1,50,0,0
203967,-100,4,1,2,60,0,0
208767,-100,4,1,1,60,0,0
211167,-100,4,1,2,60,0,0
214617,-100,4,1,2,60,0,1
233667,-100,4,2,1,80,0,0
234117,-100,4,1,1,60,0,1
234417,-100,4,1,2,60,0,1
238617,-100,4,2,1,80,0,1
238767,-100,4,1,1,60,0,1
239067,-100,4,1,1,80,0,1
239142,-100,4,1,1,60,0,1
239367,-100,4,1,2,60,0,1
243417,-100,4,1,1,60,0,1
243867,-100,4,1,1,80,0,1
244017,-100,4,1,1,60,0,1
244467,-100,4,1,2,60,0,1
248217,-100,4,1,1,80,0,1
248367,-100,4,1,1,60,0,1
248667,-100,4,1,1,80,0,1
248742,-100,4,1,1,60,0,1
249267,-100,4,1,2,60,0,1
250992,-100,4,2,1,60,0,1
251217,-100,4,1,2,60,0,1
251817,-100,4,1,2,55,0,1
251967,-100,4,1,2,50,0,1
252117,-100,4,1,2,45,0,1
252267,-100,4,1,2,50,0,1
252417,-100,4,1,2,60,0,1
252887,300,4,1,1,60,1,1
253221,375,4,1,0,60,1,0
253221,-133.333333333333,4,2,1,40,0,0
255481,408.163265306122,4,1,0,60,1,0
255481,-133.333333333333,4,2,1,40,0,0
256308,444.444444444444,4,1,0,60,1,0
256308,-133.333333333333,4,2,1,40,0,0
257196,461.538461538462,4,1,0,60,1,0
257196,-133.333333333333,4,2,1,40,0,0
257657,500,4,1,0,60,1,0
257657,-133.333333333333,4,2,1,40,0,0
258157,600,4,1,0,60,1,0
258157,-133.333333333333,4,2,1,40,0,0
259507,-133.333333333333,4,2,1,5,0,0
259582,-133.333333333333,4,2,1,37,0,0
259657,-133.333333333333,4,2,1,36,0,0
259732,-133.333333333333,4,2,1,35,0,0
259807,-133.333333333333,4,2,1,34,0,0
259882,-133.333333333333,4,2,1,33,0,0
259957,-133.333333333333,4,2,1,32,0,0
260032,-133.333333333333,4,2,1,31,0,0
260107,-133.333333333333,4,2,1,30,0,0
260182,-133.333333333333,4,2,1,29,0,0
260257,-133.333333333333,4,2,1,28,0,0
260332,-133.333333333333,4,2,1,27,0,0
260407,-133.333333333333,4,2,1,26,0,0
260482,-133.333333333333,4,2,1,25,0,0
260557,-133.333333333333,4,2,1,24,0,0
260632,-133.333333333333,4,2,1,23,0,0
260707,-133.333333333333,4,2,1,22,0,0
260782,-133.333333333333,4,2,1,21,0,0
260857,-133.333333333333,4,2,1,20,0,0
260932,-133.333333333333,4,2,1,19,0,0
261007,-133.333333333333,4,2,1,18,0,0
261082,-133.333333333333,4,2,1,17,0,0
261157,-133.333333333333,4,2,1,16,0,0
261232,-133.333333333333,4,2,1,15,0,0
261307,-133.333333333333,4,2,1,14,0,0
261382,-133.333333333333,4,2,1,13,0,0
261457,-133.333333333333,4,2,1,12,0,0
261532,-133.333333333333,4,2,1,11,0,0
261607,-133.333333333333,4,2,1,10,0,0
261682,-133.333333333333,4,2,1,9,0,0
261757,-133.333333333333,4,2,1,8,0,0
261832,-133.333333333333,4,2,1,7,0,0
261907,-133.333333333333,4,2,1,6,0,0
261982,-133.333333333333,4,2,1,5,0,0
262957,-133.333333333333,4,2,1,25,0,0

[Colours]
Combo1 : 68,134,242
Combo2 : 255,176,216
Combo3 : 140,199,247
Combo4 : 243,109,180
SliderBorder : 255,255,255

[HitObjects]
256,88,6759,2,0,B|164:92|144:184,1,160
256,296,8131,2,0,B|348:292|368:200,1,160
376,120,9160,1,0,0:0:0
344,48,9502,1,0,0:0:0
344,48,10188,5,0,0:0:0
376,120,10531,1,0,0:0:0
296,108,10874,2,0,B|216:84|168:92|168:92|216:136,1,160
224,184,11902,2,0,B|236:228|228:284,1,80
230,263,12931,37,0,0:0:0
308,240,13274,1,0,0:0:0
388,240,13617,2,0,B|432:240,2,40
308,240,14302,2,0,B|264:240|232:204,1,80
188,152,14988,6,0,B|104:176|92:272,1,160
244,216,16488,2,0,B|222:300|299:359,1,160
336,184,17983,6,0,B|328:144|328:100,1,80
248,112,18657,2,0,B|261:73|283:35,1,80,0|0,0:0|0:0,2:0:0
328,104,19331,2,0,B|276:172|192:196,1,160
40,212,20679,2,0,B|116:244|144:336,2,160
40,212,22702,37,0,0:0:0
104,164,23039,1,0,0:0:0
132,88,23376,2,0,B|176:88|208:116,1,80
248,44,24050,2,0,B|286:66|299:106,1,80
205,114,24724,2,0,B|112:124|64:52,2,160
284,128,26409,5,0,0:0:0
356,160,26747,2,0,B|396:176|416:216,1,80
348,260,27421,2,0,B|374:293|371:338,2,80
196,308,28769,6,0,B|164:252|164:252|176:208|164:156,1,160
36,64,30117,2,0,B|92:120|82:214,1,160
224,136,31466,2,0,B|264:132|304:156,1,80
356,96,32140,2,0,B|392:112|415:153,2,80
256,192,33488,5,0,0:0:0
256,192,34150,12,0,36139,0:0:0
256,192,36802,12,0,39289,0:0:0
256,192,42567,5,0,0:0:0
256,244,42867,1,0,0:0:0
256,296,43167,6,0,B|160:284|152:192,1,160,8|0,0:0|0:0,0:0:0
180,116,43617,1,8,0:0:0
256,88,43767,2,0,B|352:100|360:192,1,160,0|8,0:0|0:0,0:0:0
332,268,44217,1,0,0:0:0
256,296,44367,2,0,B|192:296|192:296|176:320|176:320|104:320,3,160,0|8|8|0,0:0|0:0|0:0|0:0,0:0:0
40,176,45567,6,0,B|92:244|184:224,1,160,8|0,0:0|0:0,0:0:0
256,192,46017,1,8,0:0:0
328,156,46167,2,0,B|412:156,2,80,0|0|8,0:0|0:0|0:0,0:0:0
192,72,46767,2,0,B|108:72,2,80,0|0|8,0:0|0:0|0:0,0:0:0
72,180,47367,2,0,B|112:252,1,80,8|0,0:0|0:0,0:0:0
184,216,47667,2,0,B|224:288,1,80
296,256,47967,6,0,B|324:336|416:368|496:320,2,240,8|0|0,0:0|0:0|0:0,0:0:0
260,100,49167,2,0,B|168:84|116:160,1,160
116,244,49617,1,0,0:0:0
176,308,49767,2,0,B|268:324|320:248,1,160
119,154,50367,2,0,B|28:188|28:188|-8:240|16:332,2,240,8|0|8,0:0|0:0|0:0,0:0:0
244,256,51567,6,0,B|332:232|356:148,1,160,0|8,0:0|0:0,0:0:0
348,72,52017,1,0,0:0:0
272,52,52167,2,0,B|184:76|160:160,1,160,8|0,0:0|0:0,0:0:0
164,236,52617,1,0,0:0:0
244,256,52767,6,0,B|316:256|316:328|392:328,1,160,8|0,0:0|0:0,0:0:0
448,284,53217,1,8,0:0:0
440,204,53367,2,0,B|373:204|373:132|301:132,1,160,0|8,0:0|0:0,0:0:0
236,176,53817,1,0,0:0:0
244,256,53967,2,0,B|189:270|189:270|168:316|116:344,3,160,0|8|8|0,0:0|0:0|0:0|0:0,0:0:0
120,184,55167,6,0,B|92:264|4:304,1,160,8|0,0:0|0:0,0:0:0
24,220,55617,2,0,B|76:276|168:284,1,160,8|0,0:0|0:0,0:0:0
248,288,56067,1,8,0:0:0
256,192,56217,12,2,57567,0:0:0
76,192,62367,5,0,0:0:0
136,88,62667,1,0,0:0:0
196,192,62967,1,0,0:0:0
256,88,63267,1,0,0:0:0
316,192,63567,1,0,0:0:0
376,88,63867,1,0,0:0:0
436,192,64167,1,0,0:0:0
316,192,64467,5,0,0:0:0
356,236,64617,1,0,0:0:0
396,280,64767,2,0,B|284:348,1,120.000004577637
240,316,65217,1,0,0:0:0
184,292,65367,2,0,B|72:360,1,120.000004577637
124,240,65967,2,0,B|168:184|124:128,1,120.000004577637,4|0,0:0|0:0,0:0:0
68,112,66417,1,0,0:0:0
12,132,66567,2,0,B|-30:185|13:241,1,120.000004577637
124,240,67167,6,0,B|204:188|300:212,1,180.000006866455,2|0,0:0|0:0,0:0:0
348,280,67767,2,0,B|404:240|420:184,1,120.000004577637,2|2,0:0|0:0,0:0:0
432,104,68217,1,2,0:0:0
348,120,68367,2,0,B|288:140|224:120,3,120.000004577637,0|2|0|0,0:0|0:0|0:0|0:0,0:0:0
84,40,69567,6,0,B|52:100|84:156,1,120.000004577637,0|2,0:0|0:0,0:0:0
136,220,70017,1,0,0:0:0
220,204,70167,2,0,B|284:188|344:208,1,120.000004577637,2|2,0:0|0:0,0:0:0
412,248,70617,1,2,0:0:0
448,324,70767,2,0,B|336:384,2,120.000004577637,0|2|0,0:0|0:0|0:0,0:0:0
344,188,71667,1,0,0:0:0
412,248,71967,6,0,B|448:192|416:132,1,120.000004577637
344,92,72417,1,0,0:0:0
272,136,72567,2,0,B|241:193|277:249,1,120.000004577637,2|2,0:0|0:0,0:0:0
344,300,73017,1,2,0:0:0
412,248,73167,2,0,B|488:340,2,120.000004577637,0|2|0,0:0|0:0|0:0,0:0:0
304,120,74067,6,0,B|264:72,1,60.0000022888184
220,144,74367,2,0,B|224:208|168:256,1,120.000004577637,2|2,0:0|0:0,0:0:0
92,236,74817,1,0,0:0:0
112,156,74967,2,0,B|196:188|252:268|324:272,1,240.000009155274,2|4,0:0|0:0,0:0:0
488,272,75867,1,4,0:0:0
408,124,76167,5,0,0:0:0
328,148,76317,1,0,0:0:0
248,128,76467,1,0,0:0:0
192,68,76617,1,0,0:0:0
304,60,76767,6,0,B|260:136|188:168,1,160,4|8,0:0|0:0,0:0:0
108,164,77217,2,0,B|84:244|124:320,1,160
172,384,77667,1,8,0:0:0
208,312,77817,2,0,B|268:248|352:240,1,160
428,240,78267,1,8,0:0:0
504,264,78417,1,0,0:0:0
356,204,78717,6,0,B|352:160|360:116,1,80,0|8,0:0|0:0,0:0:0
376,44,79017,1,0,0:0:0
428,104,79167,2,0,B|340:120|272:172,1,160,0|8,0:0|0:0,0:0:0
232,228,79617,2,0,B|160:188|128:100,1,160
96,36,80067,1,8,0:0:0
48,100,80217,5,0,0:0:0
40,260,80517,1,0,0:0:0
184,188,80817,1,0,0:0:0
48,100,81117,1,4,0:0:0
48,100,81267,1,4,0:0:0
184,188,81567,6,0,B|248:144|248:144|336:144,1,160,2|0,0:0|0:0,0:0:0
472,220,82167,2,0,B|408:264|408:264|320:264,1,160,2|0,0:0|0:0,0:0:0
208,156,82767,2,0,B|272:112|272:112|360:112,1,160,2|0,0:0|0:0,0:0:0
496,188,83367,2,0,B|432:232|432:232|344:232,1,160,2|0,0:0|0:0,0:0:0
208,156,83967,6,0,B|232:156|232:156|256:168|292:160,2,80,0|0|8,0:0|0:0|0:0,0:0:0
136,120,84417,2,0,P|104:184|164:212|120:284,1,160
208,268,84867,1,8,0:0:0
284,288,85017,2,0,B|356:332|440:324,1,160
400,252,85467,2,0,B|340:188|336:104,1,160,8|0,0:0|0:0,0:0:0
348,28,85917,2,0,B|264:40|208:108,1,160,8|0,0:0|0:0,0:0:0
108,144,86367,6,0,B|176:204,1,80
140,304,86667,2,0,B|208:364,1,80,8|0,0:0|0:0,0:0:0
312,360,86967,1,8,0:0:0
408,300,87117,1,8,0:0:0
452,196,87267,1,0,0:0:0
372,212,87417,6,0,B|280:192|252:112,1,160,4|0,0:0|0:0,0:0:0
232,40,87867,2,0,B|144:32|84:104,1,160,8|0,0:0|0:0,0:0:0
48,168,88317,1,0,0:0:0
128,184,88467,1,8,0:0:0
196,228,88617,2,0,B|252:296|276:368,1,160
204,328,89067,2,0,B|244:296|272:288,1,80,8|0,0:0|0:0,0:0:0
380,252,89367,1,8,0:0:0
364,360,89517,1,8,0:0:0
468,320,89667,1,0,0:0:0
508,240,89817,6,0,B|488:152|408:124,1,160
328,136,90267,1,8,0:0:0
256,100,90417,1,0,0:0:0
216,32,90567,2,0,B|136:60|104:144,1,160,0|8,0:0|0:0,0:0:0
92,220,91017,2,0,B|180:212|244:256,1,160
296,320,91467,1,8,0:0:0
352,260,91617,1,0,0:0:0
404,200,91767,2,0,B|456:160|456:160|459:125|459:125|508:76,1,160,0|8,0:0|0:0,0:0:0
432,44,92217,6,0,B|390:85|390:85|387:120|387:120|335:160,1,160,0|0,0:0|0:0,0:0:0
300,88,92667,2,0,B|232:148|152:132,1,160,8|0,0:0|0:0,0:0:0
76,108,93117,1,0,0:0:0
20,52,93267,1,8,0:0:0
96,32,93417,2,0,B|92:116|24:176,1,160
124,172,93867,2,0,B|168:164|212:168,1,80,8|0,0:0|0:0,0:0:0
300,160,94167,5,8,0:0:0
220,240,94317,1,0,0:0:0
144,320,94467,1,8,0:0:0
248,320,94617,6,0,B|328:292|404:332,1,160
472,304,95067,2,0,B|433:234,1,80,8|0,0:0|0:0,0:0:0
352,224,95367,2,0,B|313:154,1,80
232,152,95667,2,0,B|193:82,1,80,8|0,0:0|0:0,0:0:0
152,12,95967,5,0,0:0:0
108,80,96117,2,0,B|96:128|72:152,1,80,0|8,0:0|0:0,0:0:0
20,212,96417,1,0,0:0:0
20,212,96492,1,0,0:0:0
20,212,96567,2,0,B|92:248,1,80,8|0,0:0|0:0,0:0:0
220,240,96867,1,8,0:0:0
236,368,97017,6,0,B|281:292|372:304,1,160,0|8,0:0|0:0,0:0:0
372,304,97392,1,0,0:0:0
372,304,97467,2,0,B|404:272|416:232,1,80,8|0,0:0|0:0,0:0:0
436,160,97767,2,0,B|344:148|292:236,1,160,0|8,0:0|0:0,0:0:0
276,300,98217,2,0,B|231:376|139:364,1,160
68,328,98667,2,0,B|108:248,1,80,8|0,0:0|0:0,0:0:0
148,152,98967,1,8,0:0:0
80,68,99117,1,0,0:0:0
36,172,99267,1,8,0:0:0
148,152,99417,6,0,B|224:128|308:136,1,160
292,216,99867,2,0,B|344:212|388:216,1,80,8|0,0:0|0:0,0:0:0
452,228,100167,1,0,0:0:0
508,284,100317,1,0,0:0:0
432,304,100467,1,8,0:0:0
452,228,100617,2,0,B|488:148|484:64,1,160
404,64,101067,2,8,B|408:108|388:144,1,80
360,216,101367,2,0,B|280:192|252:104,1,160,0|8,0:0|0:0,0:0:0
244,28,101817,6,0,B|160:24|104:92,1,160
60,160,102267,1,8,0:0:0
212,212,102567,5,0,0:0:0
292,196,102717,1,0,0:0:0
372,208,102867,1,8,0:0:0
428,268,103017,2,0,B|344:280|280:344,1,160
212,368,103467,2,0,B|172:348|152:304,1,80,8|0,0:0|0:0,0:0:0
124,240,103767,1,8,0:0:0
68,296,103917,1,0,0:0:0
68,296,103992,1,0,0:0:0
68,296,104067,1,8,0:0:0
72,184,104217,6,0,B|140:144|176:48,1,160
100,96,104667,2,0,B|152:180,1,80,8|0,0:0|0:0,0:0:0
216,136,104967,2,0,B|268:220,1,80
328,164,105267,2,0,B|380:248,1,80,8|0,0:0|0:0,0:0:0
412,300,105567,5,0,0:0:0
336,324,105717,1,0,0:0:0
268,280,105867,1,0,0:0:0
256,200,106017,1,0,0:0:0
328,164,106167,6,0,B|412:124,1,80,8|8,0:0|0:0,0:0:0
380,52,106467,2,0,B|307:86,1,80,8|8,0:0|0:0,0:0:0
235,122,106767,1,4,0:0:0
84,272,108567,5,8,0:0:0
152,228,108717,1,8,0:0:0
228,240,108867,2,0,B|260:184|240:120,1,120.000004577637,8|8,0:0|0:0,0:0:0
241,124,109467,1,8,0:0:0
340,260,109767,2,0,B|428:352,1,120.000004577637,8|0,0:0|0:0,0:0:0
444,264,110217,1,8,0:0:0
388,204,110367,2,0,P|348:160,1,60.0000022888184
236,64,110817,5,0,0:0:0
236,64,110967,2,0,B|204:124|124:140,1,120.000004577637,8|0,0:0|0:0,0:0:0
8,48,111567,6,0,B|-16:140|40:200,1,160,8|0,0:0|0:0,0:0:0
112,224,112017,1,8,0:0:0
184,188,112167,2,0,B|256:144|340:168,1,160,0|8,0:0|0:0,0:0:0
408,204,112617,1,0,0:0:0
464,264,112767,2,0,B|408:300|408:300|408:336|408:336|356:368,3,160,0|8|8|0,0:0|0:0|0:0|0:0,0:0:0
292,220,113967,6,0,B|232:276|220:368,1,160,8|0,0:0|0:0,0:0:0
156,312,114417,2,0,B|92:256|96:160,1,160,8|0,0:0|0:0,0:0:0
108,88,114867,1,8,0:0:0
232,192,115167,2,0,B|312:192,2,80,0|0|8,0:0|0:0|0:0,0:0:0
292,340,115767,2,0,B|372:340,2,80,8|0|0,0:0|0:0|0:0,0:0:0
400,224,116367,6,0,B|416:136|492:100|492:100|480:8,2,240,8|0|8,0:0|0:0|0:0,0:0:0
324,84,117567,2,0,B|272:152|272:248,1,160,0|8,0:0|0:0,0:0:0
276,312,118017,1,0,0:0:0
344,272,118167,2,0,B|284:208|188:244,1,160
60,324,118767,6,0,B|52:236|77:178|77:178|172:136,2,240,8|0|8,0:0|0:0|0:0,0:0:0
196,240,119967,2,0,B|280:236|328:160,1,160,0|8,0:0|0:0,0:0:0
320,80,120417,1,0,0:0:0
252,36,120567,2,0,B|168:40|120:116,1,160,8|0,0:0|0:0,0:0:0
128,196,121017,1,0,0:0:0
196,240,121167,6,0,B|284:240|332:320,1,160,8|0,0:0|0:0,0:0:0
252,332,121617,1,8,0:0:0
180,364,121767,1,0,0:0:0
36,296,122067,1,8,0:0:0
48,216,122217,1,0,0:0:0
88,144,122367,2,0,B|136:72|216:48,3,160,0|8|8|0,0:0|0:0|0:0|0:0,0:0:0
312,176,123567,6,0,B|344:252|436:280,1,160,8|0,0:0|0:0,0:0:0
428,196,124017,2,0,B|372:212|356:272|288:284,1,160,8|0,0:0|0:0,0:0:0
236,228,124467,2,0,B|152:228,1,80,8|0,0:0|0:0,0:0:0
76,228,124767,1,8,0:0:0
256,192,124917,12,4,125967,0:0:0
256,72,129567,5,0,0:0:0
256,192,129867,1,0,0:0:0
256,312,130167,1,0,0:0:0
256,192,130467,1,0,0:0:0
156,128,130767,6,0,B|104:84|36:88,1,120.000004577637,0|2,0:0|0:0,0:0:0
40,172,131217,1,0,0:0:0
76,248,131367,2,0,B|128:292|196:288,1,120.000004577637,2|2,0:0|0:0,0:0:0
168,208,131817,1,2,0:0:0
156,128,131967,2,0,B|208:88|276:92,1,120.000004577637,0|2,0:0|0:0,0:0:0
284,260,132567,2,0,B|344:285|375:345,1,120.000004577637,0|0,0:0|0:0,0:0:0
412,264,133017,5,0,0:0:0
432,184,133167,2,0,B|448:120|440:56,1,120.000004577637,2|2,0:0|0:0,0:0:0
360,88,133617,2,0,B|360:124|352:156,1,60.0000022888184,0|2,0:0|0:0,0:0:0
192,184,134067,2,0,B|198:160|198:124,1,60.0000022888184,2|2,0:0|0:0,0:0:0
116,100,134367,2,0,B|123:155|107:219,2,120.000004577637,4|4|12,0:0|0:0|0:0,0:0:0
192,184,135267,5,2,0:0:0
276,192,135417,1,2,0:0:0
344,232,135567,6,0,B|416:192|504:184,1,160,0|8,0:0|0:0,0:0:0
472,260,136017,2,0,B|412:212|416:112,1,160
424,36,136467,1,8,0:0:0
336,24,136617,2,0,B|252:36|208:120,1,160
192,192,137067,1,8,0:0:0
220,268,137217,1,0,0:0:0
380,276,137517,1,0,0:0:0
408,352,137667,1,8,0:0:0
220,268,137967,6,0,B|272:208|360:200,1,160,0|8,0:0|0:0,0:0:0
440,204,138417,1,0,0:0:0
440,204,138717,1,0,0:0:0
416,128,138867,1,8,0:0:0
420,48,139017,2,0,B|340:36|260:72,2,160,0|8|0,0:0|0:0|0:0,0:0:0
292,148,139917,2,0,B|244:156|208:172,1,80,0|8,0:0|0:0,0:0:0
56,156,140367,6,0,B|68:240|68:240|120:296,1,160,2|0,0:0|0:0,0:0:0
216,168,140967,2,0,B|204:84|204:84|152:28,1,160,2|0,0:0|0:0,0:0:0
140,188,141567,2,0,B|148:284,1,80,2|0,0:0|0:0,0:0:0
224,248,141867,2,0,B|232:344,1,80
304,292,142167,2,0,B|356:208|296:144,1,160,2|0,0:0|0:0,0:0:0
224,112,142617,5,0,0:0:0
288,64,142767,2,0,B|376:32|432:108,1,160,0|8,0:0|0:0,0:0:0
476,172,143217,1,0,0:0:0
500,248,143367,2,0,B|424:288,1,80
364,240,143667,1,8,0:0:0
300,192,143817,6,0,B|160:272,1,160
92,312,144267,2,0,B|4:284|16:180,1,160,8|0,0:0|0:0,0:0:0
84,148,144717,2,0,B|222:68,1,160,8|0,0:0|0:0,0:0:0
260,140,145167,2,0,B|340:88,1,80,8|0,0:0|0:0,0:0:0
356,172,145467,2,0,B|436:120,1,80,8|0,0:0|0:0,0:0:0
492,84,145767,5,8,0:0:0
480,196,145917,1,8,0:0:0
420,288,146067,1,8,0:0:0
328,352,146217,6,0,B|212:288|88:344,1,240,4|8,0:0|0:0,0:0:0
116,180,146967,2,0,B|48:224|24:312,1,160,0|8,0:0|0:0,0:0:0
104,304,147417,2,0,B|176:264|264:272,1,160
336,288,147867,1,8,0:0:0
408,320,148017,1,0,0:0:0
472,368,148167,2,0,B|504:288|488:200,1,160,0|8,0:0|0:0,0:0:0
476,132,148617,1,0,0:0:0
328,196,148917,5,0,0:0:0
248,180,149067,1,8,0:0:0
184,132,149217,1,0,0:0:0
168,52,149367,2,0,B|92:88|60:172,1,160,0|8,0:0|0:0,0:0:0
52,248,149817,1,0,0:0:0
188,336,150117,1,0,0:0:0
252,284,150267,1,8,0:0:0
332,272,150417,1,0,0:0:0
404,304,150567,2,0,B|464:248|464:156,1,160,0|8,0:0|0:0,0:0:0
388,184,151017,6,0,B|404:104|364:28,1,160
300,76,151467,2,0,B|280:160|204:204,1,160,8|0,0:0|0:0,0:0:0
128,196,151917,1,0,0:0:0
76,136,152067,1,8,0:0:0
156,120,152217,2,0,B|108:192|140:276,1,160
168,348,152667,2,0,B|192:312|224:284,1,80,8|0,0:0|0:0,0:0:0
324,244,152967,1,8,0:0:0
288,348,153117,1,0,0:0:0
400,328,153267,1,8,0:0:0
448,228,153417,6,0,B|488:152|488:68,1,160
412,104,153867,1,8,0:0:0
336,124,154017,1,0,0:0:0
256,112,154167,2,0,B|176:100,1,80
172,180,154467,2,0,B|92:168,1,80,8|0,0:0|0:0,0:0:0
12,156,154767,1,0,0:0:0
40,232,154917,1,0,0:0:0
120,244,155067,1,8,0:0:0
172,180,155217,2,0,B|248:152|336:184,1,160,0|8,0:0|0:0,0:0:0
328,181,155592,1,0,0:0:0
328,181,155667,1,8,0:0:0
280,244,155817,6,0,B|360:260|416:328,1,160
332,324,156267,2,0,B|385:258|465:242,1,160,8|0,0:0|0:0,0:0:0
424,172,156717,1,0,0:0:0
404,96,156867,1,8,0:0:0
400,16,157017,2,0,B|320:32|266:97,1,160
236,172,157467,2,0,B|196:168|160:148,1,80,8|0,0:0|0:0,0:0:0
100,96,157767,1,8,0:0:0
44,192,157917,1,0,0:0:0
148,236,158067,1,8,0:0:0
68,316,158217,6,0,B|152:308|228:344,1,160
296,376,158667,2,0,B|328:348|352:308,1,80,8|0,0:0|0:0,0:0:0
416,356,158967,2,0,B|472:292|484:208,1,160,0|8,0:0|0:0,0:0:0
404,228,159417,2,0,B|432:144|416:60,1,160
344,108,159867,2,0,B|340:152|324:192,1,80,8|0,0:0|0:0,0:0:0
264,136,160167,2,0,B|244:216|200:288,1,160,0|8,0:0|0:0,0:0:0
160,216,160617,6,0,B|284:208|380:296,1,240,0|8,0:0|0:0,0:0:0
468,160,161367,1,0,0:0:0
388,160,161517,1,0,0:0:0
316,196,161667,1,8,0:0:0
268,260,161817,2,0,B|224:332|136:344,1,160
56,344,162267,2,0,B|84:260,1,80,8|0,0:0|0:0,0:0:0
108,192,162567,1,8,0:0:0
136,84,162717,1,0,0:0:0
248,68,162867,1,8,0:0:0
312,160,163017,6,0,B|372:216|464:224,1,160
380,252,163467,2,0,B|336:268|308:300,1,80,4|0,0:0|0:0,0:0:0
276,364,163767,2,0,B|200:332,1,80
208,252,164067,2,0,B|132:220,1,80,8|0,0:0|0:0,0:0:0
60,192,164367,5,0,0:0:0
120,140,164517,1,0,0:0:0
200,156,164667,1,8,0:0:0
260,104,164817,1,0,0:0:0
320,52,164967,1,0,0:0:0
320,52,165042,1,0,0:0:0
320,52,165117,1,0,0:0:0
388,92,165267,2,0,B|432:168|384:244,1,160,8|8,0:0|0:0,0:0:0
288,316,165867,6,0,B|248:256|284:188,1,120.000004577637,0|8,0:0|0:0,0:0:0
388,92,166467,1,8,0:0:0
268,96,166767,2,0,B|200:96|160:48,1,120.000004577637,0|8,0:0|0:0,0:0:0
68,124,167367,2,0,B|80:172|80:172|68:196|68:196|80:244,2,120.000004577637,0|8|8,0:0|0:0|0:0,0:0:0
152,212,168267,2,0,B|164:260|164:260|152:284|152:284|164:332,2,120.000004577637,8|0|8,0:0|0:0|0:0,0:0:0
252,280,169167,6,0,B|320:352|424:344,1,180.000006866455,8|0,0:0|0:0,0:0:0
488,328,169767,1,0,0:0:0
384,216,170067,2,0,B|368:156|388:92,2,120.000004577637,8|8|0,0:0|0:0|0:0,0:0:0
248,120,170967,2,0,B|160:168|76:120,1,180.000006866455,0|8,0:0|0:0,0:0:0
8,72,171567,1,0,0:0:0
84,224,171867,2,0,B|-4:320,2,120.000004577637,8|0|8,0:0|0:0|0:0,0:0:0
104,344,172767,6,0,B|140:288|196:268|196:268|324:268,1,240.000009155274,8|0,0:0|0:0,0:0:0
408,192,173667,2,0,B|276:192,2,120.000004577637,8|0|8,0:0|0:0|0:0,0:0:0
314,116,174567,2,0,B|196:116|196:116|140:96|104:40,1,240.000009155274,8|0,0:0|0:0,0:0:0
36,136,175467,2,0,B|68:188|128:208,2,120.000004577637,8|0|8,0:0|0:0|0:0,0:0:0
156,124,176367,6,0,B|280:124,1,120.000004577637,0|8,0:0|0:0,0:0:0
396,124,176967,1,0,0:0:0
356,196,177117,1,0,0:0:0
396,268,177267,2,0,B|272:268,1,120.000004577637,0|8,0:0|0:0,0:0:0
304,348,177717,2,0,B|180:348,1,120.000004577637
100,348,178167,2,0,B|68:292|100:232,2,120.000004577637,0|8|0,0:0|0:0|0:0,0:0:0
196,272,179067,2,0,B|228:216|196:156,2,120.000004577637,4|4|4,0:0|0:0|0:0,0:0:0
112,128,179967,1,0,0:0:0
256,132,184167,5,8,0:0:0
256,252,184467,1,8,0:0:0
152,192,184767,2,0,B|104:148|104:80,1,120.000004577637,4|0,0:0|0:0,0:0:0
176,40,185217,1,0,0:0:0
244,88,185367,2,0,B|288:128|356:132,1,120.000004577637,4|4,0:0|0:0,0:0:0
436,128,185817,1,4,0:0:0
408,208,185967,2,0,B|368:324,3,120.000004577637,0|4|4|4,0:0|0:0|0:0|0:0,0:0:0
256,280,187167,6,0,B|200:308|140:280,1,120.000004577637,4|0,0:0|0:0,0:0:0
92,212,187617,1,0,0:0:0
140,144,187767,2,0,B|200:116|256:144,1,120.000004577637,4|4,0:0|0:0,0:0:0
308,212,188217,1,4,0:0:0
392,212,188367,2,0,B|424:156|392:92,3,120.000004577637,4|4|0|4,0:0|0:0|0:0|0:0,0:0:0
244,156,189567,6,0,B|200:224|120:252,1,160,8|0,0:0|0:0,0:0:0
40,256,190017,1,8,0:0:0
80,188,190167,2,0,B|132:124|140:40,1,160,0|8,0:0|0:0,0:0:0
220,52,190617,1,0,0:0:0
220,52,190767,1,0,0:0:0
456,84,191067,2,0,B|408:152|316:160,2,160,8|8|0,0:0|0:0|0:0,0:0:0
296,76,191967,6,0,B|304:172|372:212|372:212|356:288,2,240,8|8|8,0:0|0:0|0:0,0:0:0
428,164,193167,2,0,B|352:116|372:16,1,160,0|8,0:0|0:0,0:0:0
296,76,193617,1,0,0:0:0
236,128,193767,2,0,B|176:172|176:172|168:196|168:196|112:240,1,160,8|0,0:0|0:0,0:0:0
272,284,194367,6,0,B|396:260|504:356,2,240,8|0|8,0:0|0:0|0:0,0:0:0
116,324,195567,2,0,B|48:272|48:184,1,160,0|8,0:0|0:0,0:0:0
204,220,196167,2,0,B|192:135|254:72,1,160,8|0,0:0|0:0,0:0:0
376,176,196767,2,0,B|372:312|248:368,2,240,8|0|8,0:0|0:0|0:0,0:0:0
220,132,197967,1,0,0:0:0
60,144,198267,1,8,0:0:0
60,224,198417,1,0,0:0:0
108,288,198567,2,0,B|200:288|260:356,1,160,8|0,0:0|0:0,0:0:0
320,308,199017,1,0,0:0:0
388,268,199167,6,0,B|464:224|464:224|492:156|488:72,1,240,8|8,0:0|0:0,0:0:0
408,84,199767,2,0,B|404:136|392:176|392:176|328:208,1,160,0|8,0:0|0:0,0:0:0
252,228,200217,1,0,0:0:0
176,252,200367,2,0,B|118:282|118:282|102:322|98:374,3,160,0|8|8|0,0:0|0:0|0:0|0:0,0:0:0
24,232,201567,6,0,B|28:144|96:88,1,160,8|0,0:0|0:0,0:0:0
144,152,202017,2,0,B|196:220|284:224,1,160,8|0,0:0|0:0,0:0:0
360,224,202467,1,8,0:0:0
256,192,202617,12,4,203967,0:0:0
404,40,208167,5,4,0:0:0
256,100,208467,1,4,0:0:0
108,40,208767,6,0,B|108:100|108:100|76:128|76:128|76:196,1,160,2|0,0:0|0:0,0:0:0
172,312,209367,2,0,B|172:254|172:254|204:226|204:226|204:166,1,160,2|0,0:0|0:0,0:0:0
336,76,209967,2,0,B|336:136|336:136|304:164|304:164|304:232,1,160,2|0,0:0|0:0,0:0:0
404,344,210567,2,0,B|404:284|404:284|436:256|436:256|436:188,1,160,2|0,0:0|0:0,0:0:0
336,76,211167,6,0,B|280:140|192:160,1,160,8|0,0:0|0:0,0:0:0
124,168,211617,1,8,0:0:0
44,180,211767,2,0,B|68:264,1,80,0|8,0:0|0:0,0:0:0
144,272,212067,2,0,B|168:356,1,80,8|0,0:0|0:0,0:0:0
256,192,212367,12,0,213567,0:0:0
256,192,213642,12,4,214617,0:0:0
288,184,215067,6,0,B|344:120|436:104,1,160,8|0,0:0|0:0,0:0:0
456,180,215517,1,0,0:0:0
436,256,215667,1,8,0:0:0
376,308,215817,2,0,B|296:336|216:320,1,160
148,280,216267,2,0,B|80:328,1,80,8|0,0:0|0:0,0:0:0
24,232,216567,1,8,0:0:0
128,192,216717,1,0,0:0:0
72,96,216867,1,8,0:0:0
176,52,217017,6,0,B|228:124|304:152,1,160
376,168,217467,2,0,B|452:128,2,80,8|0|0,0:0|0:0|0:0,0:0:0
432,224,217917,2,0,B|352:268,1,80,0|8,0:0|0:0,0:0:0
292,300,218217,2,0,B|212:268|136:300,1,160
72,256,218667,2,0,B|-8:212,1,80,8|0,0:0|0:0,0:0:0
56,160,218967,2,0,B|136:184|216:136,1,160,0|8,0:0|0:0,0:0:0
272,88,219417,1,0,0:0:0
424,140,219717,5,0,0:0:0
424,140,219867,2,0,B|376:208|364:288,1,160,8|0,0:0|0:0,0:0:0
420,228,220317,2,0,B|392:188|356:172,1,80,0|8,0:0|0:0,0:0:0
284,156,220617,2,0,B|224:212|140:220,1,160
68,256,221067,1,8,0:0:0
8,204,221217,1,0,0:0:0
80,180,221367,2,0,B|124:248|116:340,1,160,0|8,0:0|0:0,0:0:0
20,276,221817,6,0,B|104:260|184:288,1,160
248,324,222267,1,8,0:0:0
328,312,222417,1,0,0:0:0
380,252,222567,2,0,B|424:176|404:92,1,160,0|8,0:0|0:0,0:0:0
372,24,223017,1,0,0:0:0
324,88,223167,2,0,B|272:152|184:168,1,160,0|8,0:0|0:0,0:0:0
139,288,223617,5,0,0:0:0
139,288,223767,1,8,0:0:0
244,360,223917,2,0,B|309:313,1,80,0|8,0:0|0:0,0:0:0
372,264,224217,6,0,B|400:176|344:112,1,160
260,44,224667,2,0,B|232:120|148:160,1,160,8|0,0:0|0:0,0:0:0
80,188,225117,1,0,0:0:0
128,252,225267,1,8,0:0:0
188,304,225417,2,0,B|252:360|336:360,1,160
312,284,225867,2,0,B|280:260|272:216,1,80,8|0,0:0|0:0,0:0:0
284,104,226167,1,8,0:0:0
204,180,226317,1,0,0:0:0
196,84,226467,1,8,0:0:0
276,164,226617,6,0,B|348:124|440:136,1,160
388,204,227067,2,0,B|352:220|332:260,1,80,8|0,0:0|0:0,0:0:0
324,340,227367,2,0,B|392:384,2,80,0|0|8,0:0|0:0|0:0,0:0:0
252,300,227817,2,0,B|204:268|204:268|156:284|100:276,1,160
148,208,228267,2,0,B|188:192|212:156,1,80,8|0,0:0|0:0,0:0:0
264,60,228567,1,8,0:0:0
304,164,228717,1,0,0:0:0
304,164,228792,1,0,0:0:0
304,164,228867,1,8,0:0:0
400,108,229017,6,0,B|428:196|364:264,1,160
304,304,229467,2,0,B|220:288|140:332,1,160,8|0,0:0|0:0,0:0:0
80,368,229917,2,0,B|28:304,1,80,0|8,0:0|0:0,0:0:0
56,228,230217,2,0,B|140:244|220:200,1,160
268,148,230667,1,8,0:0:0
312,84,230817,2,0,B|348:56|388:52,1,80,0|8,0:0|0:0,0:0:0
392,164,231117,1,0,0:0:0
392,164,231192,1,0,0:0:0
392,164,231267,1,8,0:0:0
352,284,231417,6,0,B|440:280|492:216,1,160
392,164,231867,2,0,B|312:132,1,80,8|0,0:0|0:0,0:0:0
244,108,232167,1,0,0:0:0
172,76,232317,2,0,B|124:76,2,40,0|0|8,0:0|0:0|0:0,0:0:0
140,148,232617,1,0,0:0:0
108,220,232767,2,0,B|72:296,1,80,8|0,0:0|0:0,0:0:0
152,304,233067,2,0,B|116:380,1,80,8|0,0:0|0:0,0:0:0
200,376,233367,1,8,0:0:0
268,332,233517,1,0,0:0:0
348,328,233667,6,0,B|380:304|400:256,1,80,0|2,0:0|0:0,0:0:0
320,124,234117,5,0,0:0:0
320,124,234192,1,0,0:0:0
320,124,234267,2,0,B|248:176|168:168,1,160,4|0,0:0|0:0,0:0:0
92,156,234717,1,0,0:0:0
44,92,234867,1,8,0:0:0
116,124,235017,2,0,B|152:200|144:292,1,160
216,240,235467,2,0,B|252:208|292:200,1,80,8|0,0:0|0:0,0:0:0
364,184,235767,1,0,0:0:0
256,192,235917,12,0,238167,0:0:0
240,136,238467,6,0,B|240:56,1,80,0|2,0:0|0:0,0:0:0
96,132,238917,5,0,0:0:0
24,168,239067,2,0,B|40:252|108:304,1,160,4|0,0:0|0:0,0:0:0
184,280,239517,1,0,0:0:0
264,296,239667,1,8,0:0:0
332,336,239817,2,0,B|408:312|456:232,1,160
376,216,240267,2,0,B|400:180|408:140,1,80,8|0,0:0|0:0,0:0:0
416,64,240567,2,0,B|328:64|260:28,1,160,0|8,0:0|0:0,0:0:0
192,72,241017,1,0,0:0:0
256,192,241167,12,0,242817,0:0:0
256,112,243417,6,0,B|320:60|412:68,1,160,4|0,0:0|0:0,0:0:0
380,144,243867,2,0,B|348:220|356:308,1,160,4|0,0:0|0:0,0:0:0
384,376,244317,1,0,0:0:0
452,336,244467,1,8,0:0:0
468,256,244617,2,0,B|384:264|312:224,1,160
248,180,245067,1,8,0:0:0
200,116,245217,1,0,0:0:0
176,40,245367,1,0,0:0:0
256,192,245517,12,0,247767,0:0:0
136,120,248067,6,0,B|136:36,1,80,0|4,0:0|0:0,0:0:0
264,132,248517,5,0,0:0:0
340,160,248667,2,0,B|332:244|244:296,1,160,4|0,0:0|0:0,0:0:0
200,232,249117,1,0,0:0:0
128,200,249267,1,8,0:0:0
48,196,249417,2,0,B|40:280|92:352,1,160
168,328,249867,2,0,B|204:308|248:300,1,80,8|0,0:0|0:0,0:0:0
324,292,250167,2,0,B|360:212|344:132,1,160,0|8,0:0|0:0,0:0:0
328,56,250617,1,0,0:0:0
256,192,250767,12,0,252867,0:0:0
304,100,253221,6,0,B|360:128|392:196,1,120.000004577637,2|2,0:0|0:0,0:0:0
408,264,253783,1,0,0:0:0
328,236,253971,2,0,B|268:220|208:232,1,120.000004577637,2|2,0:0|0:0,0:0:0
64,316,254721,2,0,B|28:264|32:192,2,120.000004577637,0|2|2,0:0|0:0|0:0,0:0:0
168,180,255889,5,0,0:0:0
236,128,256093,1,0,0:0:0
320,116,256308,2,0,B|368:160|432:168,1,120.000004577637,2|2,0:0|0:0,0:0:0
508,180,256974,1,0,0:0:0
460,244,257196,2,0,B|420:284|400:360,1,120.000004577637,0|2,0:0|0:0,0:0:0
332,308,257907,2,0,B|272:264,1,60.0000022888184,2|0,0:0|0:0,0:0:0
104,183,258757,6,0,B|120:256|200:292,1,150.000005722046,2|0,0:0|0:0,0:0:0
256,192,259657,12,2,262957,0:0:0
